osu file format v14

[General]
AudioFilename: audio.mp3
AudioLeadIn: 0
PreviewTime: 16192
Countdown: 0
SampleSet: Normal
StackLeniency: 0.7
Mode: 0
LetterboxInBreaks: 0
EpilepsyWarning: 1
WidescreenStoryboard: 1

[Editor]
DistanceSpacing: 0.8
BeatDivisor: 4
GridSize: 16
TimelineZoom: 1

[Metadata]
Title:I Am Weasel (TV Size)
TitleUnicode:I Am Weasel (TV Size)
Artist:April March
ArtistUnicode:April March
Creator:Nitroz
Version:Hard
Source:I Am Weasel
Tags:cartoon network bill fulton cow and chicken
BeatmapID:1819905
BeatmapSetID:870531

[Difficulty]
HPDrainRate:6
CircleSize:4
OverallDifficulty:6
ApproachRate:8
SliderMultiplier:2.8
SliderTickRate:1

[Events]
//Background and Video events
0,0,"i am weasel.jpg",0,0
Video,0,"i am weasel.mp4"
//Break Periods
//Storyboard Layer 0 (Background)
//Storyboard Layer 1 (Fail)
//Storyboard Layer 2 (Pass)
//Storyboard Layer 3 (Foreground)
//Storyboard Sound Samples

[TimingPoints]
1488,336.605890603086,4,1,0,70,1,0
11552,331.491712707182,4,1,0,70,1,0
16855,-83.3333333333333,4,1,0,80,0,1
24811,340.909090909091,4,1,0,70,1,0
24811,-83.3333333333333,4,1,0,70,0,0

[HitObjects]
256,192,141,12,0,1151,0:0:0:0:
176,128,1319,5,0,0:0:0:0:
80,112,1488,2,0,P|128:48|192:32,1,140,4|0,0:0|0:0,0:0:0:0:
272,64,1824,2,0,P|256:128|304:176,1,140,8|0,0:0|0:0,0:0:0:0:
352,96,2161,2,0,P|400:160|256:240,1,280,0|8,0:0|0:0,0:0:0:0:
208,320,2666,1,0,0:0:0:0:
112,320,2834,6,0,P|48:272|48:208,2,140,4|0|8,0:0|0:0|0:0,0:0:0:0:
144,224,3339,2,0,P|256:208|224:64,1,280,0|0,0:0|0:0,0:0:0:0:
192,144,3844,2,0,P|96:128|64:64,1,140,8|0,0:0|0:0,0:0:0:0:
160,48,4180,6,0,P|208:0|304:16,1,140,4|0,0:0|0:0,0:0:0:0:
368,128,4517,2,0,P|320:80|224:96,1,140,8|0,0:0|0:0,0:0:0:0:
288,176,4854,1,0,0:0:0:0:
368,240,5022,1,0,0:0:0:0:
400,336,5190,2,0,P|464:288|448:192,1,140,8|0,0:0|0:0,0:0:0:0:
416,112,5527,6,0,B|288:16|288:208|160:112,1,280,4|8,0:0|0:0,0:0:0:0:
96,272,6032,2,0,B|224:368|224:176|352:272,1,280,0|0,0:0|0:0,0:0:0:0:
448,224,6537,1,8,0:0:0:0:
416,128,6705,1,0,0:0:0:0:
336,64,6873,6,0,P|336:144|368:192,1,140,4|0,0:0|0:0,0:0:0:0:
272,288,7210,2,0,P|272:208|240:160,1,140,8|0,0:0|0:0,0:0:0:0:
256,64,7546,2,0,P|160:80|208:240,1,280,0|8,0:0|0:0,0:0:0:0:
240,304,8051,1,0,0:0:0:0:
336,320,8220,1,4,0:0:0:0:
416,256,8388,1,0,0:0:0:0:
352,176,8556,1,8,0:0:0:0:
448,176,8725,2,0,P|368:80|256:160,1,280,0|0,0:0|0:0,0:0:0:0:
176,192,9229,2,0,P|224:240|304:224,2,140,8|0|4,0:0|0:0|0:0,0:0:0:0:
320,48,10239,6,0,P|368:96|368:176,1,140,0|0,0:0|0:0,0:0:0:0:
192,48,10576,2,0,P|144:96|144:176,1,140,0|0,0:0|0:0,0:0:0:0:
301,188,10912,6,0,B|288:160|288:160|256:196|224:160|224:160|208:192,1,140,4|8,0:0|0:0,0:0:0:0:
256,352,11552,5,4,0:0:0:0:
128,288,11772,1,0,0:0:0:0:
128,288,11883,2,0,B|64:256|64:192|64:192|64:112,1,186.666666666667,8|0,0:0|0:0,0:0:0:0:
112,32,12214,1,0,0:0:0:0:
112,32,12325,1,0,0:0:0:0:
112,32,12435,1,0,0:0:0:0:
112,32,12546,2,0,B|176:64|176:128|176:128|176:208,1,186.666666666667,8|0,0:0|0:0,0:0:0:0:
256,352,12877,5,4,0:0:0:0:
384,288,13097,1,0,0:0:0:0:
384,288,13208,2,0,B|448:256|448:192|448:192|448:112,1,186.666666666667,8|0,0:0|0:0,0:0:0:0:
400,32,13539,1,0,0:0:0:0:
400,32,13650,1,0,0:0:0:0:
400,32,13760,1,0,0:0:0:0:
400,32,13871,2,0,B|336:64|336:128|336:128|336:208,1,186.666666666667,8|0,0:0|0:0,0:0:0:0:
128,304,14203,6,0,P|256:352|384:304,1,280,4|8,0:0|0:0,0:0:0:0:
256,272,14701,1,0,0:0:0:0:
160,176,14866,1,0,0:0:0:0:
352,176,15032,1,0,0:0:0:0:
192,64,15198,1,8,0:0:0:0:
320,64,15364,1,0,0:0:0:0:
464,112,15529,6,0,P|432:272|336:320,1,280,4|8,0:0|0:0,0:0:0:0:
176,320,16027,2,0,P|62:246|49:112,1,280,4|0,0:0|0:0,0:0:0:0:
160,192,16524,1,8,0:0:0:0:
256,112,16690,1,0,0:0:0:0:
352,192,16855,6,0,P|416:128|384:64,1,167.999994873047,4|0,0:0|0:0,0:0:0:0:
288,144,17187,2,0,P|272:224|368:272,1,167.999994873047,8|0,0:0|0:0,0:0:0:0:
448,288,17518,2,0,B|400:368|304:368|304:368|128:368,1,335.999989746094,0|8,0:0|0:0,0:0:0:0:
64,272,18016,1,0,0:0:0:0:
128,160,18181,6,0,P|192:96|256:128,1,167.999994873047,4|0,0:0|0:0,0:0:0:0:
384,224,18513,2,0,P|320:288|256:256,1,167.999994873047,8|4,0:0|0:0,0:0:0:0:
384,32,19010,2,0,P|432:48|464:80,2,83.9999974365235,4|0|8,0:0|0:0|0:0,0:0:0:0:
256,64,19342,1,0,0:0:0:0:
160,192,19507,6,0,P|96:128|128:64,1,167.999994873047,4|0,0:0|0:0,0:0:0:0:
224,144,19839,2,0,P|240:224|144:272,1,167.999994873047,8|0,0:0|0:0,0:0:0:0:
64,288,20170,2,0,B|112:368|208:368|208:368|384:368,1,335.999989746094,0|8,0:0|0:0,0:0:0:0:
448,272,20668,1,0,0:0:0:0:
384,160,20833,2,0,P|320:96|256:128,1,167.999994873047,4|0,0:0|0:0,0:0:0:0:
128,224,21165,2,0,P|192:288|256:256,1,167.999994873047,8|4,0:0|0:0,0:0:0:0:
128,32,21662,2,0,P|80:48|48:80,2,83.9999974365235,4|0|8,0:0|0:0|0:0,0:0:0:0:
256,64,21994,1,0,0:0:0:0:
336,208,22159,6,0,B|256:240|256:240|176:208,1,167.999994873047,4|0,0:0|0:0,0:0:0:0:
398,272,22491,2,0,P|416:193|368:128,1,167.999994873047,8|0,0:0|0:0,0:0:0:0:
176,320,22822,2,0,P|256:352|336:320,1,167.999994873047,0|0,0:0|0:0,0:0:0:0:
144,128,23154,2,0,P|96:192|128:288,1,167.999994873047,8|0,0:0|0:0,0:0:0:0:
256,256,23485,1,4,0:0:0:0:
368,192,23651,1,0,0:0:0:0:
320,80,23817,1,8,0:0:0:0:
432,16,23982,1,4,0:0:0:0:
256,192,24148,12,4,24811,0:0:0:0:
32,240,25151,6,0,L|208:240,1,167.999994873047,8|0,0:0|0:0,0:0:0:0:
304,160,25492,2,0,P|336:240|304:320,1,167.999994873047,0|0,0:0|0:0,0:0:0:0:
256,32,26174,1,4,0:0:0:0:
480,144,26515,6,0,L|304:144,1,167.999994873047,8|0,0:0|0:0,0:0:0:0:
208,224,26856,2,0,P|176:144|208:64,1,167.999994873047,0|0,0:0|0:0,0:0:0:0:
256,192,27538,5,4,0:0:0:0:
256,192,27708,12,0,30265,0:0:0:0:
