osu file format v14

[General]
AudioFilename: audio.mp3
AudioLeadIn: 0
PreviewTime: 62109
Countdown: 0
SampleSet: Soft
StackLeniency: 0.7
Mode: 0
LetterboxInBreaks: 0
WidescreenStoryboard: 1

[Editor]
Bookmarks: 9247,15867,22488,26315,27971,29109,32936,34591,35315,42350,48764,55591,62212,68833,75453,82074,88695,95109,95315,101936,108557,115178,118902,121798,128419,132143,135040,139591,141660,148281,154902,158212,164833,168143,181384,188005,194626,201247,207867,214488
DistanceSpacing: 2
BeatDivisor: 4
GridSize: 32
TimelineZoom: 3.700001

[Metadata]
Title:Oh! My Mistake
TitleUnicode:Oh! My Mistake
Artist:April
ArtistUnicode:에이프릴
Creator:Everything Dust
Version:Love Way
Source:
Tags:Chaekyung Jinsol Chaewon Rachel Naeun Yena 채경 이진솔 김채원 레이첼 이나은 양예나 The Ruby Korean Pop
BeatmapID:1936605
BeatmapSetID:927216

[Difficulty]
HPDrainRate:4.5
CircleSize:3.5
OverallDifficulty:8
ApproachRate:9
SliderMultiplier:2.7
SliderTickRate:1

[Events]
//Background and Video events
Video,0,"oh.mp4"
0,0,"april.jpg",0,0
//Break Periods
//Storyboard Layer 0 (Background)
//Storyboard Layer 1 (Fail)
//Storyboard Layer 2 (Pass)
//Storyboard Layer 3 (Foreground)
//Storyboard Layer 4 (Overlay)
//Storyboard Sound Samples

[TimingPoints]
9247,413.793103448276,4,2,1,30,1,0
14626,-100,4,2,1,30,0,0
22488,-100,4,2,1,50,0,0
47005,-100,4,2,1,5,0,0
47109,-100,4,2,1,50,0,0
48971,-100,4,2,1,60,0,0
54350,-66.6666666666667,4,2,1,60,0,0
54453,-66.6666666666667,4,2,1,5,0,0
54764,-100,4,2,1,60,0,0
60557,-100,4,2,1,70,0,0
62005,-100,4,2,1,5,0,0
62212,-100,4,2,1,80,0,1
88695,-133.333333333333,4,2,1,50,0,0
101109,-133.333333333333,4,2,1,50,0,0
101316,-100,4,2,1,5,0,0
101522,-100,4,2,1,50,0,0
101936,-100,4,2,1,50,0,0
115178,-100,4,2,1,60,0,0
115384,-100,4,2,1,60,0,0
115798,-100,4,2,1,60,0,0
120557,-66.6666666666667,4,2,1,60,0,0
120660,-66.6666666666667,4,2,1,5,0,0
120971,-100,4,2,1,60,0,0
126764,-100,4,2,1,70,0,0
128212,-100,4,2,1,5,0,0
128419,-100,4,2,1,80,0,1
135040,-100,4,2,1,80,0,1
141660,-100,4,2,1,80,0,1
154902,-133.333333333333,4,2,1,50,0,0
157384,-153.846153846154,4,2,1,50,0,0
158212,-133.333333333333,4,2,1,50,0,0
160281,-200,4,2,1,50,0,0
161109,-133.333333333333,4,2,1,50,0,0
164833,-133.333333333333,4,2,1,50,0,0
167315,-133.333333333333,4,2,1,50,0,0
167626,-114.285714285714,4,2,1,50,0,0
167936,-100,4,2,1,50,0,0
168350,-100,4,2,1,60,0,0
174764,-100,4,2,1,60,0,0
179729,-100,4,2,1,80,0,0
180557,-100,4,2,1,80,0,0
181178,-100,4,2,1,5,0,0
181384,-100,4,2,1,80,0,1
194626,-100,4,2,1,80,0,1
207660,-109.051254089422,4,2,1,80,0,0
207867,-109.051254089422,4,2,1,20,0,0
210350,-133.333333333333,4,2,1,40,0,0
210557,-133.333333333333,4,2,1,5,0,0
210660,-133.333333333333,4,2,1,40,0,0
210867,-133.333333333333,4,2,1,5,0,0
210971,-133.333333333333,4,2,1,40,0,0
213453,-133.333333333333,4,2,1,5,0,0

[Colours]
Combo1 : 244,70,240
Combo2 : 255,211,62
SliderBorder : 222,199,30
SliderTrackOverride : 225,57,30

[HitObjects]
8,245,9247,5,0,0:0:0:0:
140,264,9453,1,0,0:0:0:0:
272,283,9660,2,0,L|245:132,1,135
224,17,10074,6,0,L|375:37,1,135
490,53,10488,2,0,L|423:190,1,135
370,295,10902,5,0,0:0:0:0:
502,314,11108,1,0,0:0:0:0:
479,182,11315,2,0,L|328:161,1,135
285,284,11729,2,0,L|134:263,1,135
17,246,12143,5,0,0:0:0:0:
40,378,12350,1,0,0:0:0:0:
159,314,12557,2,0,L|132:163,1,135
57,146,12971,6,0,P|29:86|37:20,1,135
233,67,13384,2,0,P|283:91|328:187,1,135
222,332,13798,2,0,P|195:282|215:178,1,135
328,249,14212,6,0,L|496:218,1,135
483,23,14626,2,0,L|315:53,1,135
217,69,15040,2,0,P|229:133|274:182,1,135
434,310,15453,2,0,P|385:264|320:252,1,135
176,285,15867,5,0,0:0:0:0:
51,231,16074,1,0,0:0:0:0:
62,95,16281,2,0,L|221:57,1,135
264,178,16695,2,0,L|422:140,1,135
398,11,17109,2,0,L|395:148,1,135
391,280,17522,5,0,0:0:0:0:
261,317,17729,1,0,0:0:0:0:
131,355,17936,2,0,L|133:217,1,135
54,109,18350,6,0,L|185:68,1,135
256,183,18764,2,0,L|387:142,1,135
509,106,19178,6,0,P|489:41|438:0,1,135
255,183,19591,2,0,P|310:144|334:82,1,135
88,3,20005,2,0,P|66:67|82:130,1,135
255,183,20419,2,0,P|306:226|325:289,1,135
72,341,20833,6,0,P|55:275|78:213,1,135
330,162,21247,2,0,P|347:228|324:290,1,135
211,361,21660,2,0,P|236:297|291:260,1,135
423,267,22074,1,0,0:0:0:0:
299,124,22488,5,0,0:0:0:0:
333,253,22695,1,0,0:0:0:0:
445,180,22902,2,0,L|328:86,1,135
226,169,23315,5,0,0:0:0:0:
190,38,23522,1,0,0:0:0:0:
325,44,23729,2,0,L|260:220,1,135
143,164,24143,5,0,0:0:0:0:
179,293,24350,1,0,0:0:0:0:
289,219,24557,2,0,L|141:102,1,135
69,210,24971,6,0,P|64:277|97:334,1,135
230,338,25384,2,0,L|418:345,1,135
498,348,25798,1,0,0:0:0:0:
461,219,26005,5,0,0:0:0:0:
326,214,26212,1,0,0:0:0:0:
272,172,26315,1,0,0:0:0:0:
295,107,26419,1,0,0:0:0:0:
423,147,26626,2,0,P|428:81|395:24,1,135
295,107,27040,5,0,0:0:0:0:
167,67,27247,1,0,0:0:0:0:
39,109,27453,2,0,P|34:175|67:232,1,135
216,230,27867,1,0,0:0:0:0:
273,268,27970,1,0,0:0:0:0:
254,335,28074,1,0,0:0:0:0:
128,362,28281,6,0,L|178:195,1,135
301,229,28695,2,0,L|351:62,1,135
446,17,29109,5,0,0:0:0:0:
339,99,29315,1,0,0:0:0:0:
450,175,29522,2,0,P|451:108|415:53,1,135
312,144,29936,5,0,0:0:0:0:
181,178,30143,1,0,0:0:0:0:
49,209,30350,2,0,L|65:21,1,135
192,7,30764,1,0,0:0:0:0:
74,77,30971,5,0,0:0:0:0:
177,167,31178,1,0,0:0:0:0:
59,237,31384,1,0,0:0:0:0:
28,104,31591,2,0,P|92:87|153:110,1,135
208,153,31902,2,0,P|270:175|333:159,1,135
385,113,32212,1,0,0:0:0:0:
254,76,32419,2,0,P|251:142|286:197,1,135
414,244,32833,5,0,0:0:0:0:
496,137,33040,1,0,0:0:0:0:
368,91,33247,2,0,L|362:237,1,135
358,360,33660,1,0,0:0:0:0:
358,360,33867,5,0,0:0:0:0:
484,313,34074,2,0,P|447:257|386:233,1,135
257,278,34488,1,0,0:0:0:0:
187,279,34591,1,0,0:0:0:0:
162,214,34695,1,0,0:0:0:0:
249,111,34902,2,0,P|252:177|217:232,1,135
83,205,35315,5,0,0:0:0:0:
8,317,35522,1,0,0:0:0:0:
137,353,35729,2,0,L|135:183,1,135
133,83,36143,5,0,0:0:0:0:
260,39,36350,1,0,0:0:0:0:
262,171,36557,2,0,P|312:129|377:122,1,135
487,203,36971,5,0,0:0:0:0:
356,236,37178,1,0,0:0:0:0:
427,350,37384,1,0,0:0:0:0:
512,247,37591,1,0,0:0:0:0:
387,197,37798,2,0,P|330:229|301:288,1,135
194,374,38212,2,0,P|180:310|133:264,1,135
0,275,38626,1,0,0:0:0:0:
0,275,38833,5,0,0:0:0:0:
161,131,39040,2,0,L|131:263,1,135
26,142,39453,1,0,0:0:0:0:
56,10,39659,1,0,0:0:0:0:
171,80,39867,2,0,P|234:95|295:72,1,135
375,2,40178,2,0,P|314:26|278:81,1,135
288,150,40488,1,0,0:0:0:0:
288,150,40695,5,0,0:0:0:0:
157,123,40902,1,0,0:0:0:0:
90,239,41109,1,0,0:0:0:0:
179,338,41315,1,0,0:0:0:0:
245,222,41522,2,0,P|228:285|251:346,1,135
316,323,41833,2,0,P|371:358|436:355,1,135
489,309,42143,1,0,0:0:0:0:
489,309,42350,5,0,0:0:0:0:
441,182,42557,1,0,0:0:0:0:
335,266,42764,2,0,P|374:213|375:147,1,135
230,165,43178,5,0,0:0:0:0:
116,91,43385,1,0,0:0:0:0:
221,5,43591,2,0,P|266:52|275:118,1,135
214,240,44005,5,0,0:0:0:0:
326,312,44212,1,0,0:0:0:0:
359,183,44419,2,0,P|296:164|233:183,1,135
148,298,44833,5,0,0:0:0:0:
19,255,45040,1,0,0:0:0:0:
20,120,45247,2,0,P|71:79|137:75,1,135
267,146,45660,5,0,0:0:0:0:
400,128,45867,1,0,0:0:0:0:
497,35,46074,2,0,P|436:60|401:115,1,135
491,293,46488,2,0,P|485:227|443:177,1,135
375,184,46798,2,0,P|310:168|267:119,1,135
272,49,47109,1,0,0:0:0:0:
272,49,47315,5,0,0:0:0:0:
141,24,47522,1,0,0:0:0:0:
20,79,47730,2,0,P|4:144|27:205,1,135
159,234,48143,5,0,0:0:0:0:
92,357,48350,1,0,0:0:0:0:
23,344,48453,1,0,0:0:0:0:
14,274,48557,2,0,P|61:227|126:217,1,135
269,300,48971,2,0,P|328:270|359:212,1,135
494,217,49384,6,0,P|484:151|438:104,1,135
314,159,49798,1,0,0:0:0:0:
314,159,50005,6,0,L|375:130,1,67.5
437,103,50212,2,0,L|265:181,1,135
191,213,50626,6,0,P|201:279|247:326,1,135
368,268,51040,1,0,0:0:0:0:
368,268,51247,6,0,L|307:297,1,67.5
246,326,51453,2,0,L|306:358,2,67.5
125,383,51867,6,0,P|64:355|31:298,1,135
62,153,52281,5,0,0:0:0:0:
177,221,52488,1,0,0:0:0:0:
205,89,52695,2,0,P|210:156|251:207,1,135
395,231,53109,5,0,0:0:0:0:
333,348,53315,1,0,0:0:0:0:
240,252,53522,2,0,P|284:202|348:187,1,135
474,255,53936,5,0,0:0:0:0:
495,122,54143,1,0,0:0:0:0:
362,143,54350,2,0,L|383:8,1,101.250003862381
377,42,55178,5,0,0:0:0:0:
257,104,55384,1,0,0:0:0:0:
280,237,55591,1,0,0:0:0:0:
399,174,55798,1,0,0:0:0:0:
302,80,56005,2,0,L|159:105,1,135
149,236,56419,1,0,0:0:0:0:
149,236,56626,6,0,L|242:222,1,67.5
282,216,56833,2,0,L|95:243,1,135
12,253,57247,5,0,0:0:0:0:
34,119,57453,1,0,0:0:0:0:
154,181,57660,2,0,L|296:155,1,135
307,25,58074,1,0,0:0:0:0:
307,25,58281,6,0,L|214:39,1,67.5
173,45,58488,2,0,L|359:17,1,135
442,6,58902,5,0,0:0:0:0:
419,139,59109,1,0,0:0:0:0:
478,260,59315,2,0,P|433:210|369:194,1,135
235,263,59729,5,0,0:0:0:0:
99,242,59936,1,0,0:0:0:0:
160,119,60143,2,0,P|195:176|193:241,1,135
90,351,60557,5,0,0:0:0:0:
121,287,60660,1,0,0:0:0:0:
190,294,60764,1,0,0:0:0:0:
323,316,60971,5,0,0:0:0:0:
383,281,61075,1,0,0:0:0:0:
370,211,61178,1,0,0:0:0:0:
243,218,61384,6,0,P|266:279|321:315,1,135
368,121,61798,2,0,P|345:60|290:24,1,135
157,99,62212,5,0,0:0:0:0:
39,167,62419,1,0,0:0:0:0:
39,30,62626,2,0,L|164:102,1,135
272,165,63040,5,0,0:0:0:0:
389,97,63247,1,0,0:0:0:0:
271,30,63453,2,0,L|271:174,1,135
271,298,63868,5,0,0:0:0:0:
153,366,64075,1,0,0:0:0:0:
153,229,64282,2,0,L|278:301,1,135
386,364,64696,5,0,0:0:0:0:
503,296,64903,1,0,0:0:0:0:
385,229,65109,1,0,0:0:0:0:
385,229,65315,5,0,0:0:0:0:
503,296,65522,2,0,P|523:234|503:171,1,135
246,255,65936,2,0,L|110:301,1,135
30,114,66350,6,0,P|80:74|146:71,1,135
323,279,66764,2,0,P|387:277|440:238,1,135
362,25,67178,6,0,L|363:159,1,135
197,276,67591,2,0,P|225:333|283:363,1,135
484,316,68005,6,0,L|483:179,1,135
483,42,68419,1,0,0:0:0:0:
483,42,68626,1,0,0:0:0:0:
365,111,68833,5,0,0:0:0:0:
483,179,69040,1,0,0:0:0:0:
483,42,69247,2,0,L|358:114,1,135
250,177,69661,5,0,0:0:0:0:
133,109,69868,1,0,0:0:0:0:
251,42,70074,2,0,L|250:186,1,135
251,310,70489,5,0,0:0:0:0:
369,378,70696,1,0,0:0:0:0:
369,241,70903,2,0,L|244:313,1,135
136,376,71315,5,0,0:0:0:0:
35,286,71522,1,0,0:0:0:0:
151,217,71729,1,0,0:0:0:0:
252,306,71936,1,0,0:0:0:0:
386,318,72143,1,0,0:0:0:0:
438,194,72350,1,0,0:0:0:0:
304,182,72557,6,0,L|336:330,1,135
512,131,72971,2,0,L|480:-17,1,135
216,42,73384,2,0,P|209:106|242:163,1,135
486,286,73798,6,0,P|453:229|393:203,1,135
166,354,74212,2,0,L|15:341,1,135
45,71,74626,2,0,P|104:96|138:153,1,135
124,279,75040,1,0,0:0:0:0:
124,279,75247,5,0,0:0:0:0:
307,361,75453,2,0,P|358:321|376:258,1,135
365,152,75764,2,0,P|347:214|369:276,1,135
462,321,76074,5,0,0:0:0:0:
462,321,76281,2,0,L|281:326,1,135
144,330,76695,2,0,P|89:295|65:233,1,135
92,23,77109,6,0,P|146:57|171:117,1,135
170,224,77420,2,0,P|145:164|161:100,1,135
244,39,77730,5,0,0:0:0:0:
244,39,77936,2,0,L|335:36,2,67.5
379,36,78350,2,0,L|181:39,1,135
40,39,78764,6,0,P|1:91|1:157,1,135
117,229,79178,5,0,0:0:0:0:
233,162,79384,1,0,0:0:0:0:
133,70,79591,2,0,L|162:209,1,135
181,302,79902,1,0,0:0:0:0:
180,302,80212,5,0,0:0:0:0:
63,368,80419,2,0,P|27:305|48:225,1,135
286,151,80833,2,0,P|321:213|300:293,1,135
180,302,81246,2,0,L|337:268,1,135
412,251,81557,1,0,0:0:0:0:
412,251,81867,5,0,0:0:0:0:
473,96,82074,2,0,P|407:68|330:99,1,135
265,147,82384,2,0,P|194:140|140:77,1,135
56,141,82695,5,0,0:0:0:0:
56,141,82902,2,0,L|73:47,2,67.5
80,8,83315,2,0,L|56:141,1,135
31,273,83729,6,0,P|96:300|173:269,1,135
239,222,84040,2,0,P|309:228|363:291,1,135
448,228,84350,5,0,0:0:0:0:
448,228,84557,2,0,L|430:321,2,67.5
423,360,84971,1,0,0:0:0:0:
512,257,85178,5,0,0:0:0:0:
441,140,85384,1,0,0:0:0:0:
307,171,85591,1,0,0:0:0:0:
216,274,85798,1,0,0:0:0:0:
89,218,86005,1,0,0:0:0:0:
181,114,86212,2,0,L|166:270,1,135
162,315,86522,1,0,0:0:0:0:
162,315,86833,5,0,0:0:0:0:
432,320,87040,2,0,P|460:255|430:177,1,135
181,114,87453,2,0,P|153:179|183:257,1,135
337,249,87867,6,0,P|321:179|251:134,1,135
203,129,88178,2,0,P|256:175|339:171,1,135
397,131,88488,1,0,0:0:0:0:
377,41,88695,5,0,0:0:0:0:
297,87,88902,1,0,0:0:0:0:
365,148,89109,1,0,0:0:0:0:
402,64,89315,1,0,0:0:0:0:
333,2,89522,1,0,0:0:0:0:
252,48,89729,1,0,0:0:0:0:
213,132,89936,1,0,0:0:0:0:
131,176,90143,1,0,0:0:0:0:
63,111,90350,6,0,L|228:133,2,151.875005793572
50,211,91178,2,0,P|78:276|186:301,1,151.875005793572
284,283,91798,5,0,0:0:0:0:
354,210,92005,1,0,0:0:0:0:
404,216,92109,1,0,0:0:0:0:
428,259,92212,1,0,0:0:0:0:
349,321,92419,1,0,0:0:0:0:
314,226,92626,1,0,0:0:0:0:
393,163,92833,1,0,0:0:0:0:
419,65,93040,1,0,0:0:0:0:
333,9,93247,1,0,0:0:0:0:
253,73,93453,1,0,0:0:0:0:
289,168,93660,6,0,L|454:190,2,151.875005793572
187,157,94488,2,0,P|169:88|238:2,1,151.875005793572
357,12,95109,5,0,0:0:0:0:
451,45,95315,2,0,L|420:159,1,101.250003862381
407,191,95626,5,0,0:0:0:0:
357,202,95729,2,0,L|401:310,1,101.250003862381
415,343,96040,5,0,0:0:0:0:
442,300,96143,2,0,L|325:308,1,101.250003862381
289,312,96454,5,0,0:0:0:0:
261,354,96557,2,0,L|144:362,1,101.250003862381
109,364,96867,5,0,0:0:0:0:
77,325,96971,2,0,L|104:211,1,101.250003862381
142,200,97281,5,0,0:0:0:0:
174,161,97384,2,0,L|146:47,1,101.250003862381
81,22,97695,5,0,0:0:0:0:
37,41,97798,2,0,B|40:93|124:115|134:186,1,151.875005793572
78,292,98419,5,0,0:0:0:0:
179,287,98626,2,0,P|166:240|119:198,1,101.250003862381
53,213,98936,5,0,0:0:0:0:
26,256,99040,2,0,P|38:302|85:344,1,101.250003862381
155,375,99350,5,0,0:0:0:0:
174,328,99454,2,0,P|219:311|280:324,1,101.250003862381
360,330,99764,5,0,0:0:0:0:
407,311,99868,2,0,P|423:265|410:204,1,101.250003862381
494,159,100178,5,0,0:0:0:0:
506,109,100282,2,0,P|479:68|421:43,1,101.250003862381
350,154,100591,5,0,0:0:0:0:
299,165,100695,2,0,P|258:138|233:80,1,101.250003862381
256,0,101005,5,0,0:0:0:0:
303,21,101109,2,0,P|319:66|306:127,1,101.250003862381
220,189,101522,2,0,P|253:131|312:104,1,135
445,171,101936,5,0,0:0:0:0:
311,194,102143,1,0,0:0:0:0:
374,314,102350,2,0,P|405:254|398:189,1,135
292,87,102764,5,0,0:0:0:0:
158,112,102971,1,0,0:0:0:0:
24,137,103178,2,0,L|44:-14,1,135
162,61,103591,5,0,0:0:0:0:
294,35,103798,1,0,0:0:0:0:
392,126,104005,2,0,L|199:164,1,135
120,258,104419,2,0,L|313:220,1,135
423,280,104833,2,0,L|229:317,1,135
157,330,105247,5,0,0:0:0:0:
34,272,105453,1,0,0:0:0:0:
126,172,105660,2,0,P|97:233|106:297,1,135
232,361,106074,5,0,0:0:0:0:
347,295,106281,1,0,0:0:0:0:
467,349,106488,1,0,0:0:0:0:
467,349,106695,5,0,0:0:0:0:
338,375,106902,2,0,L|354:219,1,135
481,214,107315,2,0,L|497:58,1,135
371,23,107729,5,0,0:0:0:0:
280,123,107936,1,0,0:0:0:0:
402,179,108143,2,0,P|388:112|341:66,1,135
239,162,108557,5,0,0:0:0:0:
102,147,108764,1,0,0:0:0:0:
158,21,108971,2,0,L|199:208,1,135
214,283,109384,5,0,0:0:0:0:
348,296,109591,1,0,0:0:0:0:
401,172,109798,2,0,P|336:149|213:282,1,270
348,296,110419,5,0,0:0:0:0:
231,364,110626,2,0,L|66:346,1,135
42,213,111040,6,0,P|109:202|169:229,1,135
213,277,111350,2,0,P|275:303|340:291,1,135
391,248,111660,1,0,0:0:0:0:
512,192,111867,2,0,L|452:61,1,135
320,84,112281,5,0,0:0:0:0:
315,153,112384,1,0,0:0:0:0:
378,182,112488,1,0,0:0:0:0:
455,69,112695,2,0,L|311:85,1,135
185,99,113109,1,0,0:0:0:0:
185,99,113315,5,0,0:0:0:0:
320,84,113522,2,0,P|325:151|292:209,1,135
153,222,113936,5,0,0:0:0:0:
101,267,114040,1,0,0:0:0:0:
125,331,114143,1,0,0:0:0:0:
258,322,114350,2,0,P|252:254|211:202,1,135
67,172,114764,5,0,0:0:0:0:
51,36,114971,1,0,0:0:0:0:
185,62,115178,1,0,0:0:0:0:
118,181,115384,1,0,0:0:0:0:
174,305,115591,2,0,L|313:289,1,135
442,273,116005,1,0,0:0:0:0:
442,273,116212,6,0,L|374:280,1,67.5
307,288,116419,2,0,L|446:272,1,135
467,139,116833,2,0,P|421:88|357:71,1,135
248,163,117247,1,0,0:0:0:0:
248,163,117453,6,0,L|180:170,1,67.5
112,177,117660,2,0,L|83:113,2,67.5
152,305,118074,5,0,0:0:0:0:
17,317,118281,1,0,0:0:0:0:
45,185,118488,2,0,L|204:166,1,135
398,294,118902,2,0,P|430:234|426:167,1,135
330,65,119315,5,0,0:0:0:0:
266,182,119522,1,0,0:0:0:0:
397,207,119729,2,0,L|294:98,1,135
179,169,120143,5,0,0:0:0:0:
86,70,120350,1,0,0:0:0:0:
208,12,120557,2,0,L|180:159,1,101.250003862381
183,136,121384,5,0,0:0:0:0:
157,268,121591,1,0,0:0:0:0:
290,251,121798,1,0,0:0:0:0:
314,119,122005,1,0,0:0:0:0:
183,136,122212,2,0,P|152:196|157:263,1,135
257,364,122626,1,0,0:0:0:0:
257,364,122833,6,0,L|350:348,1,67.5
390,342,123040,2,0,L|203:372,1,135
122,384,123453,1,0,0:0:0:0:
60,263,123661,1,0,0:0:0:0:
194,242,123867,2,0,P|224:181|219:114,1,135
135,5,124281,1,0,0:0:0:0:
135,5,124488,6,0,L|41:20,1,67.5
2,27,124695,2,0,L|188:-3,1,135
196,125,125109,5,0,0:0:0:0:
328,146,125315,1,0,0:0:0:0:
387,27,125522,2,0,P|358:88|367:155,1,135
474,250,125936,5,0,0:0:0:0:
340,239,126143,1,0,0:0:0:0:
225,308,126350,2,0,P|163:279|126:223,1,135
122,108,126764,5,0,0:0:0:0:
177,68,126867,1,0,0:0:0:0:
234,106,126971,1,0,0:0:0:0:
342,187,127178,5,0,0:0:0:0:
412,185,127282,1,0,0:0:0:0:
431,119,127385,1,0,0:0:0:0:
234,106,127591,6,0,P|219:172|241:235,1,135
487,359,128005,2,0,P|501:292|479:229,1,135
385,135,128419,5,0,0:0:0:0:
407,2,128626,1,0,0:0:0:0:
512,87,128833,2,0,L|379:138,1,135
258,183,129247,5,0,0:0:0:0:
362,268,129454,1,0,0:0:0:0:
385,135,129661,2,0,L|251:185,1,135
131,229,130074,5,0,0:0:0:0:
153,95,130281,1,0,0:0:0:0:
258,182,130488,2,0,L|124:232,1,135
4,276,130902,5,0,0:0:0:0:
108,362,131109,1,0,0:0:0:0:
131,229,131315,1,0,0:0:0:0:
131,229,131522,5,0,0:0:0:0:
333,265,131729,2,0,P|365:205|359:141,1,135
79,112,132143,2,0,P|87:178|130:227,1,135
333,265,132557,6,0,L|472:249,1,135
512,16,132971,2,0,L|373:32,1,135
243,265,133384,6,0,P|177:248|134:199,1,135
356,43,133798,2,0,P|399:95|405:160,1,135
348,341,134212,6,0,L|209:357,1,135
25,359,134626,2,0,P|11:292|33:229,1,135
127,135,135040,5,0,0:0:0:0:
105,2,135247,1,0,0:0:0:0:
0,87,135454,2,0,L|133:138,1,135
254,183,135868,5,0,0:0:0:0:
150,268,136075,1,0,0:0:0:0:
127,135,136282,2,0,L|261:185,1,135
380,229,136695,5,0,0:0:0:0:
358,95,136902,1,0,0:0:0:0:
254,182,137109,2,0,L|388:232,1,135
507,276,137523,5,0,0:0:0:0:
403,362,137730,1,0,0:0:0:0:
381,229,137936,1,0,0:0:0:0:
441,108,138143,1,0,0:0:0:0:
344,13,138350,1,0,0:0:0:0:
223,75,138557,1,0,0:0:0:0:
319,170,138764,6,0,P|330:103|302:44,1,135
31,46,139178,2,0,P|19:112|47:171,1,135
270,323,139591,2,0,L|422:304,1,135
443,37,140005,6,0,P|377:23|318:51,1,135
270,323,140419,2,0,P|320:277|332:213,1,135
80,112,140833,2,0,L|103:281,1,135
116,378,141247,1,0,0:0:0:0:
116,378,141453,5,0,0:0:0:0:
264,131,141660,2,0,P|309:180|317:246,1,135
251,325,141971,2,0,L|82:318,1,135
14,314,142281,5,0,0:0:0:0:
14,314,142488,2,0,L|47:147,1,135
73,19,142902,2,0,P|138:32|183:81,1,135
257,269,143315,6,0,P|212:220|204:154,1,135
270,75,143626,2,0,L|439:82,1,135
507,86,143936,5,0,0:0:0:0:
507,86,144143,2,0,L|439:83,2,67.5
303,78,144557,2,0,P|298:144|334:200,1,135
504,310,144971,6,0,P|468:253|406:229,1,135
265,273,145384,1,0,0:0:0:0:
135,231,145591,1,0,0:0:0:0:
215,120,145798,2,0,P|235:184|214:247,1,135
75,286,146109,1,0,0:0:0:0:
75,286,146419,5,0,0:0:0:0:
212,372,146626,2,0,P|233:308|213:244,1,135
77,95,147040,2,0,P|97:159|150:198,1,135
278,157,147453,6,0,L|103:212,1,135
52,231,147764,1,0,0:0:0:0:
52,231,148074,5,0,0:0:0:0:
43,28,148281,2,0,P|110:28|163:68,1,135
257,29,148591,2,0,P|277:93|256:156,1,135
166,205,148902,1,0,0:0:0:0:
166,205,149109,6,0,L|262:223,2,67.5
298,229,149522,1,0,0:0:0:0:
177,287,149729,1,0,0:0:0:0:
269,384,149936,2,0,P|335:375|383:329,1,135
480,356,150247,2,0,P|492:290|463:230,1,135
368,191,150557,1,0,0:0:0:0:
368,191,150764,6,0,L|461:161,2,67.5
495,152,151178,1,0,0:0:0:0:
418,43,151384,5,0,0:0:0:0:
290,82,151591,1,0,0:0:0:0:
180,157,151798,1,0,0:0:0:0:
53,111,152005,1,0,0:0:0:0:
135,4,152212,1,0,0:0:0:0:
211,115,152419,2,0,L|352:72,1,135
437,46,152729,1,0,0:0:0:0:
437,46,153040,5,0,0:0:0:0:
178,127,153247,2,0,P|174:193|212:249,1,135
479,215,153660,2,0,P|483:149|445:93,1,135
256,171,154074,6,0,P|307:213|374:215,1,135
425,301,154384,2,0,P|481:264|503:202,1,135
448,115,154695,1,0,0:0:0:0:
256,171,154902,6,0,P|229:148|211:62,1,101.250003862381
228,13,155212,2,0,P|236:46|200:126,1,101.250003862381
142,123,155522,1,0,0:0:0:0:
16,210,155729,6,0,L|53:313,1,101.250003862381
146,340,156040,2,0,L|109:237,1,101.250003862381
50,305,156350,1,0,0:0:0:0:
146,340,156557,6,0,P|179:348|259:312,1,101.250003862381
296,275,156867,2,0,P|327:259|412:278,1,101.250003862381
453,310,157177,1,0,0:0:0:0:
478,211,157384,2,0,L|424:72,2,131.624993974686
453,310,158212,5,0,0:0:0:0:
352,317,158419,1,0,0:0:0:0:
266,263,158626,2,0,P|261:228|306:153,1,101.250003862381
398,151,159040,2,0,P|417:122|411:34,1,101.250003862381
327,3,159453,5,0,0:0:0:0:
253,73,159660,1,0,0:0:0:0:
342,121,159867,2,0,P|340:86|284:19,1,101.250003862381
241,110,160281,2,0,L|100:144,1,135
65,148,161109,5,0,0:0:0:0:
72,141,161212,1,0,0:0:0:0:
77,132,161315,1,0,0:0:0:0:
79,122,161419,1,0,0:0:0:0:
72,114,161522,6,0,P|63:147|99:227,1,101.250003862381
142,258,161833,2,0,P|129:225|53:182,1,101.250003862381
7,219,162142,1,0,0:0:0:0:
24,350,162350,6,0,L|125:338,1,101.250003862381
199,350,162660,2,0,L|300:338,1,101.250003862381
374,350,162971,1,0,0:0:0:0:
485,298,163178,6,0,P|493:264|456:185,1,101.250003862381
500,130,163488,2,0,P|471:111|384:122,1,101.250003862381
360,172,163798,1,0,0:0:0:0:
267,292,164005,2,0,P|138:264|149:100,1,303.750011587143
221,166,164833,5,0,0:0:0:0:
296,99,165040,1,0,0:0:0:0:
208,47,165247,1,0,0:0:0:0:
134,115,165453,1,0,0:0:0:0:
46,65,165660,2,0,P|77:49|163:66,1,101.250003862381
210,137,166074,5,0,0:0:0:0:
310,131,166281,1,0,0:0:0:0:
273,37,166488,2,0,P|252:65|359:204,1,202.500007724762
358,109,167315,6,0,P|381:134|389:221,1,101.250003862381
354,274,167626,2,0,P|349:239|397:159,1,118.125001126528
467,160,167936,2,0,P|498:101|493:35,1,135
377,17,168350,5,0,0:0:0:0:
306,67,168557,2,0,P|314:133|357:182,1,135
422,160,168867,5,0,0:0:0:0:
445,166,168971,2,0,P|474:226|466:291,1,135
428,349,169281,5,0,0:0:0:0:
411,365,169384,2,0,L|315:365,1,67.5
276,365,169591,2,0,L|246:273,2,67.5
386,285,170005,5,0,0:0:0:0:
343,155,170212,1,0,0:0:0:0:
206,155,170419,1,0,0:0:0:0:
248,285,170626,2,0,P|289:232|293:167,1,135
383,163,170936,5,0,0:0:0:0:
390,145,171040,2,0,P|352:89|292:65,1,135
213,114,171350,5,0,0:0:0:0:
197,124,171453,1,0,0:0:0:0:
65,157,171660,5,0,0:0:0:0:
74,21,171867,1,0,0:0:0:0:
200,71,172074,1,0,0:0:0:0:
113,175,172281,5,0,0:0:0:0:
185,289,172488,1,0,0:0:0:0:
315,255,172695,1,0,0:0:0:0:
242,141,172902,1,0,0:0:0:0:
280,294,173109,6,0,P|304:231|290:168,1,135
90,132,173522,2,0,P|65:194|79:257,1,135
334,351,173936,2,0,L|482:311,1,135
487,228,174247,1,0,0:0:0:0:
491,208,174350,2,0,L|342:247,1,135
274,268,174660,5,0,0:0:0:0:
258,258,174764,1,0,0:0:0:0:
171,363,174971,5,0,0:0:0:0:
44,312,175177,1,0,0:0:0:0:
131,207,175384,1,0,0:0:0:0:
58,91,175591,2,0,P|30:152|42:215,1,135
105,272,175902,5,0,0:0:0:0:
121,262,176006,1,0,0:0:0:0:
250,228,176212,5,0,0:0:0:0:
374,276,176419,1,0,0:0:0:0:
457,172,176626,1,0,0:0:0:0:
332,125,176833,2,0,P|345:190|392:234,1,135
512,192,177247,1,0,0:0:0:0:
285,244,177453,5,0,0:0:0:0:
306,313,177557,1,0,0:0:0:0:
373,314,177660,2,0,P|376:247|341:193,1,135
235,276,178074,5,0,0:0:0:0:
105,239,178281,1,0,0:0:0:0:
100,103,178488,1,0,0:0:0:0:
227,56,178695,1,0,0:0:0:0:
310,162,178902,1,0,0:0:0:0:
183,208,179109,5,0,0:0:0:0:
336,220,179315,2,0,P|306:160|155:151,1,202.5
127,202,179729,2,0,P|101:150|103:120,1,67.5
171,69,179936,6,0,L|189:175,1,67.5
282,105,180143,2,0,L|300:211,1,67.5
173,220,180350,2,0,L|191:326,1,67.5
371,316,180557,1,0,0:0:0:0:
294,384,180971,6,0,P|270:321|285:256,1,135
431,147,181384,5,0,0:0:0:0:
362,264,181591,1,0,0:0:0:0:
497,264,181798,2,0,L|355:265,1,135
93,267,182212,5,0,0:0:0:0:
227,267,182419,1,0,0:0:0:0:
160,384,182626,2,0,L|238:250,1,135
364,30,183039,5,0,0:0:0:0:
295,147,183246,1,0,0:0:0:0:
430,147,183453,2,0,L|288:148,1,135
26,150,183867,5,0,0:0:0:0:
160,150,184074,1,0,0:0:0:0:
93,267,184281,2,0,L|171:133,1,135
334,256,184695,6,0,P|384:213|400:150,1,135
151,24,185109,2,0,P|135:88|159:148,1,135
349,76,185522,6,0,L|518:61,1,135
399,322,185936,2,0,P|334:308|291:260,1,135
144,29,186350,6,0,P|188:77|195:142,1,135
24,365,186764,2,0,L|13:231,1,135
257,217,187178,6,0,P|289:153|257:57,1,135
35,0,187591,2,0,P|3:64|35:160,1,135
77,241,188005,5,0,0:0:0:0:
145,124,188212,1,0,0:0:0:0:
11,124,188419,2,0,L|153:123,1,135
415,121,188833,5,0,0:0:0:0:
281,121,189040,1,0,0:0:0:0:
348,4,189247,2,0,L|270:138,1,135
144,358,189660,5,0,0:0:0:0:
212,241,189867,1,0,0:0:0:0:
78,241,190074,2,0,L|220:240,1,135
482,238,190488,5,0,0:0:0:0:
348,238,190695,1,0,0:0:0:0:
415,121,190902,2,0,L|337:255,1,135
279,353,191315,5,0,0:0:0:0:
147,324,191522,1,0,0:0:0:0:
215,207,191729,2,0,P|246:270|221:349,1,135
15,170,192143,2,0,P|27:100|93:50,1,135
215,207,192557,2,0,P|284:194|334:128,1,135
180,7,192971,6,0,L|205:164,1,135
430,283,193384,2,0,L|404:125,1,135
158,257,193798,2,0,L|0:282,1,135
303,358,194212,2,0,L|460:332,1,135
210,248,194626,6,0,P|199:318|247:386,1,135
303,358,194936,2,0,L|460:332,1,135
512,320,195247,5,0,0:0:0:0:
317,265,195453,2,0,P|305:194|351:126,1,135
503,26,195867,2,0,P|514:96|468:164,1,135
317,265,196281,6,0,L|160:291,1,135
25,191,196591,2,0,P|35:257|83:303,1,135
183,287,196902,5,0,0:0:0:0:
317,265,197109,2,0,L|238:278,2,67.5
183,287,197522,1,0,0:0:0:0:
120,166,197729,5,0,0:0:0:0:
337,131,197936,2,0,L|313:288,1,135
75,265,198350,5,0,0:0:0:0:
196,326,198556,1,0,0:0:0:0:
216,192,198764,2,0,P|180:253|199:333,1,135
277,364,199074,2,0,L|433:338,1,135
512,324,199384,5,0,0:0:0:0:
333,121,199591,2,0,P|301:184|325:262,1,135
454,98,200005,2,0,P|421:35|343:8,1,135
185,191,200419,2,0,P|122:158|95:80,1,135
127,5,200729,1,0,0:0:0:0:
127,5,201039,5,0,0:0:0:0:
330,0,201247,2,0,P|361:63|337:141,1,135
277,195,201557,2,0,P|309:257|387:284,1,135
433,279,201867,5,0,0:0:0:0:
433,279,202074,2,0,L|342:285,2,67.5
247,362,202488,2,0,L|50:376,1,135
0,192,202902,6,0,P|65:164|141:194,1,135
200,247,203212,2,0,P|265:219|296:144,1,135
289,98,203522,5,0,0:0:0:0:
289,98,203729,2,0,L|282:5,2,67.5
299,232,204143,1,0,0:0:0:0:
429,263,204350,5,0,0:0:0:0:
498,148,204557,2,0,P|438:109|358:125,1,135
269,224,204971,1,0,0:0:0:0:
135,202,205178,1,0,0:0:0:0:
155,336,205384,2,0,P|207:287|211:205,1,135
177,131,205695,2,0,P|163:201|208:269,1,135
285,300,206005,5,0,0:0:0:0:
285,300,206212,2,0,L|131:342,1,135
415,264,206626,2,0,P|422:193|369:129,1,135
118,230,207040,6,0,P|111:301|164:365,1,135
208,384,207350,2,0,P|171:323|91:302,1,135
32,320,207660,6,0,B|64:384|256:384|256:224|256:0|448:0|448:0|384:160|416:384|416:384|352:192|224:128|64:128|64:192|64:256|128:256|160:192,1,1485.53999750657
285,341,210350,6,0,P|315:302|320:252,1,101.250003862381
407,223,210660,2,0,P|379:182|332:161,1,101.250003862381
256,192,210971,1,0,0:0:0:0:
256,192,211178,12,0,213453,0:0:0:0:
