osu file format v14

[General]
AudioFilename: audio.ogg
AudioLeadIn: 0
PreviewTime: 18072
Countdown: 0
SampleSet: Soft
StackLeniency: 0.8
Mode: 0
LetterboxInBreaks: 0
WidescreenStoryboard: 1

[Editor]
Bookmarks: 853,9462,18072,26682,35292,38521
DistanceSpacing: 0.9
BeatDivisor: 4
GridSize: 32
TimelineZoom: 1.6

[Metadata]
Title:Brazil
TitleUnicode:Brazil
Artist:Apollo
ArtistUnicode:Apollo
Creator:moonpoint
Version:midwest's Expert
Source:
Tags:wire instrumental brazil2 electronic 8 bit remix chiptune plasma kuki1537 AJT plambob app midwest fatfan kolek browiec fieryrage
BeatmapID:4425089
BeatmapSetID:2104327

[Difficulty]
HPDrainRate:4
CircleSize:4
OverallDifficulty:9
ApproachRate:9.2
SliderMultiplier:1.8
SliderTickRate:1

[Events]
//Background and Video events
0,0,"salute.jpg",0,0
//Break Periods
//Storyboard Layer 0 (Background)
//Storyboard Layer 1 (Fail)
//Storyboard Layer 2 (Pass)
//Storyboard Layer 3 (Foreground)
//Storyboard Layer 4 (Overlay)
//Storyboard Sound Samples

[TimingPoints]
853,269.058295964126,4,2,1,62,1,0
853,-111.111111111111,4,2,1,62,0,0
1592,-111.111111111111,4,2,1,5,0,0
1660,-111.111111111111,4,2,1,62,0,0
2938,-111.111111111111,4,2,1,5,0,0
3005,-111.111111111111,4,2,1,62,0,0
3745,-111.111111111111,4,2,1,5,0,0
3812,-111.111111111111,4,2,1,62,0,0
5023,-111.111111111111,4,2,1,5,0,0
5157,-111.111111111111,4,2,1,62,0,0
5897,-111.111111111111,4,2,1,5,0,0
5965,-111.111111111111,4,2,1,62,0,0
7243,-111.111111111111,4,2,1,5,0,0
7310,-111.111111111111,4,2,1,62,0,0
8050,-111.111111111111,4,2,1,5,0,0
8117,-111.111111111111,4,2,1,62,0,0
9462,-100,4,2,1,62,0,0
9664,-100,4,2,1,5,0,0
9731,-99.9999999999999,4,2,1,62,0,0
12893,-99.9999999999999,4,2,1,5,0,0
12960,-99.9999999999999,4,2,1,62,0,0
14373,-99.9999999999999,4,2,1,5,0,0
14440,-99.9999999999999,4,2,1,62,0,0
17198,-99.9999999999999,4,2,1,5,0,0
17265,-99.9999999999999,4,2,1,62,0,0
18072,-90.9090909090909,4,2,1,62,0,0
18812,-90.9090909090909,4,2,1,5,0,0
18879,-90.9090909090909,4,2,1,62,0,0
21435,-90.9090909090909,4,2,1,5,0,0
21570,-100,4,2,1,62,0,0
21772,-100,4,2,1,5,0,0
21839,-100,4,2,1,62,0,0
22041,-100,4,2,1,5,0,0
22108,-100,4,2,1,62,0,0
22310,-100,4,2,1,5,0,0
22377,-90.9090909090909,4,2,1,62,0,0
23117,-90.9090909090909,4,2,1,5,0,0
23184,-90.9090909090909,4,2,1,62,0,0
25471,-83.3333333333333,4,2,1,62,0,0
25539,-83.3333333333333,4,2,1,5,0,0
25606,-100,4,2,1,62,0,0
26144,-125,4,2,1,62,0,0
26211,-125,4,2,1,5,0,0
26413,-125,4,2,1,62,0,0
26480,-125,4,2,1,5,0,0
26682,-100,4,2,1,62,0,0
27422,-100,4,2,1,5,0,0
27489,-100,4,2,1,62,0,0
28767,-100,4,2,1,5,0,0
28835,-100,4,2,1,62,0,0
29574,-100,4,2,1,5,0,0
29642,-100,4,2,1,62,0,0
30853,-100,4,2,1,5,0,0
30987,-100,4,2,1,62,0,0
31727,-100,4,2,1,5,0,0
31794,-100,4,2,1,62,0,0
33072,-100,4,2,1,5,0,0
33139,-100,4,2,1,62,0,0
33879,-100,4,2,1,5,0,0
33947,-100,4,2,1,62,0,0
35292,-90.9090909090909,4,2,1,62,0,1
38521,-90.9090909090909,4,2,1,62,0,0

[Colours]
Combo1 : 48,174,131
Combo2 : 169,84,84
Combo3 : 239,208,69
Combo4 : 216,216,216

[HitObjects]
480,188,853,6,0,L|374:205,1,80.9999975280763,0|0,3:2|0:2,0:2:0:0:
306,35,1122,2,0,L|412:52,1,80.9999975280763,8|0,0:2|0:2,0:2:0:0:
263,160,1391,2,0,P|199:129|189:51,1,121.499996292114,0|0,3:2|0:0,0:2:0:0:
183,84,1660,1,8,0:2:0:0:
62,295,1794,6,0,B|126:287|126:287|146:251|146:251|212:243,1,161.999995056153,0|2,0:2|0:2,0:0:0:0:
370,124,2198,1,10,0:2:0:0:
318,323,2332,1,2,0:2:0:0:
213,161,2467,1,2,3:2:0:0:
405,212,2601,1,2,0:2:0:0:
209,329,2736,2,0,B|175:326|129:335|129:335|115:322|86:294,1,121.499996292114,10|0,2:2|0:0,0:0:0:0:
65,290,3005,6,0,P|48:243|58:198,1,80.9999975280763,0|0,3:2|0:2,0:2:0:0:
260,268,3274,2,0,P|283:299|286:339,1,80.9999975280763,8|0,0:2|0:2,0:2:0:0:
127,240,3543,2,0,P|145:184|198:158,1,121.499996292114,0|0,3:2|0:0,0:2:0:0:
198,157,3812,1,8,0:2:0:0:
376,38,3947,6,0,B|361:87|344:131|344:131|360:163|383:201,1,161.999995056153,0|2,0:2|0:2,0:0:0:0:
467,367,4350,1,10,0:2:0:0:
374,186,4485,1,2,0:2:0:0:
295,347,4619,2,0,L|385:358,1,80.9999975280763,2|2,3:2|0:2,0:0:0:0:
460,192,4888,2,0,L|370:203,1,80.9999975280763,10|0,0:2|0:2,0:2:0:0:
168,265,5157,6,0,P|220:286|268:274,1,80.9999975280763,0|0,3:2|0:2,0:2:0:0:
401,126,5426,2,0,P|358:125|326:145,1,80.9999975280763,8|0,0:2|0:2,0:2:0:0:
174,55,5696,2,0,P|219:111|224:163,1,121.499996292114,0|0,3:2|0:0,0:2:0:0:
224,158,5965,1,8,0:2:0:0:
20,132,6099,6,0,B|67:116|99:145|77:167|122:208|165:190,1,161.999995056153,0|2,0:2|0:2,0:0:0:0:
310,72,6503,1,10,0:2:0:0:
241,265,6637,1,2,0:2:0:0:
174,55,6772,1,2,3:2:0:0:
338,165,6906,1,2,0:2:0:0:
105,242,7041,2,0,B|97:201|88:161|88:161|103:143|120:124,1,121.499996292114,10|0,0:2|0:0,0:0:0:0:
155,133,7310,6,0,L|171:213,1,80.9999975280763,0|0,3:2|0:2,0:2:0:0:
344,348,7579,2,0,L|357:268,1,80.9999975280763,8|0,0:2|0:2,0:2:0:0:
149,352,7848,2,0,B|194:345|194:345|215:316|215:316|270:307,1,121.499996292114,0|0,3:2|0:0,0:2:0:0:
254,309,8117,1,8,0:2:0:0:
448,265,8252,6,0,P|414:202|315:192,1,161.999995056153,0|2,0:2|0:2,0:0:0:0:
239,6,8655,1,10,0:2:0:0:
330,185,8790,1,2,0:2:0:0:
427,37,8924,2,0,L|339:22,1,80.9999975280763,2|2,3:2|0:2,0:0:0:0:
219,197,9193,1,10,0:2:0:0:
368,108,9328,1,2,0:2:0:0:
141,10,9462,6,0,P|147:70|216:112,1,135,2|0,3:2|0:0,0:2:0:0:
204,110,9731,1,10,0:2:0:0:
377,198,9866,2,0,B|321:191|294:221|304:263|269:295|205:279,1,180,2|0,0:2|0:2,0:2:0:0:
4,260,10270,1,8,0:2:0:0:
219,197,10404,1,2,0:2:0:0:
43,113,10539,5,2,3:2:0:0:
117,357,10673,2,0,L|131:268,1,90,2|8,0:2|0:2,0:2:0:0:
248,35,10942,2,0,B|226:63|204:83|204:83|215:145|220:210,1,180,2|0,0:2|0:2,0:2:0:0:
322,384,11346,1,8,0:2:0:0:
142,263,11480,1,2,0:2:0:0:
349,194,11615,5,2,3:2:0:0:
223,373,11749,2,0,L|234:264,1,90,2|8,0:2|0:2,0:2:0:0:
68,140,12018,2,0,B|79:210|79:210|55:253|55:253|73:327,1,180,2|0,0:2|0:2,0:2:0:0:
287,153,12422,1,10,0:2:0:0:
110,70,12557,1,2,0:2:0:0:
232,283,12691,6,0,B|302:274|302:274|334:301|381:289,1,135,2|0,3:2|0:0,0:2:0:0:
399,299,12960,2,0,P|418:251|401:206,1,90,8|0,0:2|0:2,0:2:0:0:
228,64,13229,1,0,3:2:0:0:
332,235,13364,1,0,0:2:0:0:
381,7,13498,1,8,0:2:0:0:
202,140,13633,1,2,0:2:0:0:
485,194,13767,6,0,B|491:135|502:78|502:78|478:58|454:34,1,180,2|8,3:2|0:2,0:2:0:0:
261,2,14171,2,0,P|275:81|284:147,1,135,2|0,0:2|0:0,0:2:0:0:
282,135,14440,1,2,0:2:0:0:
442,332,14574,1,10,0:2:0:0:
391,127,14709,1,2,0:2:0:0:
289,344,14844,6,0,B|239:348|198:321|236:280|190:244|137:256,1,180,2|8,3:2|0:2,0:2:0:0:
28,125,15247,1,2,0:2:0:0:
28,125,15314,1,0,0:2:0:0:
28,125,15382,2,0,P|70:145|122:139,1,90,0|0,3:2|0:2,0:0:0:0:
307,12,15651,1,8,0:2:0:0:
271,246,15785,1,2,0:2:0:0:
85,67,15920,6,0,P|129:57|173:49,1,90,2|0,3:2|0:2,0:2:0:0:
398,189,16189,2,0,P|354:179|309:171,1,90,10|0,0:2|0:2,0:2:0:0:
93,54,16458,2,0,P|137:44|181:36,1,90,2|0,3:2|0:0,0:0:0:0:
348,259,16727,1,10,0:2:0:0:
294,21,16861,1,2,0:2:0:0:
165,205,16996,6,0,P|68:191|51:144,1,135,2|0,3:2|0:0,0:2:0:0:
17,156,17265,2,0,L|11:60,1,90,8|0,0:2|0:2,0:0:0:0:
231,131,17534,1,0,3:2:0:0:
42,238,17669,1,0,0:2:0:0:
241,119,17803,1,8,0:2:0:0:
3,54,17938,1,0,0:2:0:0:
214,280,18072,6,0,B|265:287|265:287|314:275,1,99.0000030212403,2|0,3:2|0:2,0:2:0:0:
271,37,18341,1,10,0:2:0:0:
120,224,18476,1,2,0:2:0:0:
370,148,18610,2,0,B|362:145|324:118|324:118|279:126|231:132,1,148.50000453186,2|0,3:2|2:0,0:2:0:0:
231,131,18879,1,8,0:2:0:0:
302,363,19014,1,0,0:2:0:0:
408,72,19148,1,2,3:2:0:0:
214,280,19283,2,0,B|149:291|149:291|113:350|113:350|47:359,1,198.000006042481,2|0,0:2|0:2,0:2:0:0:
2,157,19687,2,0,P|38:126|99:124,1,99.0000030212403,2|0,3:2|0:2,0:2:0:0:
290,214,19956,1,10,0:2:0:0:
69,277,20090,1,2,0:2:0:0:
166,59,20225,5,2,3:2:0:0:
291,305,20359,2,0,B|323:295|362:286|362:286|371:205|378:163,1,198.000006042481,2|0,0:2|0:2,0:2:0:0:
244,12,20763,2,0,L|259:112,1,99.0000030212403,2|0,3:2|0:2,0:0:0:0:
173,336,21032,1,10,0:2:0:0:
451,302,21166,6,0,B|388:317|357:264|373:235|325:192|263:224,1,198.000006042481,2|0,0:2|0:0,0:0:0:0:
156,351,21570,6,0,P|224:337|293:323,1,135,10|0,0:2|0:0,0:2:0:0:
444,310,21839,6,0,P|393:302|361:225,1,135,10|0,0:2|0:0,0:2:0:0:
483,188,22108,6,0,B|437:198|394:209|394:209|369:193|350:181,1,135,10|0,0:2|0:0,0:2:0:0:
417,22,22377,6,0,B|433:75|433:75|423:126,1,99.0000030212403,2|0,3:2|0:2,0:2:0:0:
296,335,22646,1,10,0:2:0:0:
500,213,22781,1,2,0:2:0:0:
239,116,22915,2,0,B|232:169|232:169|194:197|194:197|186:245,1,148.50000453186,2|0,3:2|0:0,0:2:0:0:
186,244,23184,1,8,0:2:0:0:
416,122,23319,1,2,0:2:0:0:
288,323,23453,5,2,3:2:0:0:
294,30,23588,2,0,B|315:62|337:90|337:90|319:156|309:211,1,198.000006042481,2|0,0:2|0:2,0:0:0:0:
472,292,23992,2,0,L|457:173,1,99.0000030212403,2|0,3:2|0:2,0:2:0:0:
186,244,24261,1,8,0:2:0:0:
405,374,24395,1,2,0:2:0:0:
291,108,24530,5,2,3:2:0:0:
162,358,24664,2,0,B|117:367|78:344|87:288|60:256|-1:271,1,198.000006042481,2|0,0:2|0:2,0:2:0:0:
189,149,25068,2,0,B|204:199|204:199|186:242,1,99.0000030212403,2|0,3:2|0:2,0:0:0:0:
3,104,25337,1,10,0:2:0:0:
338,5,25471,2,0,L|345:59,1,53.9999983520508,10|0,0:2|0:0,0:0:0:0:
115,193,26144,6,0,L|118:156,1,36,8|0,0:0|0:0,0:0:0:0:
326,0,26413,6,0,L|331:36,1,36,8|0,0:0|0:0,0:0:0:0:
498,330,26682,6,0,L|486:240,1,90,0|0,3:2|0:2,3:2:0:0:
365,132,26951,2,0,L|353:222,1,90,8|0,0:2|0:2,0:2:0:0:
228,374,27220,2,0,P|253:321|213:250,1,135,0|0,3:2|0:0,0:2:0:0:
222,255,27489,1,8,0:2:0:0:
32,246,27624,6,0,B|80:264|125:218|110:187|146:174|191:185,1,180,0|2,0:2|0:2,0:0:0:0:
348,2,28027,1,10,0:2:0:0:
151,140,28162,1,2,0:2:0:0:
365,117,28296,1,2,3:2:0:0:
163,13,28431,1,2,0:2:0:0:
317,206,28566,2,0,B|409:208|409:208|454:165,1,135,10|0,0:2|0:0,0:0:0:0:
464,146,28835,6,0,P|469:102|475:57,1,90,0|0,3:2|0:2,0:2:0:0:
275,134,29104,2,0,P|271:89|265:44,1,90,8|0,0:2|0:2,0:2:0:0:
141,219,29373,2,0,P|74:223|22:182,1,135,0|0,3:2|0:0,0:2:0:0:
22,183,29642,1,8,0:2:0:0:
131,0,29776,6,0,B|138:66|138:66|178:91|178:91|188:174,1,180,0|2,0:2|0:2,0:0:0:0:
265,366,30180,1,10,0:2:0:0:
348,180,30314,1,2,0:2:0:0:
184,311,30449,1,2,3:2:0:0:
406,255,30583,1,2,0:2:0:0:
255,110,30718,2,0,L|268:208,1,90,10|0,0:2|0:0,0:0:0:0:
105,354,30987,6,0,P|60:348|25:321,1,90,0|0,3:2|0:2,0:2:0:0:
185,200,31256,2,0,P|150:228|106:234,1,90,8|0,0:2|0:2,0:2:0:0:
1,59,31525,2,0,P|39:117|112:122,1,135,0|0,3:2|0:0,0:2:0:0:
100,125,31794,1,8,0:2:0:0:
258,19,31929,6,0,L|267:223,1,180,0|2,0:2|0:2,0:0:0:0:
416,384,32332,1,10,0:2:0:0:
396,158,32467,1,2,0:2:0:0:
266,338,32601,1,2,3:2:0:0:
492,273,32736,1,2,0:2:0:0:
269,198,32870,2,0,B|258:172|247:147|247:147|258:111|277:50,1,135,10|0,0:2|0:0,0:0:0:0:
272,28,33139,6,0,L|178:42,1,90,0|0,3:2|0:2,0:2:0:0:
27,99,33409,2,0,L|121:113,1,90,8|0,0:2|0:2,0:2:0:0:
225,301,33678,2,0,P|175:218|189:166,1,135,0|0,3:2|0:0,0:2:0:0:
180,185,33947,1,8,0:2:0:0:
392,305,34081,6,0,B|340:294|304:308|319:372|272:397|215:371,1,180,0|2,0:2|0:2,0:0:0:0:
35,264,34485,1,10,0:2:0:0:
262,212,34619,1,2,0:2:0:0:
80,128,34754,1,2,3:2:0:0:
171,348,34888,1,2,0:2:0:0:
274,91,35023,1,10,0:2:0:0:
76,342,35292,6,0,B|123:358|123:358|177:347,1,99.0000030212403,10|8,0:2|0:2,0:0:0:0:
263,96,35561,2,0,B|214:85|214:85|152:107,1,99.0000030212403,10|8,0:2|0:2,0:0:0:0:
315,371,35830,5,10,0:2:0:0:
395,60,35965,1,8,0:2:0:0:
487,384,36099,1,10,0:2:0:0:
240,177,36234,1,8,0:2:0:0:
512,251,36368,6,0,L|415:266,1,99.0000030212403,10|8,0:2|0:2,0:0:0:0:
384,39,36637,2,0,L|481:54,1,99.0000030212403,10|8,0:2|0:2,0:0:0:0:
333,319,36906,5,10,0:2:0:0:
194,32,37041,1,8,0:2:0:0:
130,336,37175,1,10,0:2:0:0:
340,98,37310,1,8,0:2:0:0:
43,153,37444,6,0,B|35:200|35:200|55:248,1,99.0000030212403,10|8,0:2|0:2,0:0:0:0:
323,293,37713,2,0,B|343:245|343:245|334:194,1,99.0000030212403,10|8,0:2|0:2,0:0:0:0:
99,70,37983,5,10,0:2:0:0:
233,360,38117,1,8,0:2:0:0:
281,18,38252,5,10,0:2:0:0:
131,383,38386,1,10,0:2:0:0:
10,14,38521,1,10,0:2:0:0:
