osu file format v14

[General]
AudioFilename: audio.ogg
AudioLeadIn: 0
PreviewTime: 18072
Countdown: 0
SampleSet: Soft
StackLeniency: 0.8
Mode: 0
LetterboxInBreaks: 0
WidescreenStoryboard: 1

[Editor]
DistanceSpacing: 0.5
BeatDivisor: 4
GridSize: 32
TimelineZoom: 2

[Metadata]
Title:Brazil
TitleUnicode:Brazil
Artist:Apollo
ArtistUnicode:Apollo
Creator:moonpoint
Version:app's Extra
Source:
Tags:wire instrumental brazil2 electronic 8 bit remix chiptune plasma kuki1537 AJT plambob app midwest fatfan kolek browiec fieryrage
BeatmapID:4425088
BeatmapSetID:2104327

[Difficulty]
HPDrainRate:4
CircleSize:3.6
OverallDifficulty:8.4
ApproachRate:9
SliderMultiplier:1.7
SliderTickRate:1

[Events]
//Background and Video events
0,0,"salute.jpg",0,0
//Break Periods
//Storyboard Layer 0 (Background)
//Storyboard Layer 1 (Fail)
//Storyboard Layer 2 (Pass)
//Storyboard Layer 3 (Foreground)
//Storyboard Layer 4 (Overlay)
//Storyboard Sound Samples

[TimingPoints]
853,269.058295964126,4,2,1,79,1,0
9462,-83.3333333333333,4,2,1,79,0,0
18072,-71.4285714285714,4,2,1,79,0,0
26682,-100,4,2,1,79,0,0
35292,-71.4285714285714,4,2,1,79,0,0

[Colours]
Combo1 : 48,174,131
Combo2 : 169,84,84
Combo3 : 239,208,69
Combo4 : 216,216,216

[HitObjects]
27,293,853,6,0,P|146:298|203:240,1,170,0|8,3:2|0:2,0:2:0:0:
132,245,1256,1,0,0:2:0:0:
210,351,1391,2,0,P|217:281|240:157,1,170,0|8,3:2|0:2,0:2:0:0:
186,121,1794,1,0,0:2:0:0:
273,83,1929,5,2,3:2:0:0:
228,43,2063,1,2,0:2:0:0:
265,166,2198,2,0,B|307:175|307:175|356:150,1,85,10|2,0:2|0:2,0:0:0:0:
228,43,2467,2,0,B|186:34|186:34|137:59,1,85,2|2,3:2|0:2,0:0:0:0:
89,154,2736,2,0,L|204:129,1,85,10|2,0:0|0:0,0:0:0:0:
334,74,3005,6,0,B|322:165|379:159|368:253,1,170,0|8,3:2|0:2,0:2:0:0:
297,301,3409,1,0,0:2:0:0:
423,349,3543,2,0,P|463:318|449:272,1,85,0|0,3:2|0:0,0:2:0:0:
283,321,3812,1,8,0:2:0:0:
487,293,3947,6,0,P|484:252|438:124,1,170,0|2,0:2|0:2,0:0:0:0:
223,217,4350,1,10,0:2:0:0:
314,281,4485,1,2,0:2:0:0:
264,117,4619,1,2,3:2:0:0:
223,217,4754,1,2,0:2:0:0:
140,149,4888,2,0,L|57:171,1,85,10|0,0:2|0:2,0:2:0:0:
335,166,5157,6,0,L|483:249,1,170,0|8,3:2|0:2,0:2:0:0:
444,206,5561,1,0,0:2:0:0:
347,287,5696,2,0,B|311:295|311:295|308:305|308:305|251:321,1,85,0|0,3:2|0:0,0:2:0:0:
209,366,5965,1,8,0:2:0:0:
95,324,6099,6,0,P|30:300|33:203,1,170,0|2,0:2|0:2,0:0:0:0:
170,137,6503,1,10,0:2:0:0:
97,60,6637,1,2,0:2:0:0:
35,165,6772,5,2,3:2:0:0:
195,91,6906,1,2,0:2:0:0:
268,165,7041,2,0,L|354:155,1,85,8|0,0:0|0:2,0:0:0:0:
352,155,7310,1,0,3:2:0:0:
496,197,7579,5,8,0:2:0:0:
64,140,7848,1,0,3:2:0:0:
268,165,8117,2,0,P|260:224|262:278,1,85,8|0,0:2|0:2,0:0:0:0:
327,290,8386,1,2,3:2:0:0:
179,207,8521,5,2,0:2:0:0:
353,152,8655,1,10,0:2:0:0:
218,96,8790,1,2,0:2:0:0:
315,63,8924,1,2,3:2:0:0:
259,3,9059,2,0,P|267:62|265:116,1,85,2|10,0:2|0:2,0:0:0:0:
106,166,9328,5,2,0:2:0:0:
106,166,9462,2,0,P|20:196|23:315,1,203.999993774414,2|10,3:2|0:2,0:2:0:0:
196,250,9866,1,2,0:2:0:0:
79,352,10000,2,0,B|59:305|59:305|85:252,1,101.999996887207,0|0,3:2|0:2,0:0:0:0:
267,370,10270,1,8,0:2:0:0:
361,309,10404,1,2,0:2:0:0:
442,376,10539,5,2,3:2:0:0:
343,293,10673,2,0,P|346:239|344:152,1,101.999996887207,2|8,0:2|0:2,0:2:0:0:
484,281,10942,2,0,P|481:227|483:140,1,101.999996887207,2|0,0:2|3:2,0:2:0:0:
422,69,11211,5,0,0:2:0:0:
318,87,11346,5,8,0:2:0:0:
270,178,11480,5,2,0:2:0:0:
167,149,11615,5,2,3:2:0:0:
122,216,11749,2,0,P|116:291|118:328,1,101.999996887207,2|8,0:2|0:2,0:2:0:0:
213,356,12018,2,0,B|313:376|313:376|412:310,1,203.999993774414,2|0,0:2|0:0,0:2:0:0:
494,366,12422,5,10,0:0:0:0:
494,366,12557,1,2,0:2:0:0:
494,366,12691,2,0,L|482:262,1,101.999996887207,2|0,3:2|0:2,0:2:0:0:
241,349,12960,2,0,L|229:245,1,101.999996887207,8|0,0:2|0:2,0:2:0:0:
313,185,13229,5,0,3:2:0:0:
326,94,13364,5,0,0:2:0:0:
240,11,13498,5,8,0:2:0:0:
108,27,13633,5,2,0:2:0:0:
39,152,13767,6,0,P|1:232|17:360,1,203.999993774414,2|8,3:2|0:2,0:2:0:0:
246,378,14171,2,0,P|284:298|268:170,1,203.999993774414,2|2,0:2|0:2,0:2:0:0:
96,245,14574,1,10,0:2:0:0:
176,100,14709,1,2,0:2:0:0:
253,228,14844,2,0,B|333:212|333:212|374:230|374:230|485:206,1,203.999993774414,2|8,3:2|0:2,0:2:0:0:
375,90,15247,2,0,B|369:118|369:118|385:157,1,50.9999984436036
504,151,15382,6,0,P|504:209|487:278,1,101.999996887207,0|0,3:2|0:2,0:0:0:0:
253,228,15651,2,0,P|253:170|270:101,1,101.999996887207,8|2,0:2|0:2,0:0:0:0:
408,330,15920,2,0,L|514:351,1,101.999996887207,2|0,3:2|0:2,0:2:0:0:
294,380,16189,5,10,0:2:0:0:
223,345,16323,1,0,0:2:0:0:
117,384,16458,2,0,L|6:372,1,101.999996887207,2|0,3:2|0:0,0:0:0:0:
10,209,16727,2,0,L|111:198,1,101.999996887207,10|2,0:2|0:2,0:0:0:0:
290,301,16996,2,0,P|358:207|225:277,1,407.999987548829,2|0,3:2|3:2,0:2:0:0:
218,269,17669,5,0,0:2:0:0:
281,226,17803,5,8,0:2:0:0:
298,132,17938,5,0,0:2:0:0:
255,20,18072,6,0,P|252:74|257:164,1,118.999996368408,2|0,3:2|0:2,0:2:0:0:
449,274,18341,1,10,0:2:0:0:
449,274,18476,1,2,0:2:0:0:
340,377,18610,2,0,P|337:323|339:135,1,237.999992736817,2|8,3:2|0:2,0:2:0:0:
429,51,19014,5,2,0:2:0:0:
241,0,19148,2,0,P|238:54|243:144,1,118.999996368408,2|2,3:2|0:2,0:0:0:0:
372,156,19418,1,8,0:2:0:0:
436,285,19552,1,0,0:2:0:0:
340,377,19687,2,0,P|337:323|339:135,1,237.999992736817,2|10,3:2|0:2,0:2:0:0:
223,19,20090,5,2,0:2:0:0:
133,54,20225,2,0,P|136:108|131:198,1,118.999996368408,2|2,3:2|0:2,0:0:0:0:
32,211,20494,1,8,0:2:0:0:
179,278,20628,1,0,0:2:0:0:
11,350,20763,6,0,P|8:296|13:206,1,118.999996368408,2|0,3:2|0:2,0:0:0:0:
219,378,21032,2,0,P|221:318|218:259,1,118.999996368408,10|2,0:2|0:2,0:0:0:0:
32,130,21301,1,0,3:2:0:0:
297,2,21570,6,0,B|276:159|320:76|297:258,2,237.999992736817,10|10|10,0:2|0:2|0:2,0:2:0:0:
485,330,22377,6,0,P|427:327|327:333,1,118.999996368408,2|0,3:2|0:2,0:2:0:0:
186,369,22646,1,10,0:2:0:0:
299,238,22781,1,2,0:2:0:0:
34,159,22915,2,0,P|96:166|296:153,1,237.999992736817,2|8,3:2|0:2,0:2:0:0:
146,10,23319,5,2,0:2:0:0:
424,83,23453,2,0,P|365:85|306:82,1,118.999996368408,2|2,3:2|0:2,0:0:0:0:
13,136,23722,2,0,P|72:134|131:137,1,118.999996368408,8|0,0:2|0:2,0:0:0:0:
473,235,23992,2,0,P|411:228|211:241,1,237.999992736817,2|8,3:2|0:2,0:2:0:0:
59,304,24395,5,2,0:2:0:0:
285,367,24530,2,0,P|225:368|166:365,1,118.999996368408,2|2,3:2|0:2,0:0:0:0:
324,200,24799,2,0,P|383:198|442:201,1,118.999996368408,8|0,0:2|0:2,0:0:0:0:
17,84,25068,2,0,P|79:91|279:78,1,237.999992736817,2|10,3:2|0:2,0:0:0:0:
501,260,25471,1,10,0:2:0:0:
256,384,26144,6,0,B|277:227|233:310|256:128,1,237.999992736817,8|8,0:2|0:2,0:0:0:0:
106,13,26682,5,0,3:2:0:0:
12,74,26951,1,8,0:2:0:0:
83,131,27220,1,0,3:2:0:0:
300,69,27489,1,8,0:2:0:0:
300,69,27624,2,0,P|300:130|304:179,1,85,0|2,0:2|3:2,0:0:0:0:
385,185,27893,5,2,0:2:0:0:
461,140,28027,1,10,0:2:0:0:
447,58,28162,1,2,0:2:0:0:
373,11,28296,2,0,P|373:72|377:121,1,85,2|2,3:2|0:2,0:0:0:0:
470,156,28566,1,10,0:2:0:0:
106,371,28835,5,0,3:2:0:0:
173,280,29104,1,8,0:2:0:0:
49,227,29373,1,0,3:2:0:0:
282,372,29642,1,8,0:2:0:0:
282,372,29777,2,0,P|282:311|286:262,1,85,0|2,0:2|3:2,0:0:0:0:
439,214,30046,5,2,0:2:0:0:
362,332,30180,1,10,0:2:0:0:
494,290,30315,1,2,0:2:0:0:
353,242,30449,2,0,P|353:181|357:132,1,85,2|2,3:2|0:2,0:0:0:0:
440,358,30719,1,10,0:2:0:0:
256,192,30987,5,0,3:2:0:0:
181,102,31256,1,8,0:2:0:0:
302,37,31525,1,0,3:2:0:0:
256,192,31794,1,8,0:2:0:0:
256,192,31929,2,0,P|260:256|255:309,1,85,0|2,0:2|3:2,0:0:0:0:
19,159,32198,5,2,0:2:0:0:
153,200,32332,1,10,0:2:0:0:
120,90,32467,1,2,0:2:0:0:
2,170,32601,2,0,P|-2:234|3:287,1,85,2|2,3:2|0:2,0:0:0:0:
135,325,32870,1,10,0:2:0:0:
448,192,33139,5,0,3:2:0:0:
314,114,33408,1,8,0:2:0:0:
383,268,33677,1,0,3:2:0:0:
512,118,33947,1,8,0:2:0:0:
512,118,34081,2,0,P|511:57|504:14,1,85,0|2,0:2|3:2,0:0:0:0:
368,15,34350,5,2,0:2:0:0:
436,171,34485,1,10,0:2:0:0:
300,87,34620,1,2,0:2:0:0:
250,187,34754,2,0,P|245:229|245:271,1,85,2|2,3:2|0:2,0:0:0:0:
377,340,35023,1,10,0:2:0:0:
37,371,35292,6,0,P|23:287|27:209,1,118.999996368408,10|8,0:2|0:2,0:0:0:0:
201,130,35561,1,10,0:2:0:0:
111,308,35696,1,8,0:2:0:0:
208,364,35830,6,0,P|267:368|326:362,1,118.999996368408,10|8,0:2|0:2,0:0:0:0:
169,210,36099,1,10,0:2:0:0:
388,278,36234,1,8,0:2:0:0:
285,112,36368,6,0,P|295:210|315:269,1,118.999996368408,10|8,0:2|0:2,0:0:0:0:
501,299,36637,1,10,0:2:0:0:
436,136,36772,1,8,0:2:0:0:
328,339,36906,6,0,P|292:343|181:308,1,118.999996368408,10|8,0:2|0:2,0:0:0:0:
417,163,37175,2,0,P|359:147|300:149,1,118.999996368408,10|8,0:2|0:2,0:0:0:0:
127,291,37444,6,0,P|116:223|161:151,1,118.999996368408,10|8,0:2|0:2,0:0:0:0:
307,99,37713,1,10,0:2:0:0:
211,325,37848,1,8,0:2:0:0:
124,52,37983,5,10,0:2:0:0:
211,325,38117,1,8,0:2:0:0:
288,24,38252,5,10,0:2:0:0:
103,303,38386,1,10,0:2:0:0:
512,126,38521,1,10,0:2:0:0:
