osu file format v14

[General]
AudioFilename: audio.ogg
AudioLeadIn: 0
PreviewTime: 18072
Countdown: 0
SampleSet: Soft
StackLeniency: 0.8
Mode: 0
LetterboxInBreaks: 0
WidescreenStoryboard: 1

[Editor]
DistanceSpacing: 1
BeatDivisor: 2
GridSize: 32
TimelineZoom: 1

[Metadata]
Title:Brazil
TitleUnicode:Brazil
Artist:Apollo
ArtistUnicode:Apollo
Creator:moonpoint
Version:Normal
Source:
Tags:wire instrumental brazil2 electronic 8 bit remix chiptune plasma kuki1537 AJT plambob app midwest fatfan kolek browiec fieryrage
BeatmapID:4422713
BeatmapSetID:2104327

[Difficulty]
HPDrainRate:3
CircleSize:2.5
OverallDifficulty:5
ApproachRate:6.5
SliderMultiplier:1
SliderTickRate:1

[Events]
//Background and Video events
0,0,"salute.jpg",0,0
//Break Periods
//Storyboard Layer 0 (Background)
//Storyboard Layer 1 (Fail)
//Storyboard Layer 2 (Pass)
//Storyboard Layer 3 (Foreground)
//Storyboard Layer 4 (Overlay)
//Storyboard Sound Samples

[TimingPoints]
853,269.058295964126,4,2,1,80,1,0

[Colours]
Combo1 : 48,174,131
Combo2 : 169,84,84
Combo3 : 239,208,69
Combo4 : 216,216,216

[HitObjects]
260,240,853,6,0,L|251:140,1,100,0|8,3:2|0:2,0:2:0:0:
346,172,1391,2,0,P|412:186|497:120,1,150,0|0,3:2|0:2,0:2:0:0:
385,31,2198,2,0,P|344:2|295:1,2,100,10|2|10,0:2|3:2|0:2,0:0:0:0:
470,82,3005,5,0,3:2:0:0:
470,181,3274,1,8,0:2:0:0:
375,215,3543,2,0,P|356:262|387:358,1,150,0|0,3:2|0:2,0:2:0:0:
234,374,4350,2,0,P|188:353|139:358,2,100,10|2|10,0:2|3:2|0:2,0:0:0:0:
265,280,5157,6,0,L|244:159,1,100,0|8,3:2|0:2,0:2:0:0:
165,238,5696,2,0,P|93:224|58:160,1,150,0|0,3:2|0:2,0:2:0:0:
154,46,6503,2,0,P|203:43|245:68,2,100,10|2|10,0:2|3:2|0:2,0:0:0:0:
114,132,7310,5,0,3:2:0:0:
189,211,7579,1,8,0:2:0:0:
271,153,7848,2,0,P|287:94|262:6,1,150,0|0,3:2|0:2,0:2:0:0:
382,103,8655,2,0,P|376:148|406:199,2,100,10|2|10,0:2|3:2|0:2,0:0:0:0:
282,99,9462,6,0,L|289:252,1,150,2|2,3:2|0:2,0:2:0:0:
40,268,10539,1,2,3:2:0:0:
39,168,10808,1,8,0:2:0:0:
134,138,11077,1,0,3:2:0:0:
326,208,11615,5,2,3:2:0:0:
326,208,11749,2,0,P|401:205|458:142,1,150,2|0,0:2|0:0,0:2:0:0:
506,70,12422,1,10,0:2:0:0:
428,7,12691,1,2,3:2:0:0:
240,77,13229,2,0,P|246:127|247:195,1,100,0|8,3:2|0:2,0:0:0:0:
320,244,13767,6,0,P|367:240|483:243,1,150,2|2,3:2|0:2,0:2:0:0:
400,375,14574,1,10,0:2:0:0:
301,354,14844,2,0,P|255:336|233:238,1,150,2|2,3:2|0:2,0:2:0:0:
175,105,15651,1,8,0:2:0:0:
123,190,15920,6,0,P|75:191|0:197,1,100,2|10,3:2|0:2,0:2:0:0:
0,291,16458,2,0,P|49:292|99:295,1,100,2|10,3:2|0:2,0:0:0:0:
161,374,16996,2,0,P|260:365|361:363,1,200,2|0,3:2|3:2,0:2:0:0:
254,193,18072,5,2,3:2:0:0:
251,93,18341,2,0,P|300:88|350:89,1,100,10|2,0:2|3:2,0:0:0:0:
374,292,19148,1,2,3:2:0:0:
374,292,19283,2,0,P|313:305|213:294,1,150,2|2,0:2|3:2,0:2:0:0:
213,198,19956,1,10,0:2:0:0:
308,161,20225,1,2,3:2:0:0:
308,161,20359,2,0,P|344:158|480:157,1,150,2|2,0:2|3:2,0:2:0:0:
501,65,21032,2,0,P|468:70|399:61,1,100,10|0,0:2|3:2,0:0:0:0:
312,105,21570,2,0,L|307:0,2,100,10|10|10,0:0|0:0|0:0,0:0:0:0:
214,126,22377,5,2,3:2:0:0:
152,47,22646,2,0,P|98:50|46:54,1,100,10|2,0:2|3:2,0:0:0:0:
133,244,23453,1,2,3:2:0:0:
133,244,23588,2,0,P|168:251|288:250,1,150,2|2,0:2|3:2,0:0:0:0:
270,151,24261,1,8,0:2:0:0:
170,139,24530,1,2,3:2:0:0:
170,139,24664,2,0,P|95:133|21:142,1,150,2|2,0:2|3:2,0:2:0:0:
0,240,25337,1,10,0:2:0:0:
0,240,25471,1,10,0:2:0:0:
0,337,26144,5,8,0:2:0:0:
86,287,26413,1,8,0:2:0:0:
156,358,26682,6,0,P|177:315|180:250,1,100,0|8,3:2|0:2,3:2:0:0:
252,193,27220,1,0,3:2:0:0:
355,184,27489,1,8,0:2:0:0:
355,184,27624,2,0,P|347:233|364:337,1,150,0|10,0:2|0:2,0:0:0:0:
460,347,28296,1,2,3:2:0:0:
510,260,28566,1,10,0:2:0:0:
444,184,28835,6,0,P|441:140|440:82,1,100,0|8,3:2|0:2,0:2:0:0:
345,117,29373,2,0,P|284:99|255:17,1,150,0|0,3:2|0:2,0:2:0:0:
200,164,30180,1,10,0:2:0:0:
101,149,30449,2,0,P|47:143|0:137,1,100,2|10,3:2|0:2,0:0:0:0:
46,47,30987,6,0,P|95:37|145:39,1,100,0|8,3:2|0:2,0:2:0:0:
223,101,31525,2,0,P|241:127|219:252,1,150,0|0,3:2|0:2,0:2:0:0:
151,366,32332,1,10,0:2:0:0:
52,350,32601,1,2,3:2:0:0:
67,251,32870,1,10,0:2:0:0:
166,260,33139,6,0,P|213:257|266:242,1,100,0|8,3:2|0:2,0:2:0:0:
281,144,33678,1,0,3:2:0:0:
181,146,33947,1,8,0:2:0:0:
181,146,34081,2,0,P|157:76|187:10,1,150,0|10,0:2|0:2,0:0:0:0:
274,60,34754,1,2,3:2:0:0:
433,185,35292,5,10,0:0:0:0:
403,291,35561,1,8,0:0:0:0:
316,359,35830,1,10,0:0:0:0:
206,363,36099,1,8,0:0:0:0:
115,301,36368,1,10,0:0:0:0:
78,198,36637,1,8,0:0:0:0:
108,92,36906,1,10,0:0:0:0:
195,24,37175,1,8,0:0:0:0:
305,20,37444,1,10,0:0:0:0:
396,82,37713,1,8,0:0:0:0:
433,185,37983,1,10,0:0:0:0:
403,291,38252,1,8,0:0:0:0:
316,359,38521,1,10,0:0:0:0:
