osu file format v14

[General]
AudioFilename: audio.ogg
AudioLeadIn: 0
PreviewTime:18072
Countdown: 0
SampleSet: Soft
StackLeniency: 0.7
Mode: 0
LetterboxInBreaks: 0
WidescreenStoryboard: 1

[Editor]
DistanceSpacing: 0.5
BeatDivisor: 4
GridSize: 32
TimelineZoom: 1.6

[Metadata]
Title:Brazil
TitleUnicode:Brazil
Artist:Apollo
ArtistUnicode:Apollo
Creator:moonpoint
Version:Kuki's Extra
Source:
Tags:wire instrumental brazil2 electronic 8 bit remix chiptune plasma kuki1537 AJT plambob app midwest fatfan kolek browiec fieryrage
BeatmapID:4415584
BeatmapSetID:2104327

[Difficulty]
HPDrainRate:5
CircleSize:3.8
OverallDifficulty:9.2
ApproachRate:9.4
SliderMultiplier:1.8
SliderTickRate:1

[Events]
//Background and Video events
0,0,"salute.jpg",0,0
//Break Periods
//Storyboard Layer 0 (Background)
//Storyboard Layer 1 (Fail)
//Storyboard Layer 2 (Pass)
//Storyboard Layer 3 (Foreground)
//Storyboard Layer 4 (Overlay)
//Storyboard Sound Samples

[TimingPoints]
853,269.058295964126,4,2,1,62,1,0
853,-117.647058823529,4,2,1,62,0,0
15247,-95.238095238095,4,2,1,62,0,0
15382,-117.647058823529,4,2,1,62,0,0
18072,-95.2380952380951,4,2,1,62,0,0
21570,-111.111111111111,4,2,1,62,0,0
21839,-90.9090909090909,4,2,1,62,0,0
22108,-76.9230769230769,4,2,1,62,0,0
22377,-95.2380952380951,4,2,1,62,0,0
26144,-200,4,2,1,62,0,0
26682,-105.263157894737,4,2,1,62,0,0

[Colours]
Combo1 : 48,174,131
Combo2 : 169,84,84
Combo3 : 239,208,69
Combo4 : 216,216,216

[HitObjects]
42,104,853,6,0,P|26:65|-5:41,1,76.5000014591217,0|0,3:2|0:2,0:2:0:0:
148,0,1122,2,0,P|151:37|136:72,1,76.5000014591217,8|0,0:2|0:2,0:2:0:0:
205,142,1391,2,0,P|274:133|320:58,1,153.000002918243,0|8,3:2|0:2,0:2:0:0:
415,30,1794,6,0,L|384:191,1,153.000002918243,0|2,0:2|0:2,0:0:0:0:
313,246,2198,1,10,0:2:0:0:
479,194,2332,1,2,0:2:0:0:
305,251,2467,1,2,3:2:0:0:
476,313,2601,1,2,0:2:0:0:
327,344,2736,2,0,L|242:327,1,76.5000014591217,10|0,0:2|0:0,0:0:0:0:
121,291,3005,6,0,P|98:321|63:335,1,76.5000014591217,0|0,3:2|0:2,0:2:0:0:
0,200,3274,2,0,P|35:213|72:207,1,76.5000014591217,8|0,0:2|0:2,0:2:0:0:
132,131,3543,2,0,P|73:73|88:-4,1,153.000002918243,0|8,3:2|0:2,0:2:0:0:
311,15,3947,6,0,L|155:46,1,153.000002918243,0|2,0:2|0:2,0:0:0:0:
181,217,4350,1,10,0:2:0:0:
242,64,4485,1,2,0:2:0:0:
322,237,4619,1,2,3:2:0:0:
251,68,4754,1,2,0:2:0:0:
419,153,4888,2,0,L|511:136,1,76.5000014591217,10|0,0:2|0:2,0:2:0:0:
327,232,5157,6,0,P|282:211|263:173,1,76.5000014591217,0|0,3:2|0:2,0:2:0:0:
104,378,5426,2,0,P|139:356|208:359,1,76.5000014591217,8|0,0:2|0:2,0:2:0:0:
308,312,5696,2,0,B|209:297|259:276|160:261,1,153.000002918243,0|8,3:2|0:2,0:2:0:0:
0,298,6099,6,0,P|59:274|76:174,1,153.000002918243,0|2,0:2|0:2,0:0:0:0:
61,50,6503,1,10,0:2:0:0:
0,212,6637,1,2,0:2:0:0:
143,75,6772,1,2,3:2:0:0:
90,199,6906,1,2,0:2:0:0:
226,100,7041,2,0,L|310:81,1,76.5000014591217,10|0,0:2|0:0,0:0:0:0:
469,204,7310,6,0,P|470:244|446:289,1,76.5000014591217,0|0,3:2|0:2,0:2:0:0:
294,163,7579,2,0,P|293:123|317:78,1,76.5000014591217,8|0,0:2|0:2,0:2:0:0:
407,67,7848,2,0,L|371:239,1,153.000002918243,0|8,3:2|0:2,0:2:0:0:
486,363,8252,6,0,B|463:323|463:323|331:293,1,153.000002918243,0|2,0:2|0:2,0:0:0:0:
188,257,8655,1,10,0:2:0:0:
339,384,8790,1,2,0:2:0:0:
164,346,8924,1,2,3:2:0:0:
284,239,9059,2,0,L|266:324,1,76.5000014591217,2|10,0:2|0:2,0:0:0:0:
74,376,9328,1,2,0:2:0:0:
29,220,9462,6,0,L|114:238,1,76.5000014591217,2|0,3:2|0:2,0:2:0:0:
275,320,9731,1,10,0:2:0:0:
344,156,9866,2,0,B|270:139|270:139|201:179,1,153.000002918243,2|0,0:2|0:2,0:2:0:0:
128,115,10270,1,8,0:2:0:0:
195,266,10404,1,2,0:2:0:0:
266,115,10539,5,2,3:2:0:0:
110,230,10673,2,0,L|35:214,1,76.5000014591217,2|8,0:2|0:2,0:2:0:0:
211,37,10942,2,0,P|284:23|355:80,1,153.000002918243,2|0,0:2|0:2,0:2:0:0:
368,162,11346,1,8,0:2:0:0:
443,20,11480,1,2,0:2:0:0:
484,198,11615,5,2,3:2:0:0:
351,71,11749,2,0,P|310:73|271:97,1,76.5000014591217,2|8,0:2|0:2,0:2:0:0:
230,216,12018,2,0,P|263:233|301:234,1,76.5000014591217,2|0,0:2|0:0,0:2:0:0:
192,72,12287,1,0,0:2:0:0:
142,248,12422,1,10,0:2:0:0:
360,156,12557,1,2,0:2:0:0:
126,3,12691,6,0,B|78:39|78:39|111:130,2,153.000002918243,2|8|0,3:2|0:2|3:2,0:2:0:0:
192,164,13364,1,0,0:2:0:0:
14,111,13498,1,8,0:2:0:0:
200,172,13633,1,2,0:2:0:0:
0,292,13767,6,0,B|23:252|23:252|136:228,1,153.000002918243,2|8,3:2|0:2,0:2:0:0:
358,289,14171,2,0,L|282:306,1,76.5000014591217,2|0,0:2|3:2,0:2:0:0:
90,328,14440,1,2,0:2:0:0:
208,180,14574,1,10,0:2:0:0:
216,380,14709,1,2,0:2:0:0:
122,142,14844,6,0,P|151:107|269:110,1,153.000002918243,2|8,3:2|0:2,0:2:0:0:
326,17,15247,2,0,P|340:49|340:75,1,47.2499985580445,2|0,0:2|0:2,0:2:0:0:
412,125,15382,1,0,3:2:0:0:
258,94,15516,1,0,0:2:0:0:
409,226,15651,1,8,0:2:0:0:
436,35,15785,1,2,0:2:0:0:
297,193,15920,6,0,P|255:202|212:203,1,76.5000014591217,2|0,3:2|0:2,0:2:0:0:
59,98,16189,2,0,P|96:89|134:87,1,76.5000014591217,10|0,0:2|0:2,0:2:0:0:
276,283,16458,2,0,P|234:292|191:293,1,76.5000014591217,2|0,3:2|0:0,0:0:0:0:
21,182,16727,1,10,0:2:0:0:
222,114,16861,1,2,0:2:0:0:
62,317,16996,6,0,B|70:266|70:266|110:232|110:232|124:159,2,153.000002918243,2|8|0,3:2|0:2|3:2,0:2:0:0:
200,293,17669,1,0,0:2:0:0:
27,176,17803,1,8,0:2:0:0:
192,301,17938,1,0,0:2:0:0:
94,81,18072,6,0,L|-7:61,1,94.499997116089,2|0,3:2|0:2,0:2:0:0:
92,314,18341,1,10,0:2:0:0:
226,86,18476,1,2,0:2:0:0:
21,182,18610,2,0,P|-3:225|2:272,1,94.499997116089,2|0,3:2|0:2,0:2:0:0:
266,216,18879,1,8,0:2:0:0:
101,76,19014,1,2,0:2:0:0:
192,301,19148,5,2,3:2:0:0:
314,96,19283,2,0,P|362:92|413:122,1,94.499997116089,2|8,0:2|0:2,0:2:0:0:
394,270,19552,1,0,0:2:0:0:
219,92,19687,2,0,L|239:-9,1,94.499997116089,2|0,3:2|0:2,0:2:0:0:
344,187,19956,1,10,0:2:0:0:
108,82,20090,1,2,0:2:0:0:
376,0,20225,5,2,3:2:0:0:
138,173,20359,2,0,P|86:176|47:156,1,94.499997116089,2|8,0:2|0:2,0:2:0:0:
322,91,20628,1,0,0:2:0:0:
234,325,20763,2,0,L|215:232,1,94.499997116089,2|0,3:2|0:2,0:0:0:0:
246,3,21032,5,10,0:2:0:0:
429,248,21166,2,0,L|447:155,1,94.499997116089,2|0,0:2|3:2,0:0:0:0:
447,155,21570,6,0,P|460:130|479:115,1,40.4999987640381,10|0,0:2|0:2,0:2:0:0:
337,107,21839,6,0,P|334:83|342:60,1,49.5000015106202,10|0,0:2|0:2,0:2:0:0:
220,164,22108,6,0,P|193:141|185:117,1,58.4999973220826,10|0,0:2|0:2,0:2:0:0:
160,292,22377,6,0,P|105:296|60:266,1,94.499997116089,2|0,3:2|0:2,0:2:0:0:
111,54,22646,1,10,0:2:0:0:
264,261,22781,1,2,0:2:0:0:
9,201,22915,2,0,L|28:101,1,94.499997116089,2|0,3:2|0:2,0:2:0:0:
286,15,23184,1,8,0:2:0:0:
131,208,23319,1,2,0:2:0:0:
368,128,23453,5,2,3:2:0:0:
105,47,23588,2,0,P|150:43|201:73,1,94.499997116089,2|8,0:2|0:2,0:0:0:0:
321,274,23857,1,0,0:2:0:0:
294,23,23992,2,0,L|276:115,1,94.499997116089,2|0,3:2|0:2,0:2:0:0:
208,299,24261,1,8,0:2:0:0:
391,116,24395,1,2,0:2:0:0:
138,203,24530,5,2,3:2:0:0:
424,299,24664,2,0,L|406:206,1,94.499997116089,2|8,0:2|0:2,0:2:0:0:
286,15,24933,1,0,0:2:0:0:
145,198,25068,2,0,P|190:218|252:209,1,94.499997116089,2|0,3:2|0:2,0:0:0:0:
400,13,25337,5,10,0:2:0:0:
93,117,25471,1,10,0:2:0:0:
93,117,26144,6,0,L|80:62,1,45,8|0,0:2|0:0,0:0:0:0:
155,4,26413,2,0,L|165:47,1,45,8|0,0:2|0:0,0:0:0:0:
207,227,26682,6,0,L|117:207,1,85.4999977169037,0|0,3:2|0:2,3:2:0:0:
310,119,26951,2,0,L|400:139,1,85.4999977169037,8|0,0:2|0:2,0:2:0:0:
199,233,27220,2,0,L|31:196,1,170.999995433807,0|8,3:2|0:2,0:2:0:0:
165,47,27624,6,0,L|185:137,1,85.4999977169037,0|2,0:2|3:2,0:0:0:0:
235,321,27893,1,2,0:2:0:0:
274,151,28027,1,10,0:2:0:0:
237,332,28162,1,2,0:2:0:0:
115,188,28296,1,2,3:2:0:0:
303,244,28431,1,2,0:2:0:0:
147,344,28566,2,0,P|144:299|165:263,1,85.4999977169037,10|0,0:2|0:0,0:0:0:0:
283,145,28835,6,0,P|295:104|303:55,1,85.4999977169037,0|0,3:2|0:2,0:2:0:0:
426,236,29104,2,0,P|438:277|446:326,1,85.4999977169037,8|0,0:2|0:2,0:2:0:0:
192,165,29373,2,0,P|189:85|228:0,1,170.999995433807,0|8,3:2|0:2,0:2:0:0:
465,104,29776,6,0,L|375:124,1,85.4999977169037,0|2,0:2|3:2,0:0:0:0:
181,169,30045,1,2,0:2:0:0:
315,48,30180,1,10,0:2:0:0:
349,228,30314,1,2,0:2:0:0:
240,99,30449,1,2,3:2:0:0:
187,268,30583,1,2,0:2:0:0:
321,141,30718,2,0,P|366:138|416:166,1,85.4999977169037,10|0,0:2|0:0,0:0:0:0:
512,384,30987,6,0,L|422:364,1,85.4999977169037,0|0,3:2|0:2,0:2:0:0:
344,234,31256,2,0,L|254:254,1,85.4999977169037,8|0,0:2|0:2,0:2:0:0:
77,348,31525,2,0,P|122:316|127:208,1,170.999995433807,0|8,3:2|0:2,0:2:0:0:
15,98,31929,6,0,L|35:188,1,85.4999977169037,0|2,0:2|3:2,0:0:0:0:
175,316,32198,1,2,0:2:0:0:
0,268,32332,1,10,0:2:0:0:
198,153,32467,1,2,0:2:0:0:
11,271,32601,1,2,3:2:0:0:
250,247,32736,1,2,0:2:0:0:
110,108,32870,2,0,L|91:24,1,85.4999977169037,10|0,0:2|0:0,0:0:0:0:
43,189,33139,6,0,L|126:207,1,85.4999977169037,0|0,3:2|0:2,0:2:0:0:
350,106,33409,2,0,L|266:87,1,85.4999977169037,8|0,0:2|0:2,0:2:0:0:
50,198,33678,2,0,L|240:240,1,170.999995433807,0|8,3:2|0:2,0:2:0:0:
361,109,34081,6,0,L|379:192,1,85.4999977169037,0|2,0:2|3:2,0:0:0:0:
350,343,34350,1,2,0:2:0:0:
290,182,34485,1,10,0:2:0:0:
259,367,34619,1,2,0:2:0:0:
382,203,34754,1,2,3:2:0:0:
433,384,34888,1,2,0:2:0:0:
284,272,35023,2,0,L|200:290,1,85.4999977169037,10|0,0:2|0:0,0:0:0:0:
101,93,35292,5,10,0:2:0:0:
384,213,35426,1,8,0:2:0:0:
88,288,35561,1,10,0:2:0:0:
330,135,35696,1,8,0:2:0:0:
74,76,35830,5,10,0:2:0:0:
241,319,35965,1,8,0:2:0:0:
309,30,36099,1,10,0:2:0:0:
114,277,36234,1,8,0:2:0:0:
358,124,36368,5,10,0:2:0:0:
49,62,36503,1,8,0:2:0:0:
358,224,36637,1,10,0:2:0:0:
48,161,36772,1,8,0:2:0:0:
396,32,36906,5,10,0:2:0:0:
76,175,37041,1,8,0:2:0:0:
412,298,37175,1,10,0:2:0:0:
285,39,37310,1,8,0:2:0:0:
128,333,37444,5,10,0:2:0:0:
348,118,37579,1,8,0:2:0:0:
325,384,37713,1,10,0:2:0:0:
198,92,37848,1,8,0:2:0:0:
412,298,37983,5,10,0:2:0:0:
76,175,38117,1,8,0:2:0:0:
431,59,38252,5,10,0:2:0:0:
48,161,38386,1,10,0:2:0:0:
442,313,38521,1,10,0:2:0:0:
