osu file format v14

[General]
AudioFilename: audio.ogg
AudioLeadIn: 0
PreviewTime: 18072
Countdown: 0
SampleSet: Soft
StackLeniency: 0.7
Mode: 0
LetterboxInBreaks: 0
WidescreenStoryboard: 1

[Editor]
DistanceSpacing: 0.5
BeatDivisor: 4
GridSize: 32
TimelineZoom: 1.7

[Metadata]
Title:Brazil
TitleUnicode:Brazil
Artist:Apollo
ArtistUnicode:Apollo
Creator:moonpoint
Version:Hard
Source:
Tags:wire instrumental brazil2 electronic 8 bit remix chiptune plasma kuki1537 AJT plambob app midwest fatfan kolek browiec fieryrage
BeatmapID:4423828
BeatmapSetID:2104327

[Difficulty]
HPDrainRate:4
CircleSize:3.5
OverallDifficulty:7
ApproachRate:8
SliderMultiplier:1.2
SliderTickRate:1

[Events]
//Background and Video events
0,0,"salute.jpg",0,0
//Break Periods
//Storyboard Layer 0 (Background)
//Storyboard Layer 1 (Fail)
//Storyboard Layer 2 (Pass)
//Storyboard Layer 3 (Foreground)
//Storyboard Layer 4 (Overlay)
//Storyboard Sound Samples

[TimingPoints]
853,269.058295964126,4,2,1,71,1,0

[Colours]
Combo1 : 48,174,131
Combo2 : 169,84,84
Combo3 : 239,208,69
Combo4 : 216,216,216

[HitObjects]
145,91,853,6,0,P|174:86|204:82,1,60,0|0,3:2|0:2,0:2:0:0:
276,142,1122,2,0,P|257:197|201:221,2,120,8|0|8,0:2|3:2|0:2,0:2:0:0:
331,249,1794,2,0,P|360:253|390:257,1,60,0|2,0:2|3:2,0:0:0:0:
464,220,2063,1,2,0:2:0:0:
464,220,2198,1,10,0:2:0:0:
272,171,2467,2,0,L|341:149,1,60,2|2,3:2|0:2,0:0:0:0:
356,79,2736,1,10,0:2:0:0:
214,254,3005,6,0,P|196:304|186:332,1,60,0|0,3:2|0:2,0:2:0:0:
116,364,3274,2,0,P|83:338|88:247,2,120,8|0|8,0:2|3:2|0:2,0:2:0:0:
189,318,3947,2,0,P|200:279|196:252,1,60,0|2,0:2|3:2,0:0:0:0:
131,201,4216,1,2,0:2:0:0:
131,201,4350,1,10,0:2:0:0:
315,213,4619,2,0,P|294:185|261:164,1,60,2|2,3:2|0:2,0:0:0:0:
199,137,4888,1,10,0:2:0:0:
292,305,5157,6,0,P|326:306|368:297,1,60,0|0,3:2|0:2,0:2:0:0:
419,360,5426,2,0,P|459:338|473:250,2,120,8|0|8,0:2|3:2|0:2,0:2:0:0:
307,293,6099,2,0,P|330:318|343:355,1,60,0|2,0:2|3:2,0:0:0:0:
258,379,6368,1,2,0:2:0:0:
258,379,6503,1,10,0:2:0:0:
270,194,6772,2,0,P|245:233|223:245,1,60,2|2,3:2|0:2,0:0:0:0:
154,232,7041,1,10,0:2:0:0:
21,164,7310,6,0,P|11:127|21:87,1,60,0|0,3:2|0:2,0:2:0:0:
86,39,7579,2,0,P|120:75|99:159,2,120,8|0|8,0:2|3:2|0:2,0:2:0:0:
206,83,8252,2,0,P|236:83|270:72,1,60,0|2,0:2|3:2,0:0:0:0:
311,5,8521,1,2,0:2:0:0:
311,5,8655,1,10,0:2:0:0:
394,195,8924,2,0,P|411:166|413:128,1,60,2|2,3:2|0:2,0:0:0:0:
382,65,9193,1,10,0:2:0:0:
382,65,9328,1,2,0:2:0:0:
324,127,9462,5,2,3:2:0:0:
465,45,9731,1,10,0:2:0:0:
465,45,9866,2,0,P|484:66|478:173,1,120,2|0,0:2|0:2,0:2:0:0:
511,238,10270,2,0,P|482:259|440:268,1,60,8|2,0:2|0:2,0:0:0:0:
322,209,10539,5,2,3:2:0:0:
322,209,10673,1,2,0:2:0:0:
425,339,10942,2,0,P|389:330|278:319,1,120,2|0,0:2|0:2,0:2:0:0:
186,265,11346,2,0,P|218:261|259:252,1,60,8|2,0:2|0:2,0:0:0:0:
255,163,11615,5,2,3:2:0:0:
255,163,11749,1,2,0:2:0:0:
152,52,12018,2,0,P|128:91|133:183,1,120,2|0,0:2|0:2,0:2:0:0:
98,258,12422,2,0,P|77:231|47:213,1,60,10|2,0:2|0:2,0:0:0:0:
0,160,12691,1,2,3:2:0:0:
75,334,12960,1,8,0:2:0:0:
154,141,13229,1,0,3:2:0:0:
156,321,13498,1,8,0:2:0:0:
156,321,13633,1,2,0:2:0:0:
224,276,13767,6,0,P|261:273|352:272,1,120,2|8,3:2|0:2,0:2:0:0:
398,179,14171,2,0,P|361:182|270:183,1,120,2|2,0:2|0:2,0:2:0:0:
226,105,14574,2,0,P|260:102|294:102,1,60,10|2,0:2|0:2,0:0:0:0:
349,20,14844,2,0,P|312:23|221:24,1,120,2|8,3:2|0:2,0:2:0:0:
96,26,15247,1,2,0:2:0:0:
96,26,15785,1,2,0:2:0:0:
96,26,15920,6,0,P|95:63|93:88,1,60,2|0,3:2|0:2,0:2:0:0:
191,106,16189,2,0,P|193:76|193:46,1,60,10|0,0:2|0:2,0:2:0:0:
292,28,16458,2,0,P|291:57|289:87,1,60,2|0,3:2|0:0,0:0:0:0:
390,113,16727,2,0,P|392:83|393:53,1,60,10|2,0:2|0:2,0:0:0:0:
338,200,16996,6,0,P|313:224|229:222,2,120,2|8|0,3:2|0:2|3:2,0:2:0:0:
343,107,17669,1,0,0:2:0:0:
343,107,17803,1,8,0:2:0:0:
143,178,18072,6,0,P|129:208|165:295,1,120,2|10,3:2|0:2,0:2:0:0:
224,322,18476,1,2,0:2:0:0:
286,265,18610,2,0,P|326:255|405:277,1,120,2|8,3:2|0:2,0:2:0:0:
433,78,19148,5,2,3:2:0:0:
375,136,19283,2,0,P|336:131|297:59,1,120,2|0,0:2|0:2,0:2:0:0:
191,48,19687,2,0,P|214:12|240:-5,1,60,2|0,3:2|0:2,0:2:0:0:
142,177,20090,6,0,L|73:170,1,60,2|2,0:2|3:2,0:0:0:0:
10,230,20359,2,0,P|22:265|110:301,1,120,2|0,0:2|0:2,0:2:0:0:
159,357,20763,2,0,P|196:342|220:311,1,60,2|0,3:2|0:2,0:0:0:0:
274,281,21032,1,10,0:2:0:0:
232,210,21166,2,0,P|196:205|102:206,1,120,2|0,0:2|0:0,0:0:0:0:
219,127,21570,5,10,0:2:0:0:
219,127,21839,1,10,0:2:0:0:
219,127,22108,1,10,0:2:0:0:
337,66,22377,6,0,P|319:102|337:179,1,120,2|10,3:2|0:2,0:2:0:0:
406,209,22781,1,2,0:2:0:0:
485,176,22915,2,0,P|461:129|380:127,1,120,2|8,3:2|0:2,0:2:0:0:
255,254,23453,5,2,3:2:0:0:
291,334,23588,2,0,P|342:328|397:277,1,120,2|0,0:2|0:2,0:0:0:0:
372,203,23992,2,0,P|351:195|308:190,1,60,2|0,3:2|0:2,0:2:0:0:
112,114,24395,6,0,L|112:180,1,60,2|2,0:2|3:2,0:0:0:0:
162,235,24664,2,0,P|209:207|211:134,1,120,2|0,0:2|0:2,0:2:0:0:
142,102,25068,2,0,P|94:105|60:109,1,60,2|0,3:2|0:2,0:0:0:0:
26,164,25337,1,10,0:2:0:0:
83,226,25471,1,10,0:2:0:0:
256,123,26144,5,8,0:2:0:0:
256,123,26413,1,8,0:2:0:0:
364,220,26682,6,0,P|322:210|280:203,1,60,0|0,3:2|0:2,3:2:0:0:
217,233,26951,2,0,P|227:265|315:312,2,120,8|0|8,0:2|3:2|0:2,0:2:0:0:
255,148,27624,2,0,P|285:121|298:93,1,60,0|2,0:2|3:2,0:0:0:0:
283,26,27893,1,2,0:2:0:0:
283,26,28027,1,10,0:2:0:0:
471,138,28296,2,0,P|459:109|422:74,1,60,2|2,3:2|0:2,0:0:0:0:
372,43,28566,1,10,0:2:0:0:
315,206,28835,6,0,P|351:219|384:221,1,60,0|0,3:2|0:2,0:2:0:0:
439,292,29104,2,0,P|390:293|323:321,2,120,8|0|8,0:2|3:2|0:2,0:2:0:0:
511,336,29776,2,0,P|489:361|452:371,1,60,0|2,0:2|3:2,0:0:0:0:
386,376,30045,1,2,0:2:0:0:
386,376,30180,1,10,0:2:0:0:
453,243,30449,2,0,P|417:215|398:181,1,60,2|2,3:2|0:2,0:0:0:0:
399,121,30718,1,10,0:2:0:0:
239,215,30987,6,0,P|255:185|281:168,1,60,0|0,3:2|0:2,0:2:0:0:
327,246,31256,2,0,P|312:278|218:312,2,120,8|0|8,0:2|3:2|0:2,0:2:0:0:
283,173,31929,2,0,P|244:165|204:173,1,60,0|2,0:2|3:2,0:0:0:0:
147,204,32198,1,2,0:2:0:0:
147,204,32332,1,10,0:2:0:0:
211,66,32601,2,0,P|173:51|140:45,1,60,2|2,3:2|0:2,0:0:0:0:
69,46,32870,1,10,0:2:0:0:
110,219,33139,6,0,P|73:228|34:229,1,60,0|0,3:2|0:2,0:2:0:0:
16,149,33409,2,0,P|49:130|134:138,2,120,8|0|8,0:2|3:2|0:2,0:2:0:0:
8,236,34081,2,0,P|31:262|61:275,1,60,0|2,0:2|3:2,0:0:0:0:
119,321,34350,1,2,0:2:0:0:
119,321,34485,1,10,0:2:0:0:
218,173,34754,2,0,P|210:219|216:255,1,60,2|2,3:2|0:2,0:0:0:0:
226,311,35023,1,10,0:2:0:0:
401,302,35292,6,0,P|408:257|416:228,1,60,10|8,0:2|0:2,0:0:0:0:
300,212,35561,2,0,P|298:176|295:145,1,60,10|8,0:2|0:2,0:0:0:0:
388,307,35830,6,0,P|399:273|409:242,1,60,10|8,0:2|0:2,0:0:0:0:
284,217,36099,2,0,P|276:178|271:147,1,60,10|8,0:2|0:2,0:0:0:0:
384,297,36368,6,0,P|389:264|391:236,1,60,10|8,0:2|0:2,0:0:0:0:
281,202,36637,2,0,P|290:162|297:135,1,60,10|8,0:2|0:2,0:0:0:0:
400,295,36906,6,0,P|405:254|404:225,1,60,10|8,0:2|0:2,0:0:0:0:
274,209,37175,2,0,P|271:175|268:145,1,60,10|8,0:2|0:2,0:0:0:0:
389,294,37444,6,0,P|390:238|391:214,1,60,10|8,0:2|0:2,0:0:0:0:
281,225,37713,2,0,P|284:188|286:160,1,60,10|8,0:2|0:2,0:0:0:0:
403,285,37983,6,0,P|408:253|413:220,1,60,10|8,0:2|0:2,0:0:0:0:
248,318,38252,2,0,P|222:285|201:261,1,60,10|10,0:2|0:2,0:0:0:0:
131,248,38521,1,10,0:2:0:0:
