osu file format v14

[General]
AudioFilename: audio.ogg
AudioLeadIn: 0
PreviewTime: 18072
Countdown: 0
SampleSet: Soft
StackLeniency: 0.3
Mode: 0
LetterboxInBreaks: 0
WidescreenStoryboard: 1

[Editor]
DistanceSpacing: 1
BeatDivisor: 4
GridSize: 32
TimelineZoom: 1

[Metadata]
Title:Brazil
TitleUnicode:Brazil
Artist:Apollo
ArtistUnicode:Apollo
Creator:moonpoint
Version:Fiery's Extreme
Source:
Tags:wire instrumental brazil2 electronic 8 bit remix chiptune plasma kuki1537 AJT plambob app midwest fatfan kolek browiec fieryrage
BeatmapID:4425879
BeatmapSetID:2104327

[Difficulty]
HPDrainRate:5
CircleSize:4.2
OverallDifficulty:9.6
ApproachRate:9.6
SliderMultiplier:1.8
SliderTickRate:1

[Events]
//Background and Video events
0,0,"salute.jpg",0,0
//Break Periods
//Storyboard Layer 0 (Background)
//Storyboard Layer 1 (Fail)
//Storyboard Layer 2 (Pass)
//Storyboard Layer 3 (Foreground)
//Storyboard Layer 4 (Overlay)
//Storyboard Sound Samples

[TimingPoints]
853,269.058295964126,4,2,1,74,1,0
9462,-90.9090909090909,4,2,1,74,0,0
14372,-90.9090909090909,4,2,1,75,0,0
14440,-90.9090909090909,4,2,1,74,0,0
15247,-50,4,2,1,74,0,0
15382,-90.9090909090909,4,2,1,74,0,0
16592,-90.9090909090909,4,2,1,75,0,0
16727,-90.9090909090909,4,2,1,74,0,0
17130,-90.9090909090909,4,2,1,75,0,0
17265,-90.9090909090909,4,2,1,74,0,0
18072,-83.3333333333333,4,2,1,74,0,1
18811,-83.3333333333333,4,2,1,75,0,1
18879,-83.3333333333333,4,2,1,74,0,1
20964,-83.3333333333333,4,2,1,75,0,1
21032,-83.3333333333333,4,2,1,74,0,1
21301,-100,4,2,1,74,0,0
22377,-83.3333333333333,4,2,1,74,0,1
25471,-100,4,2,1,74,0,0
26144,-250,4,2,1,74,0,0
26682,-100,4,2,1,74,0,0
35157,-100,4,2,1,75,0,0
35292,-71.4285714285714,4,2,1,74,0,1
38521,-166.666666666667,4,2,1,74,0,0
38655,-166.666666666667,4,2,1,5,0,0

[Colours]
Combo1 : 48,174,131
Combo2 : 169,84,84
Combo3 : 239,208,69
Combo4 : 216,216,216

[HitObjects]
380,115,853,6,0,P|371:174|361:313,2,180,0|8|0,3:2|0:2|3:2,0:2:0:0:
380,115,1660,1,8,0:2:0:0:
266,240,1794,2,0,P|207:245|149:141,1,180,0|2,0:2|0:2,0:0:0:0:
175,15,2198,5,10,0:2:0:0:
33,106,2332,1,2,0:2:0:0:
247,148,2467,1,2,3:2:0:0:
14,103,2601,1,2,0:2:0:0:
283,54,2736,1,10,0:2:0:0:
283,54,3005,6,0,P|324:94|326:212,1,180,0|8,3:2|0:2,0:2:0:0:
35,305,3543,2,0,P|109:294|230:284,1,180,0|8,3:2|0:2,0:2:0:0:
346,318,3947,1,0,0:2:0:0:
236,192,4081,5,2,3:2:0:0:
294,384,4216,1,2,0:2:0:0:
335,150,4350,1,10,0:2:0:0:
208,321,4485,1,2,0:2:0:0:
278,78,4619,5,2,3:2:0:0:
384,309,4754,1,2,0:2:0:0:
153,193,4888,1,10,0:2:0:0:
153,193,5157,6,0,P|98:186|50:184,1,90,0|0,3:2|0:2,0:2:0:0:
194,320,5426,2,0,P|249:327|297:329,1,90,8|0,0:2|0:2,0:2:0:0:
396,107,5696,2,0,P|383:175|381:318,1,180,0|8,3:2|0:2,0:2:0:0:
406,384,6099,1,0,0:2:0:0:
293,178,6234,5,2,3:2:0:0:
484,324,6368,1,2,0:2:0:0:
396,107,6503,1,10,0:2:0:0:
324,349,6637,1,2,0:2:0:0:
401,91,6772,5,2,3:2:0:0:
498,340,6906,1,2,0:2:0:0:
271,171,7041,1,10,0:2:0:0:
271,171,7310,6,0,P|209:163|167:164,1,90,0|0,3:2|0:2,0:2:0:0:
35,65,7579,2,0,P|79:58|124:57,1,90,8|0,0:2|0:2,0:2:0:0:
300,26,7848,2,0,P|278:97|272:219,1,180,0|8,3:2|0:2,0:2:0:0:
283,328,8252,1,0,0:2:0:0:
184,139,8386,5,2,3:2:0:0:
156,365,8521,1,2,0:2:0:0:
187,118,8655,1,10,0:2:0:0:
71,325,8790,1,2,0:2:0:0:
190,97,8924,5,2,3:2:0:0:
246,347,9059,1,2,0:2:0:0:
42,166,9193,1,10,0:2:0:0:
314,196,9328,1,2,0:2:0:0:
71,325,9462,6,0,P|75:232|74:113,1,198.000006042481,2|10,3:2|0:2,0:2:0:0:
210,0,9866,2,0,P|206:93|207:212,1,198.000006042481,2|0,0:2|0:2,0:2:0:0:
238,364,10270,1,8,0:2:0:0:
84,178,10404,1,2,0:2:0:0:
315,294,10539,5,2,3:2:0:0:
58,326,10673,2,0,P|117:318|200:315,1,99.0000030212403,2|8,0:2|0:2,0:2:0:0:
384,372,10942,2,0,P|407:299|355:193,1,198.000006042481,2|0,0:2|0:2,0:2:0:0:
235,124,11346,1,8,0:2:0:0:
315,294,11480,1,2,0:2:0:0:
372,56,11615,5,2,3:2:0:0:
207,240,11749,2,0,P|136:221|102:100,2,198.000006042481,2|2|0,0:2|0:2|0:2,0:2:0:0:
407,193,12422,1,10,0:2:0:0:
214,113,12557,1,2,0:2:0:0:
313,337,12691,6,0,P|318:257|322:210,1,99.0000030212403,2|0,3:2|0:2,0:2:0:0:
207,14,12960,2,0,P|210:63|213:112,1,99.0000030212403,8|0,0:2|0:2,0:2:0:0:
153,326,13229,5,0,3:2:0:0:
73,68,13364,1,0,0:2:0:0:
159,345,13498,1,8,0:2:0:0:
309,94,13633,1,2,0:2:0:0:
20,246,13767,6,0,P|109:237|240:232,1,198.000006042481,2|8,3:2|0:2,0:2:0:0:
375,362,14171,2,0,P|372:267|377:192,1,148.50000453186,2|0,0:2|0:0,0:2:0:0:
382,164,14440,1,2,0:2:0:0:
260,308,14574,1,10,0:2:0:0:
335,69,14709,1,2,0:2:0:0:
180,292,14844,6,0,P|124:291|72:166,1,198.000006042481,2|8,3:2|0:2,0:2:0:0:
192,26,15247,6,0,B|190:44|190:44|183:50|183:50|190:66|190:66|176:76|176:76|185:99|185:99|172:207,1,180,2|0,0:2|3:2,0:2:0:0:
173,191,15651,1,8,0:2:0:0:
317,79,15785,1,2,0:2:0:0:
77,154,15920,6,0,P|87:274|92:367,2,198.000006042481,2|10|2,3:2|0:2|3:2,0:2:0:0:
43,48,16592,1,0,0:0:0:0:
173,191,16727,1,10,0:2:0:0:
202,78,16861,1,2,0:2:0:0:
319,241,16996,6,0,P|331:289|335:339,1,99.0000030212403,2|0,3:2|0:2,0:2:0:0:
408,120,17265,2,0,P|412:70|424:22,1,99.0000030212403,8|0,0:2|0:2,0:2:0:0:
249,85,17534,5,0,3:2:0:0:
483,248,17669,1,0,0:2:0:0:
228,195,17803,1,8,0:2:0:0:
504,138,17938,1,0,0:2:0:0:
207,305,18072,6,0,P|146:285|127:138,1,215.999993408203,2|10,3:2|0:2,0:2:0:0:
256,41,18476,1,2,0:2:0:0:
315,357,18610,2,0,P|322:273|338:153,1,161.999995056153,2|0,3:2|0:0,0:2:0:0:
344,142,18879,1,8,0:2:0:0:
149,234,19014,1,2,0:2:0:0:
427,181,19148,5,2,3:2:0:0:
144,113,19283,2,0,P|158:232|158:360,1,215.999993408203,2|0,0:2|0:2,0:2:0:0:
256,59,19687,1,2,3:2:0:0:
35,166,19821,1,0,0:2:0:0:
273,51,19956,1,10,0:2:0:0:
62,256,20090,1,2,0:2:0:0:
147,0,20225,5,2,3:2:0:0:
277,236,20359,2,0,P|334:243|404:119,1,215.999993408203,2|0,0:2|0:2,0:2:0:0:
192,162,20763,2,0,P|191:244|186:356,1,161.999995056153,2|0,3:2|0:0,0:0:0:0:
183,378,21032,1,10,0:2:0:0:
109,108,21166,1,2,0:2:0:0:
296,265,21301,5,0,3:2:0:0:
296,265,21570,5,10,0:2:0:0:
57,196,21839,5,10,0:2:0:0:
343,335,22108,5,10,0:2:0:0:
203,23,22377,6,0,P|198:107|195:168,1,107.999996704102,2|0,3:2|0:2,0:2:0:0:
188,336,22646,1,10,0:2:0:0:
105,101,22781,1,2,0:2:0:0:
284,281,22915,2,0,P|342:290|415:165,1,215.999993408203,2|8,3:2|0:2,0:2:0:0:
347,10,23319,1,2,0:2:0:0:
512,213,23453,5,2,3:2:0:0:
261,148,23588,2,0,P|269:294|274:411,1,215.999993408203,2|0,0:2|0:2,0:0:0:0:
163,83,23992,1,2,3:2:0:0:
383,178,24126,1,0,0:2:0:0:
93,126,24261,1,8,0:2:0:0:
383,46,24395,1,2,0:2:0:0:
101,244,24530,5,2,3:2:0:0:
295,0,24664,2,0,P|290:68|291:140,1,107.999996704102,2|8,0:2|0:2,0:2:0:0:
305,330,24933,1,0,0:2:0:0:
199,51,25068,1,2,3:2:0:0:
312,347,25202,1,0,0:2:0:0:
387,28,25337,5,10,0:2:0:0:
114,239,25471,1,10,0:2:0:0:
114,239,26144,6,0,P|96:253|125:250,1,72,8|8,0:2|0:2,0:0:0:0:
231,150,26682,6,0,P|224:268|221:368,2,180,0|8|0,3:2|0:2|3:2,3:2:0:0:
231,150,27489,1,8,0:2:0:0:
116,252,27624,2,0,P|72:250|47:126,1,180,0|2,0:2|0:2,0:0:0:0:
124,20,28027,5,10,0:2:0:0:
218,248,28162,1,2,0:2:0:0:
47,51,28296,1,2,3:2:0:0:
112,282,28431,1,2,0:2:0:0:
229,68,28566,1,10,0:2:0:0:
229,68,28835,6,0,P|293:64|351:64,1,90,0|0,3:2|0:2,0:2:0:0:
422,173,29104,2,0,P|377:176|332:177,1,90,8|0,0:2|0:2,0:2:0:0:
215,360,29373,2,0,P|222:278|228:162,1,180,0|8,3:2|0:2,0:2:0:0:
231,42,29776,1,0,0:2:0:0:
315,270,29911,5,2,3:2:0:0:
132,105,30045,1,2,0:2:0:0:
329,283,30180,1,10,0:2:0:0:
98,199,30314,1,2,0:2:0:0:
361,111,30449,5,2,3:2:0:0:
83,204,30583,1,2,0:2:0:0:
401,198,30718,1,10,0:2:0:0:
401,198,30987,6,0,P|396:306|393:381,1,180,0|8,3:2|0:2,0:2:0:0:
231,42,31525,2,0,P|236:150|239:225,1,180,0|8,3:2|0:2,0:2:0:0:
244,369,31929,1,0,0:2:0:0:
149,132,32063,5,2,3:2:0:0:
335,307,32198,1,2,0:2:0:0:
137,120,32332,1,10,0:2:0:0:
374,208,32467,1,2,0:2:0:0:
117,254,32601,5,2,3:2:0:0:
368,107,32736,1,2,0:2:0:0:
66,179,32870,1,10,0:2:0:0:
66,179,33139,6,0,P|75:266|83:371,1,180,0|8,3:2|0:2,0:0:0:0:
374,205,33678,2,0,P|245:195|164:177,1,180,0|8,3:2|0:2,0:2:0:0:
83,90,34081,1,0,0:2:0:0:
134,294,34216,5,2,3:2:0:0:
185,61,34350,1,2,0:2:0:0:
209,349,34485,1,10,0:2:0:0:
266,80,34619,1,2,0:2:0:0:
43,309,34754,5,2,3:2:0:0:
336,193,34888,1,2,0:2:0:0:
44,84,35023,2,0,P|48:129|50:196,1,90,10|0,0:2|0:0,0:0:0:0:
198,357,35292,5,10,0:2:0:0:
313,26,35426,1,10,0:2:0:0:
313,357,35561,5,10,0:2:0:0:
198,26,35696,1,10,0:2:0:0:
195,363,35830,5,10,0:2:0:0:
315,19,35965,1,10,0:2:0:0:
315,363,36099,5,10,0:2:0:0:
195,19,36234,1,10,0:2:0:0:
193,370,36368,5,10,0:2:0:0:
317,12,36503,1,10,0:2:0:0:
317,370,36637,5,10,0:2:0:0:
193,12,36772,1,10,0:2:0:0:
191,376,36906,5,10,0:2:0:0:
319,6,37041,1,10,0:2:0:0:
319,376,37175,5,10,0:2:0:0:
191,6,37310,1,10,0:2:0:0:
187,382,37444,5,10,0:2:0:0:
322,0,37579,1,10,0:2:0:0:
322,382,37713,5,10,0:2:0:0:
187,0,37848,1,10,0:2:0:0:
24,278,37983,5,10,0:2:0:0:
488,106,38117,1,10,0:2:0:0:
4,162,38252,5,10,0:2:0:0:
508,222,38386,1,10,0:2:0:0:
256,192,38521,6,0,L|248:253,1,53.9999983520508,10|0,0:2|0:0,0:0:0:0:
