osu file format v14

[General]
AudioFilename: audio.ogg
AudioLeadIn: 0
PreviewTime: 18072
Countdown: 0
SampleSet: Soft
StackLeniency: 0.8
Mode: 0
LetterboxInBreaks: 0
WidescreenStoryboard: 1

[Editor]
DistanceSpacing: 0.5
BeatDivisor: 4
GridSize: 8
TimelineZoom: 1

[Metadata]
Title:Brazil
TitleUnicode:Brazil
Artist:Apollo
ArtistUnicode:Apollo
Creator:moonpoint
Version:Fatfan's Tiny Expert
Source:
Tags:wire instrumental brazil2 electronic 8 bit remix chiptune plasma kuki1537 AJT plambob app midwest fatfan kolek browiec fieryrage
BeatmapID:4418212
BeatmapSetID:2104327

[Difficulty]
HPDrainRate:4
CircleSize:7
OverallDifficulty:9
ApproachRate:9.4
SliderMultiplier:1.8
SliderTickRate:1

[Events]
//Background and Video events
0,0,"salute.jpg",0,0
//Break Periods
//Storyboard Layer 0 (Background)
//Storyboard Layer 1 (Fail)
//Storyboard Layer 2 (Pass)
//Storyboard Layer 3 (Foreground)
//Storyboard Layer 4 (Overlay)
//Storyboard Sound Samples

[TimingPoints]
853,269.058295964126,4,2,1,80,1,0
853,-100,4,2,1,80,0,0
21570,-100,4,2,1,80,0,0
22377,-100,4,2,1,80,0,0

[Colours]
Combo1 : 48,174,131
Combo2 : 169,84,84
Combo3 : 239,208,69
Combo4 : 216,216,216

[HitObjects]
0,240,853,6,0,B|5:201|31:180|45:248,1,90,0|0,3:2|0:2,0:2:0:0:
64,304,1122,2,0,B|69:342|95:363|109:295,1,90,8|0,0:2|0:2,0:2:0:0:
128,240,1391,2,0,B|133:201|159:180|173:248,1,90,0|0,3:2|0:0,0:2:0:0:
192,304,1660,1,8,0:2:0:0:
192,304,1794,2,0,B|256:400|264:388|312:293,1,180,0|2,0:2|0:2,0:0:0:0:
352,240,2198,1,10,0:2:0:0:
384,336,2332,1,2,0:2:0:0:
416,240,2467,1,2,3:2:0:0:
448,336,2601,1,2,0:2:0:0:
480,240,2736,1,10,0:2:0:0:
480,240,3005,6,0,B|519:235|540:209|472:195,1,90,0|0,3:2|0:2,0:2:0:0:
448,152,3274,2,0,B|443:113|417:92|403:160,1,90,8|0,0:2|0:2,0:2:0:0:
368,192,3543,2,0,B|329:197|308:223|376:237,1,90,0|0,3:2|0:0,0:2:0:0:
416,272,3812,1,8,0:2:0:0:
416,272,3947,2,0,B|464:263|483:318|424:347|380:328|385:262|426:245,1,180,0|2,0:2|0:2,0:0:0:0:
480,208,4350,1,10,0:2:0:0:
384,176,4484,1,2,0:2:0:0:
480,144,4619,1,2,3:2:0:0:
384,112,4753,1,2,0:2:0:0:
480,80,4888,1,10,0:2:0:0:
480,80,5157,6,0,B|480:48|491:24|432:32,1,90,0|0,3:2|0:2,0:2:0:0:
368,32,5426,2,0,B|336:32|312:21|320:80,1,90,8|0,0:2|0:2,0:2:0:0:
320,144,5696,2,0,B|320:176|331:200|272:192,1,90,0|0,3:2|0:0,0:2:0:0:
208,192,5965,1,8,0:2:0:0:
208,192,6099,2,0,B|139:192|88:215|105:89,1,180,0|2,0:2|0:2,0:0:0:0:
56,40,6503,1,10,0:2:0:0:
152,72,6638,1,2,0:2:0:0:
56,104,6772,1,2,3:2:0:0:
152,136,6907,1,2,0:2:0:0:
56,168,7041,1,10,0:2:0:0:
56,168,7310,6,0,B|5:192|22:205|54:228,1,90,0|0,3:2|0:2,0:2:0:0:
52,280,7579,2,0,B|1:304|18:317|50:340,1,90,8|0,0:2|0:2,0:2:0:0:
104,340,7848,2,0,B|155:316|137:302|106:280,1,90,0|0,3:2|0:0,0:2:0:0:
108,229,8117,1,8,0:2:0:0:
108,229,8252,2,0,B|210:180|174:154|112:108,1,180,0|2,0:2|0:2,0:0:0:0:
48,168,8655,1,10,0:2:0:0:
80,72,8790,1,2,0:2:0:0:
112,168,8924,1,2,3:2:0:0:
144,72,9059,1,2,0:2:0:0:
176,168,9193,1,10,0:2:0:0:
208,120,9328,5,2,0:2:0:0:
240,168,9462,2,0,B|280:200|280:136|320:176,1,90,2|0,3:2|0:2,0:2:0:0:
352,224,9731,1,10,0:2:0:0:
318,269,9866,2,0,B|216:294|228:205|289:159|447:280|285:291,1,270,2|8,0:2|0:2,0:2:0:0:
256,328,10404,1,2,0:2:0:0:
296,368,10539,1,2,3:2:0:0:
352,368,10673,2,0,B|376:336|408:336|424:376,1,90,2|8,0:2|0:2,0:2:0:0:
479,376,10942,2,0,B|431:376|383:336|415:312|479:304|495:280|462:222|343:248,1,270,2|8,0:2|0:2,0:2:0:0:
312,200,11480,1,2,0:2:0:0:
272,152,11615,5,2,3:2:0:0:
272,96,11749,2,0,B|296:72|312:56|264:24,1,90,2|8,0:2|0:2,0:2:0:0:
216,8,12018,2,0,B|216:-8|40:24|40:8,1,180,2|0,0:2|0:2,0:2:0:0:
16,56,12422,1,10,0:2:0:0:
64,92,12557,1,2,0:2:0:0:
16,128,12691,5,2,3:2:0:0:
176,184,12960,1,8,0:2:0:0:
16,240,13229,1,0,3:2:0:0:
104,272,13364,1,0,0:2:0:0:
16,312,13499,1,8,0:2:0:0:
104,344,13633,1,2,0:2:0:0:
16,384,13767,6,0,B|10:352|3:316|170:338,1,180,2|8,3:2|0:2,0:2:0:0:
216,352,14171,2,0,B|293:362|289:344|286:328,1,90,2|0,0:2|3:2,0:2:0:0:
287,273,14440,1,2,0:2:0:0:
287,217,14574,1,10,0:2:0:0:
319,169,14709,1,2,0:2:0:0:
319,113,14844,6,0,B|308:54|337:-52|426:34|337:181|368:194|368:132|461:179|479:143|429:67|363:63|370:182,1,360,2|0,3:2|3:2,0:2:0:0:
352,224,15516,1,0,0:2:0:0:
448,256,15651,1,8,0:2:0:0:
352,288,15785,1,2,0:2:0:0:
448,320,15920,5,2,3:2:0:0:
320,384,16189,1,10,0:2:0:0:
256,288,16458,1,2,3:2:0:0:
192,384,16727,1,10,0:2:0:0:
116,352,16861,1,2,0:2:0:0:
40,320,16996,2,0,B|40:294|43:265|53:245|79:238|99:265|95:297|95:307|92:320|89:337|86:360|89:403|109:399|132:380|145:367|145:334|145:307|132:288,1,270,2|0,3:2|0:2,0:2:0:0:
128,256,17534,1,0,3:2:0:0:
160,160,17668,1,0,0:2:0:0:
192,256,17803,1,8,0:2:0:0:
224,160,17937,1,0,0:2:0:0:
256,256,18072,5,2,3:2:0:0:
312,384,18341,1,10,0:2:0:0:
256,207,18475,1,2,0:2:0:0:
200,384,18610,1,2,3:2:0:0:
352,288,18879,1,8,0:2:0:0:
256,160,19013,1,2,0:2:0:0:
160,288,19148,1,2,3:2:0:0:
320,128,19418,1,8,0:2:0:0:
256,0,19552,1,0,0:2:0:0:
192,128,19687,1,2,3:2:0:0:
301,251,19956,1,10,0:2:0:0:
256,96,20091,1,2,0:2:0:0:
211,251,20225,1,2,3:2:0:0:
256,384,20494,1,8,0:2:0:0:
256,224,20628,1,0,0:2:0:0:
256,384,20763,1,2,3:2:0:0:
256,160,21032,1,10,0:2:0:0:
256,160,21166,1,2,0:2:0:0:
216,193,21570,6,0,B|172:149|205:151|162:181|224:113,1,90,10|0,0:2|0:0,0:2:0:0:
296,122,21839,2,0,B|350:181|307:151|340:149|296:193,1,90,10|0,0:2|0:0,0:2:0:0:
151,194,22108,2,0,B|107:150|140:152|97:182|159:114,1,90,10|0,0:2|0:0,0:2:0:0:
370,122,22377,5,2,3:2:0:0:
192,0,22646,1,10,0:2:0:0:
256,160,22780,1,2,0:2:0:0:
320,0,22915,1,2,3:2:0:0:
160,128,23184,1,8,0:2:0:0:
256,256,23319,1,2,0:2:0:0:
352,128,23453,1,2,3:2:0:0:
192,256,23723,1,8,0:2:0:0:
256,384,23857,1,0,0:2:0:0:
320,256,23992,1,2,3:2:0:0:
192,160,24261,1,8,0:2:0:0:
256,320,24395,1,2,0:2:0:0:
320,160,24530,1,2,3:2:0:0:
256,0,24799,1,8,0:2:0:0:
256,160,24933,1,0,0:2:0:0:
256,0,25068,1,2,3:2:0:0:
256,224,25337,1,10,0:2:0:0:
256,224,25471,1,10,0:2:0:0:
256,160,26144,5,8,0:2:0:0:
256,160,26413,1,8,0:2:0:0:
256,224,26682,6,0,B|258:258|266:282|185:264,1,90,0|0,3:2|0:2,3:2:0:0:
154,267,26951,2,0,B|156:301|164:325|83:307,1,90,8|0,0:2|0:2,0:2:0:0:
52,310,27220,2,0,B|54:344|62:368|-19:350,1,90,0|0,3:2|0:0,0:2:0:0:
0,288,27489,1,8,0:2:0:0:
0,288,27624,2,0,B|33:195|69:194|98:289,1,180,0|2,0:2|0:2,0:0:0:0:
128,384,28027,1,10,0:2:0:0:
160,256,28162,1,2,0:2:0:0:
192,384,28296,1,2,3:2:0:0:
224,256,28431,1,2,0:2:0:0:
256,384,28566,1,10,0:2:0:0:
256,384,28835,6,0,B|301:383|298:358|296:308,1,90,0|0,3:2|0:2,0:2:0:0:
297,263,29104,2,0,B|298:218|323:221|373:223,1,90,8|0,0:2|0:2,0:2:0:0:
419,221,29373,2,0,B|464:220|461:195|459:145,1,90,0|0,3:2|0:0,0:2:0:0:
420,115,29641,1,8,0:2:0:0:
420,115,29776,2,0,B|388:77|481:50|499:145|461:161|428:175|382:154,1,180,0|2,0:2|0:2,0:0:0:0:
373,47,30180,1,10,0:2:0:0:
341,175,30315,1,2,0:2:0:0:
309,47,30449,1,2,3:2:0:0:
277,175,30584,1,2,0:2:0:0:
245,47,30719,1,10,0:2:0:0:
245,47,30986,6,0,B|245:79|256:103|197:95,1,90,0|0,3:2|0:2,0:2:0:0:
135,94,31255,2,0,B|103:94|79:83|87:142,1,90,8|0,0:2|0:2,0:2:0:0:
86,206,31525,2,0,B|86:238|75:262|134:254,1,90,0|0,3:2|0:0,0:2:0:0:
197,255,31794,1,8,0:2:0:0:
197,255,31928,2,0,B|266:255|317:278|300:152,1,180,0|2,0:2|0:2,0:0:0:0:
320,32,32332,1,10,0:2:0:0:
352,160,32467,1,2,0:2:0:0:
384,32,32601,1,2,3:2:0:0:
416,160,32736,1,2,0:2:0:0:
448,32,32871,1,10,0:2:0:0:
448,32,33139,6,0,B|493:51|495:65|443:90,1,90,0|0,3:2|0:2,0:2:0:0:
378,97,33409,2,0,B|333:116|331:130|383:155,1,90,8|0,0:2|0:2,0:2:0:0:
452,160,33678,2,0,B|497:179|499:193|447:218,1,90,0|0,3:2|0:0,0:2:0:0:
386,249,33947,1,8,0:2:0:0:
386,249,34081,2,0,B|348:337|321:341|272:240,1,180,0|2,0:2|0:2,0:0:0:0:
256,192,34485,1,10,0:2:0:0:
256,192,34754,1,2,3:2:0:0:
256,192,35023,1,10,0:2:0:0:
180,374,35292,5,10,0:2:0:0:
334,336,35426,1,8,0:2:0:0:
180,297,35561,1,10,0:2:0:0:
334,259,35695,1,8,0:2:0:0:
180,220,35830,1,10,0:2:0:0:
334,182,35964,1,8,0:2:0:0:
180,144,36099,1,10,0:2:0:0:
180,144,36368,5,10,0:2:0:0:
334,182,36502,1,8,0:2:0:0:
180,220,36637,1,10,0:2:0:0:
334,259,36771,1,8,0:2:0:0:
180,297,36906,1,10,0:2:0:0:
334,336,37040,1,8,0:2:0:0:
180,374,37175,1,10,0:2:0:0:
180,374,37444,5,10,0:2:0:0:
334,336,37578,1,8,0:2:0:0:
180,297,37713,1,10,0:2:0:0:
334,259,37847,1,8,0:2:0:0:
180,220,37982,1,10,0:2:0:0:
334,182,38116,1,8,0:2:0:0:
180,144,38251,5,10,0:2:0:0:
381,220,38386,1,10,0:2:0:0:
180,297,38521,1,10,0:2:0:0:
