osu file format v14

[General]
AudioFilename: audio.ogg
AudioLeadIn: 0
PreviewTime: 18072
Countdown: 0
SampleSet: Soft
StackLeniency: 0.7
Mode: 0
LetterboxInBreaks: 0
WidescreenStoryboard: 0

[Editor]
DistanceSpacing: 0.5
BeatDivisor: 4
GridSize: 32
TimelineZoom: 1.7

[Metadata]
Title:Brazil
TitleUnicode:Brazil
Artist:Apollo
ArtistUnicode:Apollo
Creator:moonpoint
Version:Atomic Scope
Source:
Tags:wire instrumental brazil2 electronic 8 bit remix chiptune plasma kuki1537 AJT plambob app midwest fatfan kolek browiec fieryrage
BeatmapID:4415495
BeatmapSetID:2104327

[Difficulty]
HPDrainRate:5
CircleSize:4.4
OverallDifficulty:10
ApproachRate:9.6
SliderMultiplier:1.8
SliderTickRate:1

[Events]
//Background and Video events
0,0,"salute.jpg",0,0
//Break Periods
//Storyboard Layer 0 (Background)
//Storyboard Layer 1 (Fail)
//Storyboard Layer 2 (Pass)
//Storyboard Layer 3 (Foreground)
//Storyboard Layer 4 (Overlay)
//Storyboard Sound Samples

[TimingPoints]
853,269.058295964126,4,2,1,74,1,0
853,-83.3333333333333,4,2,1,74,0,0
21570,-38.4615384615385,4,2,1,74,0,0
22377,-83.3333333333333,4,2,1,74,0,0

[Colours]
Combo1 : 48,174,131
Combo2 : 169,84,84
Combo3 : 239,208,69
Combo4 : 216,216,216

[HitObjects]
380,373,853,6,0,P|425:354|470:296,1,107.999996704102,0|0,3:2|0:2,0:2:0:0:
185,294,1122,2,0,P|169:245|183:180,1,107.999996704102,8|0,0:2|0:2,0:2:0:0:
258,62,1391,2,0,P|309:109|244:238,1,215.999993408203,0|8,3:2|0:2,0:2:0:0:
31,162,1794,1,0,0:2:0:0:
180,60,1929,5,2,3:2:0:0:
97,256,2063,1,2,0:2:0:0:
32,61,2198,1,10,0:2:0:0:
181,227,2332,1,2,0:2:0:0:
254,31,2467,1,2,3:2:0:0:
106,179,2601,1,2,0:2:0:0:
326,77,2736,1,10,0:2:0:0:
326,77,3005,6,0,P|383:74|433:40,1,107.999996704102,0|0,3:2|0:2,0:2:0:0:
315,262,3274,2,0,P|266:226|244:182,1,107.999996704102,8|0,0:2|0:2,0:2:0:0:
418,354,3543,2,0,P|467:327|445:186,1,215.999993408203,0|8,3:2|0:2,0:2:0:0:
217,282,3947,1,0,0:2:0:0:
352,136,4081,5,2,3:2:0:0:
266,356,4216,1,2,0:2:0:0:
166,157,4350,1,10,0:2:0:0:
354,296,4485,1,2,0:2:0:0:
242,99,4619,1,2,3:2:0:0:
180,307,4754,1,2,0:2:0:0:
80,126,4888,2,0,P|65:90|75:22,1,107.999996704102,10|0,0:2|0:2,0:2:0:0:
383,214,5157,6,0,P|398:250|388:318,1,107.999996704102,0|0,3:2|0:2,0:2:0:0:
196,166,5426,2,0,P|150:179|110:239,1,107.999996704102,8|0,0:2|0:2,0:2:0:0:
328,126,5696,2,0,P|336:81|206:21,1,215.999993408203,0|8,3:2|0:2,0:2:0:0:
267,214,6099,1,0,0:2:0:0:
410,104,6234,5,2,3:2:0:0:
161,99,6368,1,2,0:2:0:0:
429,22,6503,1,10,0:2:0:0:
226,148,6637,1,2,0:2:0:0:
444,179,6772,1,2,3:2:0:0:
237,65,6906,1,2,0:2:0:0:
399,252,7041,1,10,0:2:0:0:
399,252,7310,6,0,P|411:307|395:358,1,107.999996704102,0|0,3:2|0:2,0:2:0:0:
269,147,7579,2,0,P|202:133|165:142,1,107.999996704102,8|0,0:2|0:2,0:2:0:0:
143,359,7848,2,0,P|204:346|191:193,1,215.999993408203,0|8,3:2|0:2,0:2:0:0:
118,56,8252,1,0,0:2:0:0:
132,274,8386,5,2,3:2:0:0:
378,229,8521,1,2,0:2:0:0:
149,192,8655,1,10,0:2:0:0:
339,301,8790,1,2,0:2:0:0:
74,209,8924,1,2,3:2:0:0:
323,145,9059,1,2,0:2:0:0:
96,131,9193,1,10,0:2:0:0:
418,76,9328,5,2,0:2:0:0:
177,111,9462,2,0,P|161:74|161:8,1,107.999996704102,2|0,3:2|0:2,0:2:0:0:
340,161,9731,5,10,0:2:0:0:
37,203,9866,2,0,P|21:166|21:100,1,107.999996704102,2|0,0:2|3:2,0:2:0:0:
194,127,10135,1,0,0:2:0:0:
121,262,10270,1,8,0:2:0:0:
103,68,10404,5,2,0:2:0:0:
304,241,10539,1,2,3:2:0:0:
73,338,10673,2,0,P|43:287|44:233,1,107.999996704102,2|8,0:2|0:2,0:2:0:0:
292,361,10942,2,0,P|346:345|391:293,1,107.999996704102,2|0,0:2|3:2,0:2:0:0:
420,58,11211,1,0,0:2:0:0:
200,212,11346,1,8,0:2:0:0:
491,201,11480,1,2,0:2:0:0:
234,78,11615,5,2,3:2:0:0:
406,197,11749,2,0,P|419:248|406:300,1,107.999996704102,2|8,0:2|0:2,0:2:0:0:
137,353,12018,2,0,P|106:250|139:144,1,215.999993408203,2|0,0:2|0:2,0:2:0:0:
373,63,12422,1,10,0:2:0:0:
106,47,12557,1,2,0:2:0:0:
458,4,12691,6,0,P|473:55|459:109,1,107.999996704102,2|0,3:2|0:2,0:2:0:0:
220,191,12960,2,0,P|205:140|218:85,1,107.999996704102,8|0,0:2|0:2,0:2:0:0:
499,205,13229,1,0,3:2:0:0:
282,304,13364,1,0,0:2:0:0:
302,56,13498,1,8,0:2:0:0:
393,329,13633,5,2,0:2:0:0:
150,254,13767,2,0,P|85:237|28:247,2,107.999996704102,2|0|8,3:2|0:2|0:2,0:2:0:0:
328,141,14171,2,0,P|393:158|450:148,1,107.999996704102,2|0,0:2|3:2,0:2:0:0:
169,78,14440,1,2,0:2:0:0:
256,249,14574,1,10,0:2:0:0:
338,32,14709,1,2,0:2:0:0:
72,97,14844,6,0,P|41:148|91:301,1,215.999993408203,2|8,3:2|0:2,0:2:0:0:
418,264,15247,2,0,L|498:257,1,53.9999983520508,2|0,0:2|0:2,0:2:0:0:
172,358,15382,1,0,3:2:0:0:
246,87,15516,1,0,0:2:0:0:
350,343,15651,1,8,0:2:0:0:
103,193,15785,1,2,0:2:0:0:
447,153,15920,6,0,P|465:116|451:28,1,107.999996704102,2|0,3:2|0:2,0:2:0:0:
163,14,16189,2,0,P|145:51|159:139,1,107.999996704102,10|0,0:2|0:2,0:2:0:0:
292,188,16458,1,2,3:2:0:0:
292,188,16727,1,10,0:2:0:0:
279,5,16861,1,2,0:2:0:0:
40,94,16996,2,0,P|-5:192|43:283,1,215.999993408203,2|8,3:2|0:2,0:2:0:0:
292,188,17400,1,0,0:2:0:0:
139,113,17534,5,0,3:2:0:0:
424,134,17669,1,0,0:2:0:0:
217,334,17803,1,8,0:2:0:0:
189,52,17938,1,0,0:2:0:0:
431,283,18072,6,0,P|393:321|342:335,1,107.999996704102,2|0,3:2|0:2,0:2:0:0:
97,200,18341,1,10,0:2:0:0:
330,42,18476,1,2,0:2:0:0:
28,114,18610,2,0,P|8:167|25:230,1,107.999996704102,2|0,3:2|0:2,0:2:0:0:
327,263,18879,1,8,0:2:0:0:
245,31,19014,1,2,0:2:0:0:
161,345,19148,5,2,3:2:0:0:
472,243,19283,2,0,P|488:192|473:135,1,107.999996704102,2|8,0:2|0:2,0:2:0:0:
213,116,19552,1,0,0:2:0:0:
359,339,19687,2,0,P|305:364|253:365,1,107.999996704102,2|0,3:2|0:2,0:2:0:0:
34,157,19956,1,10,0:2:0:0:
319,191,20090,1,2,0:2:0:0:
72,352,20225,5,2,3:2:0:0:
111,39,20359,2,0,P|165:17|218:13,1,107.999996704102,2|8,0:2|0:2,0:2:0:0:
436,286,20628,1,0,0:2:0:0:
309,14,20763,1,2,3:2:0:0:
335,345,20897,1,0,0:2:0:0:
428,43,21032,1,10,0:2:0:0:
488,350,21166,1,2,0:2:0:0:
383,187,21301,1,0,3:2:0:0:
290,248,21570,6,0,P|245:243|226:143,1,116.999994644165,10|0,0:2|0:2,0:2:0:0:
209,185,21839,6,0,P|234:149|311:163,1,116.999994644165,10|0,0:2|0:2,0:2:0:0:
301,152,22108,6,0,P|319:192|261:252,1,116.999994644165,10|0,0:2|0:2,0:2:0:0:
427,350,22377,6,0,P|446:290|436:239,1,107.999996704102,2|0,3:2|0:2,0:2:0:0:
268,41,22646,1,10,0:2:0:0:
190,349,22781,1,2,0:2:0:0:
487,154,22915,2,0,P|434:133|376:133,1,107.999996704102,2|0,3:2|0:2,0:2:0:0:
80,193,23184,1,8,0:2:0:0:
429,251,23319,1,2,0:2:0:0:
110,42,23453,5,2,3:2:0:0:
142,352,23588,1,2,0:2:0:0:
358,96,23722,1,8,0:2:0:0:
25,132,23857,1,0,0:2:0:0:
440,30,23992,2,0,P|460:81|445:145,1,107.999996704102,2|0,3:2|0:2,0:2:0:0:
253,355,24261,1,8,0:2:0:0:
178,30,24395,1,2,0:2:0:0:
92,299,24530,5,2,3:2:0:0:
416,299,24664,2,0,P|436:244|410:169,1,107.999996704102,2|8,0:2|0:2,0:2:0:0:
176,28,24933,1,0,0:2:0:0:
184,352,25068,1,2,3:2:0:0:
336,36,25202,1,0,0:2:0:0:
299,335,25337,1,10,0:2:0:0:
30,37,25471,1,10,0:2:0:0:
256,189,26144,5,8,0:2:0:0:
256,189,26413,1,8,0:2:0:0:
87,352,26682,6,0,P|36:310|20:247,1,107.999996704102,0|0,3:2|0:2,3:2:0:0:
276,332,26951,2,0,P|315:291|334:230,1,107.999996704102,8|0,0:2|0:2,0:2:0:0:
183,137,27220,2,0,P|145:185|201:331,1,215.999993408203,0|8,3:2|0:2,0:2:0:0:
416,258,27624,1,0,0:2:0:0:
297,60,27758,5,2,3:2:0:0:
236,267,27893,1,2,0:2:0:0:
153,40,28027,1,10,0:2:0:0:
323,222,28162,1,2,0:2:0:0:
231,13,28296,1,2,3:2:0:0:
156,264,28431,1,2,0:2:0:0:
442,107,28566,1,10,0:2:0:0:
442,107,28835,6,0,P|458:158|436:230,1,107.999996704102,0|0,3:2|0:2,0:2:0:0:
249,45,29104,2,0,P|206:69|178:125,1,107.999996704102,8|0,0:2|0:2,0:2:0:0:
245,346,29373,2,0,P|315:328|359:197,1,215.999993408203,0|8,3:2|0:2,0:2:0:0:
93,235,29776,1,0,0:2:0:0:
300,154,29911,5,2,3:2:0:0:
62,156,30045,1,2,0:2:0:0:
261,236,30180,1,10,0:2:0:0:
34,263,30314,1,2,0:2:0:0:
212,160,30449,1,2,3:2:0:0:
12,87,30583,1,2,0:2:0:0:
312,116,30718,1,10,0:2:0:0:
312,116,30987,6,0,P|327:64|310:10,1,107.999996704102,0|0,3:2|0:2,0:2:0:0:
162,236,31256,2,0,P|96:221|62:190,1,107.999996704102,8|0,0:2|0:2,0:2:0:0:
312,116,31525,2,0,P|411:154|426:261,1,215.999993408203,0|8,3:2|0:2,0:2:0:0:
254,339,31929,1,0,0:2:0:0:
164,243,32063,5,2,3:2:0:0:
411,273,32198,1,2,0:2:0:0:
186,163,32332,1,10,0:2:0:0:
424,193,32467,1,2,0:2:0:0:
210,303,32601,1,2,3:2:0:0:
390,118,32736,1,2,0:2:0:0:
90,233,32870,1,10,0:2:0:0:
90,233,33139,6,0,P|55:183|54:128,1,107.999996704102,0|0,3:2|0:2,0:2:0:0:
299,301,33409,2,0,P|350:267|382:222,1,107.999996704102,8|0,0:2|0:2,0:2:0:0:
183,34,33678,2,0,P|168:135|254:190,1,215.999993408203,0|8,3:2|0:2,0:2:0:0:
494,144,34081,1,0,0:2:0:0:
257,81,34216,5,2,3:2:0:0:
230,295,34350,1,2,0:2:0:0:
185,39,34485,1,10,0:2:0:0:
301,330,34619,1,2,0:2:0:0:
298,11,34754,1,2,3:2:0:0:
187,364,34888,1,2,0:2:0:0:
512,190,35023,1,10,0:2:0:0:
0,219,35292,5,10,0:2:0:0:
508,112,35426,1,8,0:2:0:0:
1,144,35561,1,10,0:2:0:0:
506,275,35696,1,8,0:2:0:0:
3,55,35830,1,10,0:2:0:0:
512,190,35965,1,8,0:2:0:0:
1,144,36099,1,10,0:2:0:0:
511,93,36234,1,8,0:2:0:0:
3,304,36368,5,10,0:2:0:0:
511,253,36503,1,8,0:2:0:0:
1,227,36637,1,10,0:2:0:0:
510,166,36772,1,8,0:2:0:0:
0,33,36906,1,10,0:2:0:0:
509,157,37041,1,8,0:2:0:0:
3,142,37175,1,10,0:2:0:0:
511,75,37310,1,8,0:2:0:0:
1,304,37444,5,10,0:2:0:0:
510,251,37579,1,8,0:2:0:0:
2,226,37713,1,10,0:2:0:0:
506,328,37848,1,8,0:2:0:0:
1,70,37983,1,10,0:2:0:0:
510,155,38117,1,8,0:2:0:0:
1,346,38252,5,10,0:2:0:0:
511,184,38386,1,10,0:2:0:0:
1,38,38521,1,10,0:2:0:0:
