osu file format v14

[General]
AudioFilename: audio.ogg
AudioLeadIn: 0
PreviewTime: 18072
Countdown: 0
SampleSet: Soft
StackLeniency: 0.7
Mode: 0
LetterboxInBreaks: 0
WidescreenStoryboard: 1

[Editor]
DistanceSpacing: 0.5
BeatDivisor: 2
GridSize: 16
TimelineZoom: 1.7

[Metadata]
Title:Brazil
TitleUnicode:Brazil
Artist:Apollo
ArtistUnicode:Apollo
Creator:moonpoint
Version:AJT's Extra
Source:
Tags:wire instrumental brazil2 electronic 8 bit remix chiptune plasma kuki1537 AJT plambob app midwest fatfan kolek browiec fieryrage
BeatmapID:4415583
BeatmapSetID:2104327

[Difficulty]
HPDrainRate:7
CircleSize:3
OverallDifficulty:9
ApproachRate:9
SliderMultiplier:1.8
SliderTickRate:1

[Events]
//Background and Video events
0,0,"salute.jpg",0,0
//Break Periods
//Storyboard Layer 0 (Background)
//Storyboard Layer 1 (Fail)
//Storyboard Layer 2 (Pass)
//Storyboard Layer 3 (Foreground)
//Storyboard Layer 4 (Overlay)
//Storyboard Sound Samples

[TimingPoints]
853,269.058295964126,4,2,1,80,1,0
853,-83.3333333333333,4,2,1,80,0,0
18072,-86.9565217391304,4,2,1,80,0,0
26144,-83.3333333333333,4,2,1,80,0,0

[Colours]
Combo1 : 48,174,131
Combo2 : 169,84,84
Combo3 : 239,208,69
Combo4 : 216,216,216

[HitObjects]
512,192,853,5,0,3:2:0:0:
0,192,1122,1,8,0:2:0:0:
512,192,1391,1,0,3:2:0:0:
256,192,1660,1,8,0:2:0:0:
256,192,1794,1,0,0:2:0:0:
128,320,1929,5,2,3:2:0:0:
128,192,2063,1,2,0:2:0:0:
128,64,2198,1,10,0:2:0:0:
256,64,2332,1,2,0:2:0:0:
384,64,2467,1,2,3:2:0:0:
384,192,2601,1,2,0:2:0:0:
384,320,2736,1,10,0:2:0:0:
0,192,3005,5,0,3:2:0:0:
512,192,3274,1,8,0:2:0:0:
0,192,3543,1,0,3:2:0:0:
256,192,3812,1,8,0:2:0:0:
256,192,3946,1,0,0:2:0:0:
384,320,4081,5,2,3:2:0:0:
384,192,4215,1,2,0:2:0:0:
384,64,4350,1,10,0:2:0:0:
256,64,4484,1,2,0:2:0:0:
128,64,4619,1,2,3:2:0:0:
128,192,4753,1,2,0:2:0:0:
128,320,4888,1,10,0:2:0:0:
0,0,5157,5,0,3:2:0:0:
256,384,5426,1,8,0:2:0:0:
512,0,5695,1,0,3:2:0:0:
256,192,5965,1,8,0:2:0:0:
256,192,6099,1,0,0:2:0:0:
135,192,6233,5,2,3:2:0:0:
195,88,6369,1,2,0:2:0:0:
316,88,6503,1,10,0:2:0:0:
376,192,6638,1,2,0:2:0:0:
316,297,6771,1,2,3:2:0:0:
195,297,6907,1,2,0:2:0:0:
135,192,7041,1,10,0:2:0:0:
0,384,7310,5,0,3:2:0:0:
256,0,7579,1,8,0:2:0:0:
512,384,7848,1,0,3:2:0:0:
256,192,8118,1,8,0:2:0:0:
256,192,8252,1,0,0:2:0:0:
135,192,8386,5,2,3:2:0:0:
195,296,8522,1,2,0:2:0:0:
316,296,8656,1,10,0:2:0:0:
376,192,8791,1,2,0:2:0:0:
316,87,8924,1,2,3:2:0:0:
195,87,9060,1,2,0:2:0:0:
135,192,9194,1,10,0:2:0:0:
195,296,9328,1,2,0:2:0:0:
40,249,9462,6,0,P|20:199|25:146,1,107.999996704102,2|0,3:2|0:2,0:2:0:0:
256,0,9731,1,10,0:2:0:0:
486,145,9866,2,0,P|490:199|471:249,1,107.999996704102,2|0,0:2|3:2,0:2:0:0:
256,384,10135,1,2,0:2:0:0:
160,192,10269,1,8,0:2:0:0:
256,0,10404,1,2,0:2:0:0:
352,192,10539,1,2,3:2:0:0:
487,238,10673,6,0,P|491:184|471:134,1,107.999996704102,2|8,0:2|0:2,0:2:0:0:
40,134,10942,2,0,P|20:184|25:238,1,107.999996704102,2|0,0:2|3:2,0:2:0:0:
256,384,11211,1,2,0:2:0:0:
160,192,11345,1,8,0:2:0:0:
256,384,11480,1,2,0:2:0:0:
352,192,11615,1,2,3:2:0:0:
75,0,11749,6,0,P|71:107|118:206,1,215.999993408203,2|2,0:2|0:2,0:2:0:0:
395,204,12153,2,0,P|440:106|437:0,1,215.999993408203,0|10,3:0|0:2,0:0:0:0:
256,0,12557,1,2,0:2:0:0:
208,144,12691,5,2,3:2:0:0:
304,240,12825,1,2,0:2:0:0:
256,89,12960,1,8,0:2:0:0:
256,292,13094,1,2,0:2:0:0:
328,119,13229,1,0,3:2:0:0:
184,264,13363,1,2,0:2:0:0:
409,192,13498,1,8,0:2:0:0:
104,192,13632,1,2,0:2:0:0:
328,264,13767,6,0,P|375:290|442:293,2,107.999996704102,2|0|8,3:2|0:2|0:2,0:2:0:0:
184,120,14171,2,0,P|136:93|69:90,1,107.999996704102,2|0,0:2|3:2,0:2:0:0:
256,384,14440,1,2,0:2:0:0:
328,120,14574,2,0,P|354:72|357:5,1,107.999996704102,10|2,0:2|0:2,0:0:0:0:
147,300,14844,5,2,3:2:0:0:
364,300,14978,1,2,0:0:0:0:
364,83,15113,1,8,0:2:0:0:
147,83,15247,1,2,0:2:0:0:
147,83,15314,1,2,0:2:0:0:
147,83,15382,1,0,3:2:0:0:
364,83,15516,1,2,0:2:0:0:
364,300,15650,1,8,0:2:0:0:
147,300,15785,1,2,0:2:0:0:
0,192,15920,6,0,P|44:166|105:165,1,107.999996704102,2|0,3:2|0:2,0:2:0:0:
512,192,16189,2,0,P|468:166|407:165,1,107.999996704102,10|0,0:2|0:2,0:2:0:0:
256,384,16458,1,2,3:2:0:0:
256,384,16727,1,10,0:2:0:0:
256,192,16861,1,2,0:2:0:0:
121,328,16996,5,0,3:2:0:0:
392,328,17131,1,2,0:2:0:0:
392,56,17265,1,8,0:2:0:0:
121,57,17400,1,2,0:2:0:0:
391,56,17534,5,0,3:2:0:0:
120,56,17669,1,2,0:2:0:0:
120,328,17803,1,8,0:2:0:0:
391,327,17938,1,2,0:2:0:0:
256,0,18072,6,0,L|346:62,1,103.5,2|0,3:2|0:2,0:2:0:0:
79,184,18341,1,10,0:2:0:0:
142,267,18476,1,2,0:2:0:0:
392,56,18610,6,0,L|412:163,1,103.5,2|0,3:2|0:2,0:2:0:0:
137,61,18879,1,8,0:2:0:0:
123,164,19014,1,2,0:2:0:0:
448,192,19148,5,2,3:2:0:0:
448,192,19283,2,0,L|386:282,1,103.5,2|8,0:2|0:2,0:2:0:0:
265,15,19552,1,0,0:2:0:0:
182,78,19687,1,2,3:2:0:0:
388,73,19956,1,10,0:2:0:0:
285,59,20090,1,2,0:2:0:0:
392,327,20225,6,1,L|285:347,1,103.5,2|2,3:2|0:2,0:0:0:0:
388,73,20494,1,8,0:2:0:0:
284,59,20628,1,0,0:2:0:0:
257,383,20763,2,1,L|167:322,1,103.5,2|0,3:2|0:2,0:0:0:0:
434,201,21032,1,10,0:2:0:0:
370,117,21166,1,2,0:2:0:0:
121,327,21301,2,1,L|101:221,1,103.5,0|0,3:2|0:0,0:0:0:0:
375,324,21570,5,10,0:2:0:0:
375,324,21839,5,10,0:2:0:0:
375,324,22108,5,10,0:2:0:0:
256,0,22377,6,0,L|166:62,1,103.5,2|0,3:2|0:2,0:2:0:0:
433,184,22646,1,10,0:2:0:0:
370,267,22781,1,2,0:2:0:0:
120,56,22915,6,0,L|100:163,1,103.5,2|0,3:2|0:2,0:2:0:0:
375,61,23184,1,8,0:2:0:0:
389,164,23319,1,2,0:2:0:0:
64,192,23453,5,2,3:2:0:0:
64,192,23588,2,1,L|126:282,1,103.5,2|8,0:2|0:2,0:0:0:0:
247,15,23857,1,0,0:2:0:0:
330,78,23992,1,2,3:2:0:0:
125,73,24261,1,8,0:2:0:0:
228,59,24395,1,2,0:0:0:0:
120,327,24530,6,1,L|227:347,1,103.5,2|2,3:2|0:2,0:0:0:0:
125,73,24799,1,8,0:2:0:0:
228,59,24933,1,0,0:2:0:0:
256,383,25068,2,1,L|346:322,1,103.5,2|0,3:2|0:2,0:0:0:0:
512,384,25337,5,10,0:2:0:0:
64,272,25471,1,10,0:2:0:0:
64,272,26144,5,8,0:2:0:0:
64,272,26413,1,8,0:2:0:0:
0,192,26682,5,0,3:2:0:0:
512,192,26951,1,8,0:2:0:0:
0,192,27220,1,0,3:2:0:0:
256,192,27489,1,8,0:2:0:0:
256,192,27623,1,0,0:2:0:0:
384,64,27758,5,2,3:2:0:0:
128,192,27892,1,2,0:2:0:0:
384,320,28027,1,10,0:2:0:0:
128,320,28161,1,2,0:2:0:0:
384,192,28296,1,2,3:2:0:0:
128,64,28430,1,2,0:2:0:0:
256,320,28565,1,10,0:2:0:0:
512,192,28834,5,0,3:2:0:0:
0,192,29103,1,8,0:2:0:0:
512,192,29372,1,0,3:2:0:0:
256,192,29641,1,8,0:2:0:0:
256,192,29775,1,0,0:2:0:0:
128,64,29911,5,2,3:2:0:0:
384,192,30045,1,2,0:2:0:0:
128,320,30180,1,10,0:2:0:0:
384,320,30314,1,2,0:2:0:0:
128,192,30449,1,2,3:2:0:0:
384,64,30583,1,2,0:2:0:0:
256,320,30718,1,10,0:2:0:0:
512,384,30986,5,0,3:2:0:0:
256,0,31255,1,8,0:2:0:0:
0,384,31524,1,0,3:2:0:0:
256,192,31794,1,8,0:2:0:0:
256,192,31928,1,0,0:2:0:0:
407,192,32062,5,2,3:2:0:0:
106,192,32198,1,2,0:2:0:0:
332,322,32332,1,10,0:2:0:0:
181,60,32467,1,2,0:2:0:0:
181,322,32600,1,2,3:2:0:0:
332,60,32736,1,2,0:2:0:0:
256,192,32870,1,10,0:2:0:0:
512,0,33139,5,0,3:2:0:0:
256,384,33408,1,8,0:2:0:0:
0,0,33677,1,0,3:2:0:0:
256,192,33947,1,8,0:2:0:0:
256,192,34081,1,0,0:2:0:0:
407,192,34216,5,2,3:2:0:0:
106,192,34350,1,2,0:2:0:0:
332,62,34486,1,10,0:2:0:0:
181,323,34619,1,2,0:2:0:0:
181,62,34754,1,2,3:2:0:0:
332,323,34888,1,2,0:2:0:0:
256,192,35024,1,10,0:2:0:0:
213,149,35292,5,10,0:2:0:0:
298,234,35426,1,8,0:2:0:0:
256,101,35561,1,10,0:2:0:0:
256,281,35695,1,8,0:2:0:0:
319,128,35830,1,10,0:2:0:0:
192,255,35964,1,8,0:2:0:0:
391,192,36099,1,10,0:2:0:0:
121,192,36233,1,8,0:2:0:0:
319,255,36368,1,10,0:2:0:0:
192,128,36502,1,8,0:2:0:0:
256,326,36637,1,10,0:2:0:0:
256,56,36771,1,8,0:2:0:0:
160,287,36906,1,10,0:2:0:0:
353,96,37040,1,8,0:2:0:0:
53,192,37175,1,10,0:2:0:0:
459,192,37309,1,8,0:2:0:0:
176,110,37444,1,10,0:2:0:0:
337,271,37578,1,8,0:2:0:0:
256,21,37713,1,10,0:2:0:0:
256,361,37847,1,8,0:2:0:0:
377,70,37982,1,10,0:2:0:0:
136,311,38116,1,8,0:2:0:0:
511,192,38251,1,10,0:2:0:0:
1,192,38385,1,10,0:2:0:0:
256,192,38521,5,10,0:2:0:0:
