osu file format v14

[General]
AudioFilename: audio.ogg
AudioLeadIn: 0
PreviewTime: 18076
Countdown: 0
SampleSet: Soft
StackLeniency: 0.7
Mode: 3
LetterboxInBreaks: 0
SpecialStyle: 0
WidescreenStoryboard: 0

[Editor]
DistanceSpacing: 0.5
BeatDivisor: 2
GridSize: 32
TimelineZoom: 1.9

[Metadata]
Title:Brazil
TitleUnicode:Brazil
Artist:Apollo
ArtistUnicode:Apollo
Creator:Lumpita
Version:Insane
Source:
Tags:cj chordjack chord jack wire instrumental electronic 8-bit 8 bit 8bit remix cover chiptune snomi vincus [-omni-] -ryu- mrowswares
BeatmapID:4461842
BeatmapSetID:2123184

[Difficulty]
HPDrainRate:8
CircleSize:4
OverallDifficulty:8.3
ApproachRate:9.6
SliderMultiplier:1.2
SliderTickRate:1

[Events]
//Background and Video events
0,0,"salute.jpg",0,0
//Break Periods
//Storyboard Layer 0 (Background)
//Storyboard Layer 1 (Fail)
//Storyboard Layer 2 (Pass)
//Storyboard Layer 3 (Foreground)
//Storyboard Layer 4 (Overlay)
//Storyboard Sound Samples

[TimingPoints]
857,269.058295964126,4,2,1,60,1,0
18076,-100,4,2,1,60,0,1
21305,-100,4,2,1,60,0,0
22381,-100,4,2,1,60,0,1
25475,-100,4,2,1,60,0,0
35296,-100,4,2,1,60,0,1
38525,-100,4,2,1,60,0,0

[HitObjects]
192,192,857,5,2,0:0:0:0:
320,192,857,128,0,1126:0:0:0:0:
64,192,1126,128,8,1395:0:0:0:0:
448,192,1126,1,0,0:0:0:0:
192,192,1395,128,2,1664:0:0:0:0:
320,192,1395,1,0,0:0:0:0:
64,192,1664,1,8,0:0:0:0:
320,192,1664,1,0,0:0:0:0:
448,192,1664,1,0,0:0:0:0:
192,192,1798,1,0,0:0:0:0:
64,192,1933,1,2,0:0:0:0:
192,192,1933,1,0,0:0:0:0:
320,192,1933,1,0,0:0:0:0:
448,192,2067,1,0,0:0:0:0:
64,192,2202,1,8,0:0:0:0:
320,192,2202,1,0,0:0:0:0:
448,192,2202,1,0,0:0:0:0:
192,192,2336,1,0,0:0:0:0:
64,192,2471,1,2,0:0:0:0:
192,192,2471,1,0,0:0:0:0:
448,192,2471,1,0,0:0:0:0:
320,192,2605,1,0,0:0:0:0:
192,192,2740,1,8,0:0:0:0:
320,192,2740,1,0,0:0:0:0:
448,192,2740,1,0,0:0:0:0:
64,192,2874,1,0,0:0:0:0:
64,192,3009,1,2,0:0:0:0:
192,192,3009,128,0,3278:0:0:0:0:
320,192,3278,1,8,0:0:0:0:
448,192,3278,128,0,3547:0:0:0:0:
64,192,3547,128,2,3816:0:0:0:0:
192,192,3547,1,0,0:0:0:0:
192,192,3816,1,8,0:0:0:0:
320,192,3816,1,0,0:0:0:0:
448,192,3816,1,0,0:0:0:0:
64,192,3951,1,0,0:0:0:0:
64,192,4085,1,2,0:0:0:0:
320,192,4085,1,0,0:0:0:0:
448,192,4085,1,0,0:0:0:0:
192,192,4220,1,0,0:0:0:0:
64,192,4354,1,8,0:0:0:0:
192,192,4354,1,0,0:0:0:0:
320,192,4354,1,0,0:0:0:0:
448,192,4489,1,0,0:0:0:0:
64,192,4623,1,2,0:0:0:0:
320,192,4623,1,0,0:0:0:0:
448,192,4623,1,0,0:0:0:0:
192,192,4758,1,0,0:0:0:0:
64,192,4892,1,8,0:0:0:0:
192,192,4892,1,0,0:0:0:0:
320,192,4892,1,0,0:0:0:0:
448,192,5027,1,0,0:0:0:0:
192,192,5161,128,2,5430:0:0:0:0:
448,192,5161,1,0,0:0:0:0:
64,192,5430,128,8,5700:0:0:0:0:
320,192,5430,1,0,0:0:0:0:
192,192,5700,1,2,0:0:0:0:
448,192,5700,128,0,5969:0:0:0:0:
64,192,5969,1,8,0:0:0:0:
192,192,5969,1,0,0:0:0:0:
320,192,5969,1,0,0:0:0:0:
448,192,6103,1,0,0:0:0:0:
192,192,6238,1,2,0:0:0:0:
320,192,6238,1,0,0:0:0:0:
448,192,6238,1,0,0:0:0:0:
64,192,6372,1,0,0:0:0:0:
64,192,6507,1,8,0:0:0:0:
192,192,6507,1,0,0:0:0:0:
448,192,6507,1,0,0:0:0:0:
320,192,6641,1,0,0:0:0:0:
64,192,6776,1,2,0:0:0:0:
320,192,6776,1,0,0:0:0:0:
448,192,6776,1,0,0:0:0:0:
192,192,6910,1,0,0:0:0:0:
64,192,7045,1,8,0:0:0:0:
192,192,7045,1,0,0:0:0:0:
448,192,7045,1,0,0:0:0:0:
320,192,7179,1,0,0:0:0:0:
320,192,7314,1,2,0:0:0:0:
448,192,7314,128,0,7583:0:0:0:0:
64,192,7583,128,8,7852:0:0:0:0:
192,192,7583,1,0,0:0:0:0:
192,192,7852,128,2,8121:0:0:0:0:
320,192,7852,1,0,0:0:0:0:
64,192,8121,1,8,0:0:0:0:
320,192,8121,1,0,0:0:0:0:
448,192,8121,1,0,0:0:0:0:
192,192,8256,1,0,0:0:0:0:
192,192,8390,1,2,0:0:0:0:
320,192,8390,1,0,0:0:0:0:
448,192,8390,1,0,0:0:0:0:
64,192,8525,1,0,0:0:0:0:
64,192,8659,1,8,0:0:0:0:
320,192,8659,1,0,0:0:0:0:
448,192,8659,1,0,0:0:0:0:
320,192,8794,1,0,0:0:0:0:
64,192,8928,1,2,0:0:0:0:
192,192,8928,1,0,0:0:0:0:
448,192,8928,1,0,0:0:0:0:
320,192,9063,1,0,0:0:0:0:
192,192,9197,1,8,0:0:0:0:
320,192,9197,1,0,0:0:0:0:
448,192,9197,1,0,0:0:0:0:
64,192,9332,128,0,9466:0:0:0:0:
320,192,9466,1,2,0:0:0:0:
448,192,9466,128,0,9601:0:0:0:0:
64,192,9735,1,8,0:0:0:0:
192,192,9735,128,0,9870:0:0:0:0:
320,192,9870,128,0,10004:0:0:0:0:
64,192,10004,1,2,0:0:0:0:
448,192,10004,1,0,0:0:0:0:
192,192,10139,1,0,0:0:0:0:
192,192,10274,1,8,0:0:0:0:
448,192,10274,1,0,0:0:0:0:
64,192,10408,128,0,10543:0:0:0:0:
192,192,10543,1,2,0:0:0:0:
320,192,10543,128,0,10677:0:0:0:0:
448,192,10677,128,0,10812:0:0:0:0:
64,192,10812,1,8,0:0:0:0:
320,192,10812,1,0,0:0:0:0:
192,192,10946,128,0,11081:0:0:0:0:
320,192,11081,1,2,0:0:0:0:
448,192,11081,1,0,0:0:0:0:
320,192,11215,1,0,0:0:0:0:
64,192,11350,1,8,0:0:0:0:
448,192,11350,1,0,0:0:0:0:
320,192,11484,128,0,11619:0:0:0:0:
64,192,11619,1,2,0:0:0:0:
192,192,11619,128,0,11753:0:0:0:0:
448,192,11753,128,0,11888:0:0:0:0:
64,192,11888,128,8,12022:0:0:0:0:
192,192,11888,1,0,0:0:0:0:
320,192,12022,128,0,12157:0:0:0:0:
192,192,12157,1,2,0:0:0:0:
448,192,12157,1,0,0:0:0:0:
64,192,12291,1,0,0:0:0:0:
320,192,12426,1,8,0:0:0:0:
448,192,12426,128,0,12561:0:0:0:0:
192,192,12561,128,0,12695:0:0:0:0:
64,192,12695,128,2,12964:0:0:0:0:
320,192,12695,1,0,0:0:0:0:
320,192,12964,1,8,0:0:0:0:
448,192,12964,1,0,0:0:0:0:
192,192,13099,1,0,0:0:0:0:
64,192,13233,1,2,0:0:0:0:
448,192,13233,1,0,0:0:0:0:
64,192,13368,1,0,0:0:0:0:
192,192,13502,1,8,0:0:0:0:
320,192,13502,1,0,0:0:0:0:
448,192,13637,128,0,13771:0:0:0:0:
64,192,13771,128,2,14040:0:0:0:0:
192,192,13771,1,0,0:0:0:0:
192,192,14040,1,8,0:0:0:0:
320,192,14040,1,0,0:0:0:0:
448,192,14175,128,0,14309:0:0:0:0:
64,192,14309,1,2,0:0:0:0:
192,192,14309,128,0,14444:0:0:0:0:
320,192,14444,128,0,14578:0:0:0:0:
64,192,14578,128,8,14713:0:0:0:0:
448,192,14578,1,0,0:0:0:0:
320,192,14713,128,0,14848:0:0:0:0:
192,192,14848,1,2,0:0:0:0:
448,192,14848,128,0,15117:0:0:0:0:
64,192,15117,1,8,0:0:0:0:
192,192,15117,1,0,0:0:0:0:
320,192,15251,128,0,15386:0:0:0:0:
64,192,15386,1,2,0:0:0:0:
192,192,15386,1,0,0:0:0:0:
192,192,15520,1,0,0:0:0:0:
320,192,15655,1,8,0:0:0:0:
448,192,15655,1,0,0:0:0:0:
64,192,15789,128,0,15924:0:0:0:0:
192,192,15924,128,2,16058:0:0:0:0:
320,192,15924,1,0,0:0:0:0:
64,192,16193,1,8,0:0:0:0:
320,192,16193,128,0,16327:0:0:0:0:
64,192,16462,1,2,0:0:0:0:
448,192,16462,128,0,16596:0:0:0:0:
320,192,16596,1,0,0:0:0:0:
64,192,16731,128,8,16865:0:0:0:0:
192,192,16731,1,0,0:0:0:0:
448,192,16865,128,0,17000:0:0:0:0:
192,192,17000,1,2,0:0:0:0:
320,192,17000,128,0,17269:0:0:0:0:
64,192,17269,1,8,0:0:0:0:
192,192,17269,1,0,0:0:0:0:
448,192,17404,1,0,0:0:0:0:
64,192,17538,1,2,0:0:0:0:
192,192,17538,1,0,0:0:0:0:
192,192,17673,1,0,0:0:0:0:
320,192,17807,1,8,0:0:0:0:
448,192,17807,1,0,0:0:0:0:
320,192,17942,1,0,0:0:0:0:
64,192,18076,1,2,0:0:0:0:
192,192,18076,1,0,0:0:0:0:
448,192,18076,1,0,0:0:0:0:
64,192,18345,1,8,0:0:0:0:
320,192,18345,1,0,0:0:0:0:
448,192,18345,1,0,0:0:0:0:
320,192,18480,1,0,0:0:0:0:
448,192,18480,1,0,0:0:0:0:
64,192,18614,1,2,0:0:0:0:
192,192,18614,1,0,0:0:0:0:
448,192,18614,1,0,0:0:0:0:
320,192,18749,1,0,0:0:0:0:
64,192,18883,1,8,0:0:0:0:
192,192,18883,1,0,0:0:0:0:
448,192,18883,1,0,0:0:0:0:
64,192,19018,1,0,0:0:0:0:
320,192,19018,1,0,0:0:0:0:
192,192,19152,1,2,0:0:0:0:
320,192,19152,1,0,0:0:0:0:
448,192,19152,1,0,0:0:0:0:
64,192,19287,1,0,0:0:0:0:
320,192,19287,1,0,0:0:0:0:
64,192,19422,1,8,0:0:0:0:
192,192,19422,1,0,0:0:0:0:
448,192,19422,1,0,0:0:0:0:
320,192,19556,1,0,0:0:0:0:
64,192,19691,1,2,0:0:0:0:
192,192,19691,1,0,0:0:0:0:
448,192,19691,1,0,0:0:0:0:
320,192,19825,1,0,0:0:0:0:
64,192,19960,1,8,0:0:0:0:
192,192,19960,1,0,0:0:0:0:
448,192,19960,1,0,0:0:0:0:
320,192,20094,1,0,0:0:0:0:
448,192,20094,1,0,0:0:0:0:
64,192,20229,1,2,0:0:0:0:
192,192,20229,1,0,0:0:0:0:
320,192,20229,1,0,0:0:0:0:
320,192,20363,1,0,0:0:0:0:
448,192,20363,1,0,0:0:0:0:
64,192,20498,1,8,0:0:0:0:
192,192,20498,1,0,0:0:0:0:
448,192,20498,1,0,0:0:0:0:
320,192,20632,1,0,0:0:0:0:
64,192,20767,1,2,0:0:0:0:
192,192,20767,1,0,0:0:0:0:
448,192,20767,1,0,0:0:0:0:
320,192,20901,1,0,0:0:0:0:
64,192,21036,1,8,0:0:0:0:
192,192,21036,1,0,0:0:0:0:
448,192,21036,1,0,0:0:0:0:
64,192,21170,1,0,0:0:0:0:
192,192,21170,1,0,0:0:0:0:
192,192,21305,1,2,0:0:0:0:
320,192,21305,1,0,0:0:0:0:
192,192,21574,1,8,0:0:0:0:
448,192,21574,128,0,21843:0:0:0:0:
64,192,21843,128,8,22112:0:0:0:0:
320,192,21843,1,0,0:0:0:0:
192,192,22112,128,8,22381:0:0:0:0:
448,192,22112,1,0,0:0:0:0:
64,192,22381,1,2,0:0:0:0:
320,192,22381,1,0,0:0:0:0:
448,192,22381,1,0,0:0:0:0:
64,192,22650,1,8,0:0:0:0:
192,192,22650,1,0,0:0:0:0:
448,192,22650,1,0,0:0:0:0:
64,192,22785,1,0,0:0:0:0:
192,192,22785,1,0,0:0:0:0:
64,192,22919,1,2,0:0:0:0:
320,192,22919,1,0,0:0:0:0:
448,192,22919,1,0,0:0:0:0:
192,192,23054,1,0,0:0:0:0:
64,192,23188,1,8,0:0:0:0:
320,192,23188,1,0,0:0:0:0:
448,192,23188,1,0,0:0:0:0:
192,192,23323,1,0,0:0:0:0:
448,192,23323,1,0,0:0:0:0:
64,192,23457,1,2,0:0:0:0:
192,192,23457,1,0,0:0:0:0:
320,192,23457,1,0,0:0:0:0:
192,192,23592,1,0,0:0:0:0:
448,192,23592,1,0,0:0:0:0:
64,192,23726,1,8,0:0:0:0:
320,192,23726,1,0,0:0:0:0:
448,192,23726,1,0,0:0:0:0:
192,192,23861,1,0,0:0:0:0:
64,192,23996,1,2,0:0:0:0:
320,192,23996,1,0,0:0:0:0:
448,192,23996,1,0,0:0:0:0:
192,192,24130,1,0,0:0:0:0:
64,192,24265,1,8,0:0:0:0:
320,192,24265,1,0,0:0:0:0:
448,192,24265,1,0,0:0:0:0:
64,192,24399,1,0,0:0:0:0:
192,192,24399,1,0,0:0:0:0:
192,192,24534,1,2,0:0:0:0:
320,192,24534,1,0,0:0:0:0:
448,192,24534,1,0,0:0:0:0:
64,192,24668,1,0,0:0:0:0:
192,192,24668,1,0,0:0:0:0:
64,192,24803,1,8,0:0:0:0:
320,192,24803,1,0,0:0:0:0:
448,192,24803,1,0,0:0:0:0:
192,192,24937,1,0,0:0:0:0:
64,192,25072,1,2,0:0:0:0:
320,192,25072,1,0,0:0:0:0:
448,192,25072,1,0,0:0:0:0:
192,192,25206,1,0,0:0:0:0:
64,192,25341,1,8,0:0:0:0:
320,192,25341,1,0,0:0:0:0:
448,192,25341,1,0,0:0:0:0:
192,192,25475,1,8,0:0:0:0:
448,192,25475,1,0,0:0:0:0:
64,192,26148,1,8,0:0:0:0:
448,192,26148,1,0,0:0:0:0:
64,192,26417,1,8,0:0:0:0:
448,192,26417,1,0,0:0:0:0:
192,192,26686,128,2,26955:0:0:0:0:
320,192,26686,1,0,0:0:0:0:
448,192,26686,1,0,0:0:0:0:
64,192,26955,1,8,0:0:0:0:
448,192,26955,128,0,27224:0:0:0:0:
192,192,27224,1,2,0:0:0:0:
320,192,27224,128,0,27493:0:0:0:0:
64,192,27493,1,8,0:0:0:0:
192,192,27493,1,0,0:0:0:0:
448,192,27493,1,0,0:0:0:0:
320,192,27628,1,0,0:0:0:0:
192,192,27762,1,2,0:0:0:0:
320,192,27762,1,0,0:0:0:0:
448,192,27762,1,0,0:0:0:0:
64,192,27897,1,0,0:0:0:0:
64,192,28031,1,8,0:0:0:0:
192,192,28031,1,0,0:0:0:0:
448,192,28031,1,0,0:0:0:0:
320,192,28166,1,0,0:0:0:0:
64,192,28300,1,2,0:0:0:0:
320,192,28300,1,0,0:0:0:0:
448,192,28300,1,0,0:0:0:0:
192,192,28435,1,0,0:0:0:0:
64,192,28570,1,8,0:0:0:0:
192,192,28570,1,0,0:0:0:0:
320,192,28570,1,0,0:0:0:0:
448,192,28704,1,0,0:0:0:0:
192,192,28839,1,2,0:0:0:0:
320,192,28839,128,0,29108:0:0:0:0:
448,192,28839,1,0,0:0:0:0:
64,192,29108,1,8,0:0:0:0:
192,192,29108,128,0,29377:0:0:0:0:
320,192,29377,1,2,0:0:0:0:
448,192,29377,128,0,29646:0:0:0:0:
64,192,29646,1,8,0:0:0:0:
192,192,29646,1,0,0:0:0:0:
320,192,29646,1,0,0:0:0:0:
448,192,29780,1,0,0:0:0:0:
64,192,29915,1,2,0:0:0:0:
192,192,29915,1,0,0:0:0:0:
448,192,29915,1,0,0:0:0:0:
320,192,30049,1,0,0:0:0:0:
64,192,30184,1,8,0:0:0:0:
320,192,30184,1,0,0:0:0:0:
448,192,30184,1,0,0:0:0:0:
192,192,30318,1,0,0:0:0:0:
64,192,30453,1,2,0:0:0:0:
192,192,30453,1,0,0:0:0:0:
320,192,30453,1,0,0:0:0:0:
448,192,30587,1,0,0:0:0:0:
192,192,30722,1,8,0:0:0:0:
320,192,30722,1,0,0:0:0:0:
448,192,30722,1,0,0:0:0:0:
64,192,30857,1,0,0:0:0:0:
64,192,30991,1,2,0:0:0:0:
192,192,30991,128,0,31260:0:0:0:0:
320,192,30991,1,0,0:0:0:0:
320,192,31260,1,8,0:0:0:0:
448,192,31260,128,0,31529:0:0:0:0:
64,192,31529,128,2,31798:0:0:0:0:
192,192,31529,1,0,0:0:0:0:
192,192,31798,1,8,0:0:0:0:
320,192,31798,1,0,0:0:0:0:
448,192,31798,1,0,0:0:0:0:
64,192,31933,1,0,0:0:0:0:
64,192,32067,1,2,0:0:0:0:
192,192,32067,1,0,0:0:0:0:
320,192,32067,1,0,0:0:0:0:
448,192,32202,1,0,0:0:0:0:
64,192,32336,1,8,0:0:0:0:
320,192,32336,1,0,0:0:0:0:
448,192,32336,1,0,0:0:0:0:
192,192,32471,1,0,0:0:0:0:
64,192,32605,1,2,0:0:0:0:
192,192,32605,1,0,0:0:0:0:
448,192,32605,1,0,0:0:0:0:
320,192,32740,1,0,0:0:0:0:
192,192,32874,1,8,0:0:0:0:
320,192,32874,1,0,0:0:0:0:
448,192,32874,1,0,0:0:0:0:
64,192,33009,1,0,0:0:0:0:
64,192,33143,1,2,0:0:0:0:
320,192,33143,1,0,0:0:0:0:
448,192,33143,128,0,33413:0:0:0:0:
64,192,33413,128,8,33682:0:0:0:0:
192,192,33413,1,0,0:0:0:0:
320,192,33682,128,2,33951:0:0:0:0:
448,192,33682,1,0,0:0:0:0:
64,192,33951,1,8,0:0:0:0:
192,192,33951,1,0,0:0:0:0:
448,192,33951,1,0,0:0:0:0:
320,192,34085,1,0,0:0:0:0:
64,192,34220,1,2,0:0:0:0:
192,192,34220,1,0,0:0:0:0:
320,192,34220,1,0,0:0:0:0:
448,192,34354,1,0,0:0:0:0:
64,192,34489,1,8,0:0:0:0:
320,192,34489,1,0,0:0:0:0:
448,192,34489,1,0,0:0:0:0:
192,192,34623,1,0,0:0:0:0:
192,192,34758,1,2,0:0:0:0:
320,192,34758,1,0,0:0:0:0:
448,192,34758,1,0,0:0:0:0:
64,192,34892,1,0,0:0:0:0:
64,192,35027,1,8,0:0:0:0:
192,192,35027,1,0,0:0:0:0:
320,192,35027,1,0,0:0:0:0:
192,192,35296,1,8,0:0:0:0:
320,192,35296,1,2,0:0:0:0:
448,192,35296,1,0,0:0:0:0:
320,192,35430,1,8,0:0:0:0:
448,192,35430,1,0,0:0:0:0:
64,192,35565,1,8,0:0:0:0:
192,192,35565,1,0,0:0:0:0:
448,192,35565,1,0,0:0:0:0:
64,192,35700,1,8,0:0:0:0:
192,192,35700,1,0,0:0:0:0:
64,192,35834,1,8,0:0:0:0:
192,192,35834,1,2,0:0:0:0:
320,192,35834,1,0,0:0:0:0:
192,192,35969,1,8,0:0:0:0:
320,192,35969,1,0,0:0:0:0:
64,192,36103,1,8,0:0:0:0:
320,192,36103,1,0,0:0:0:0:
448,192,36103,1,0,0:0:0:0:
192,192,36238,1,8,0:0:0:0:
64,192,36372,1,8,0:0:0:0:
320,192,36372,1,2,0:0:0:0:
448,192,36372,1,0,0:0:0:0:
320,192,36507,1,8,0:0:0:0:
448,192,36507,1,0,0:0:0:0:
64,192,36641,1,8,0:0:0:0:
192,192,36641,1,0,0:0:0:0:
448,192,36641,1,0,0:0:0:0:
64,192,36776,1,8,0:0:0:0:
192,192,36776,1,0,0:0:0:0:
192,192,36910,1,8,0:0:0:0:
320,192,36910,1,2,0:0:0:0:
448,192,36910,1,0,0:0:0:0:
192,192,37045,1,8,0:0:0:0:
320,192,37045,1,0,0:0:0:0:
64,192,37179,1,8,0:0:0:0:
320,192,37179,1,0,0:0:0:0:
448,192,37179,1,0,0:0:0:0:
192,192,37314,1,8,0:0:0:0:
64,192,37448,1,8,0:0:0:0:
320,192,37448,1,2,0:0:0:0:
448,192,37448,1,0,0:0:0:0:
320,192,37583,1,8,0:0:0:0:
448,192,37583,1,0,0:0:0:0:
64,192,37717,1,8,0:0:0:0:
192,192,37717,1,0,0:0:0:0:
448,192,37717,1,0,0:0:0:0:
64,192,37852,1,8,0:0:0:0:
192,192,37852,1,0,0:0:0:0:
64,192,37987,1,8,0:0:0:0:
192,192,37987,1,2,0:0:0:0:
320,192,37987,1,0,0:0:0:0:
192,192,38121,1,8,0:0:0:0:
320,192,38121,1,0,0:0:0:0:
64,192,38256,1,8,0:0:0:0:
320,192,38256,1,0,0:0:0:0:
448,192,38256,1,0,0:0:0:0:
192,192,38390,1,8,0:0:0:0:
320,192,38390,1,0,0:0:0:0:
448,192,38390,1,0,0:0:0:0:
64,192,38525,1,8,0:0:0:0:
192,192,38525,1,2,0:0:0:0:
448,192,38525,1,0,0:0:0:0:
