osu file format v14

[General]
AudioFilename: reign.mp3
AudioLeadIn: 0
PreviewTime: 100372
Countdown: 0
SampleSet: Soft
StackLeniency: 1
Mode: 0
LetterboxInBreaks: 0
WidescreenStoryboard: 1

[Editor]
Bookmarks: 140444,165938,166048,181981,183465,243959,296392,299058,316403,325908
DistanceSpacing: 0.5
BeatDivisor: 4
GridSize: 4
TimelineZoom: 1.9

[Metadata]
Title:Reign of Fear
TitleUnicode:Reign of Fear
Artist:Apocalyptica
ArtistUnicode:Apocalyptica
Creator:pishifat
Version:III
Source:
Tags:cello thrash alternative metal shadowmaker shadow maker
BeatmapID:811925
BeatmapSetID:347136

[Difficulty]
HPDrainRate:7
CircleSize:3
OverallDifficulty:8.4
ApproachRate:9.2
SliderMultiplier:1.6
SliderTickRate:1

[Events]
//Background and Video events
0,0,"of.jpg",0,0
//Break Periods
2,199324,201191
//Storyboard Layer 0 (Background)
//Storyboard Layer 1 (Fail)
//Storyboard Layer 2 (Pass)
//Storyboard Layer 3 (Foreground)
//Storyboard Sound Samples

[TimingPoints]
26105,789.473684210526,4,1,2,71,1,0
78210,329.67032967033,7,3,2,45,1,0
78210,-133.333333333333,7,3,2,45,0,0
82495,-133.333333333333,7,3,2,55,0,0
82825,-133.333333333333,7,3,2,45,0,0
87111,-133.333333333333,7,3,2,55,0,0
87440,-125,7,3,2,55,0,0
95352,326.086956521739,4,3,2,45,1,0
95352,-142.857142857143,4,3,2,45,0,0
96656,-133.333333333333,4,3,2,35,0,0
97308,-125,4,3,2,45,0,0
97960,315.789473684211,4,3,2,48,1,0
97960,-117.647058823529,4,3,2,48,0,0
98591,-117.647058823529,4,3,2,50,0,0
99223,306.122448979592,4,3,2,52,1,0
99223,-111.111111111111,4,3,2,52,0,0
99835,-100,4,3,2,55,0,0
100294,-100,4,3,2,50,0,0
100447,297.029702970297,4,1,2,60,1,0
104605,-90.9090909090909,4,1,2,60,0,0
104902,-83.3333333333333,4,1,2,60,0,0
105199,-117.647058823529,4,1,2,50,0,0
109951,-100,4,1,2,60,0,0
114110,-90.9090909090909,4,1,2,60,0,0
114407,-83.3333333333333,4,1,2,60,0,0
114704,-117.647058823529,4,1,2,50,0,0
119456,-83.3333333333333,4,1,2,60,0,0
123615,-80,4,1,2,60,0,0
123912,-74.0740740740741,4,1,2,60,0,0
124209,-83.3333333333333,4,1,2,60,0,0
127847,-83.3333333333333,4,1,2,50,0,0
128070,-83.3333333333333,4,1,2,60,0,0
131932,-74.0740740740741,4,1,2,60,0,0
132229,-83.3333333333333,4,1,2,60,0,0
136090,-90.9090909090909,4,1,2,60,0,0
137649,-90.9090909090909,4,1,2,45,0,0
138466,329.67032967033,4,1,2,60,1,0
138466,-153.846153846154,4,1,2,60,0,0
157586,-153.846153846154,4,1,2,60,0,0
180663,329.67032967033,7,3,1,45,1,0
180663,-133.333333333333,7,3,1,45,0,0
181652,-133.333333333333,7,3,1,30,0,0
181981,-133.333333333333,7,3,1,45,0,0
186267,-133.333333333333,7,3,1,30,0,0
186597,-133.333333333333,7,3,1,45,0,0
189893,-125,7,3,1,52,0,0
190882,-125,7,3,1,32,0,0
191212,-125,7,3,1,52,0,0
194509,-117.647058823529,7,3,1,58,0,0
195498,-117.647058823529,7,3,1,35,0,0
195827,-117.647058823529,7,3,1,58,0,0
199124,329.67032967033,4,1,2,58,1,0
201761,-133.333333333333,4,2,1,55,0,0
206376,-117.647058823529,4,2,1,55,0,0
206706,-125,4,2,1,55,0,0
207036,-133.333333333333,4,2,1,55,0,0
210992,-133.333333333333,4,2,2,55,0,0
212310,-121.951219512195,4,2,1,55,0,0
214288,-121.951219512195,4,2,2,55,0,0
214371,-121.951219512195,4,2,1,55,0,0
216926,-121.951219512195,4,2,2,55,0,0
217008,-121.951219512195,4,2,1,55,0,0
219563,-121.951219512195,4,2,2,55,0,0
219645,-121.951219512195,4,2,1,55,0,0
221541,-121.951219512195,4,2,2,55,0,0
222860,-121.951219512195,4,2,1,55,0,0
224838,-121.951219512195,4,2,2,55,0,0
225085,-121.951219512195,4,2,1,55,0,0
226651,-121.951219512195,4,2,2,55,0,0
228134,-121.951219512195,4,2,1,55,0,0
230113,-121.951219512195,4,2,2,55,0,0
230195,-121.951219512195,4,2,1,55,0,0
231431,-121.951219512195,4,2,2,40,0,0
231514,-121.951219512195,4,2,1,55,0,0
232091,-121.951219512195,4,2,2,55,0,0
233409,-142.857142857143,4,2,2,55,0,0
242640,-125,4,2,2,45,0,0
243959,-133.333333333333,4,2,2,55,0,0
251871,-117.647058823529,4,2,2,55,0,0
254508,-125,4,2,2,55,0,0
263739,-125,4,2,2,40,0,0
264069,-116.279069767442,4,2,2,45,0,0
264398,-107.52688172043,4,2,2,50,0,0
264728,-100,4,2,2,55,0,0
265059,333.333333333333,4,1,2,60,1,0
265059,-153.846153846154,4,1,2,60,0,0
266725,-125,4,1,2,60,0,0
267059,-133.333333333333,4,1,2,60,0,0
267392,-142.857142857143,4,1,2,60,0,0
267725,-153.846153846154,4,1,2,60,0,0
269392,-125,4,1,2,60,0,0
269725,-153.846153846154,4,1,2,60,0,0
273225,-117.64705882353,4,1,2,60,0,0
275059,-111.111111111111,4,1,2,60,0,0
275392,-105.263157894737,4,1,2,60,0,0
275725,-153.846153846155,4,1,2,60,0,0
277392,-133.333333333334,4,1,2,60,0,0
277725,-117.64705882353,4,1,2,60,0,0
278059,-133.333333333334,4,1,2,60,0,0
278392,-153.846153846155,4,1,2,60,0,0
282725,-117.64705882353,4,1,2,60,0,0
283059,-125,4,1,2,60,0,0
283392,-133.333333333333,4,1,2,60,0,0
283725,-142.857142857143,4,1,2,60,0,0
283892,-142.857142857143,4,1,2,40,0,0
286392,-181.818181818182,4,1,2,60,0,0
290225,-166.666666666667,4,1,2,60,0,0
290392,-181.818181818182,4,1,2,60,0,0
297058,-142.857142857143,4,1,2,45,0,0
299058,-142.857142857143,4,1,2,45,0,0
299725,-142.857142857143,4,1,2,45,0,0
301725,-142.857142857143,4,1,2,45,0,0
302392,-142.857142857143,4,1,2,45,0,0
307725,-142.857142857143,4,1,2,45,0,0
311225,-142.857142857143,4,2,2,20,0,0
311725,297.029702970297,4,1,2,55,1,0
321229,-94.3396226415094,4,1,2,55,0,0
328358,-100,4,1,2,55,0,0
330734,-89.2857142857143,4,1,2,55,0,0
339051,-100,4,1,2,60,0,0
339645,-86.9565217391304,4,1,2,65,0,0
340239,-80.6451612903226,4,1,2,55,0,0
348556,-80.6451612903226,4,1,2,60,0,0
348853,-76.9230769230769,4,1,2,60,0,0
349150,-74.0740740740741,4,1,2,65,0,0
349447,-71.4285714285714,4,1,2,65,0,0
349744,337.078651685393,4,2,1,55,1,0
349744,-111.111111111111,4,2,1,55,0,0
350502,-111.111111111111,4,2,2,30,0,0
352103,-111.111111111111,4,2,1,55,0,0
353199,-111.111111111111,4,2,2,30,0,0
354715,-111.111111111111,4,2,1,55,0,0
355895,-111.111111111111,4,2,2,30,0,0
357496,-111.111111111111,4,2,1,55,0,0
358592,-111.111111111111,4,2,2,33,0,0
360530,400,4,2,1,55,1,0
361430,-100,4,1,2,33,0,0
362130,-100,4,1,2,27,0,0
362930,-100,4,1,2,22,0,0
363730,-100,4,1,2,18,0,0
364630,-100,4,2,2,15,0,0
366130,451.127819548872,4,2,0,25,1,0
366130,-142.857142857143,4,2,0,25,0,0
375152,500,4,2,0,40,1,0
375652,-100,4,2,0,25,0,0
376129,454.545454545455,4,2,0,25,1,0
376129,-142.857142857143,4,2,0,25,0,0
377038,468.75,4,2,0,25,1,0
377038,-142.857142857143,4,2,0,25,0,0
378913,483.870967741935,7,2,0,25,1,0
378913,-142.857142857143,7,2,0,25,0,0

[Colours]
Combo1 : 214,203,163
Combo2 : 159,180,181
Combo3 : 191,149,149
Combo4 : 146,182,156

[HitObjects]
107,376,78210,5,4,0:0:0:0:
107,376,78539,1,0,0:0:0:0:
174,315,78704,2,0,P|211:302|254:299,1,60.0000022888184,0|0,0:0|0:0,0:0:0:0:
3,160,79034,1,0,0:0:0:0:
47,242,79199,2,0,L|119:250,1,60.0000022888184,4|0,0:0|0:0,0:0:0:0:
321,101,79528,6,0,P|383:86|457:90,1,120.000004577637,2|0,0:0|0:0,0:0:0:0:
297,251,80023,2,0,L|380:258,1,60.0000022888184,4|0,0:0|0:0,0:0:0:0:
439,218,80352,1,4,0:0:0:0:
210,221,80517,6,0,B|190:177|190:177|197:87,1,120.000004577637,2|0,0:0|0:0,0:0:0:0:
397,49,81012,2,0,P|354:69|319:72,1,60.0000022888184,4|0,0:0|0:0,0:0:0:0:
258,33,81341,1,4,0:0:0:0:
210,221,81506,6,0,P|159:208|74:200,1,120.000004577637,2|0,0:0|0:0,0:0:0:0:
349,189,82001,1,8,0:0:0:0:
294,260,82166,2,0,L|291:334,1,60.0000022888184,4|0,0:0|0:0,0:0:0:0:
303,112,82495,5,0,0:2:0:0:
216,135,82660,1,0,0:2:0:0:
385,279,82825,5,4,0:0:0:0:
385,279,83155,1,0,0:0:0:0:
294,260,83319,2,0,P|229:269|212:277,1,60.0000022888184,2|0,0:0|0:0,0:0:0:0:
303,112,83649,1,0,0:0:0:0:
349,189,83814,2,0,L|429:196,1,60.0000022888184,4|4,0:0|0:0,0:0:0:0:
234,51,84144,6,0,P|150:65|106:89,1,120.000004577637,10|0,0:0|0:0,0:0:0:0:
72,292,84638,2,0,L|78:213,1,60.0000022888184,4|0,0:0|0:0,0:0:0:0:
52,145,84968,1,8,0:0:0:0:
218,321,85133,6,0,B|244:281|244:281|237:191,1,120.000004577637,10|8,0:0|0:0,0:0:0:0:
319,85,85627,2,0,P|347:76|377:73,1,60.0000022888184,4|0,0:0|0:0,0:0:0:0:
234,51,85957,1,0,0:0:0:0:
352,233,86122,6,0,L|486:240,1,120.000004577637,2|0,0:0|0:0,0:0:0:0:
319,85,86616,1,8,0:0:0:0:
248,142,86781,2,0,P|234:187|234:227,1,60.0000022888184,4|0,0:0|0:0,0:0:0:0:
408,65,87111,5,0,0:0:0:0:
344,0,87275,1,0,0:0:0:0:
163,108,87440,6,0,L|93:113,1,64,4|0,0:0|0:0,0:0:0:0:
352,233,87770,1,0,0:0:0:0:
271,200,87935,2,0,P|254:170|249:111,1,64,2|0,0:0|0:0,0:0:0:0:
145,351,88264,1,0,0:0:0:0:
219,297,88429,2,0,L|294:288,1,64,4|4,0:0|0:0,0:0:0:0:
55,332,88759,6,0,P|34:280|30:186,1,128,10|0,0:0|0:0,0:0:0:0:
124,40,89253,2,0,P|96:102|93:122,1,64,4|0,0:0|0:0,0:0:0:0:
120,187,89583,1,4,0:0:0:0:
286,77,89748,6,0,L|368:81,1,64,10|0,0:0|0:0,0:0:0:0:
441,84,90078,1,2,0:0:0:0:
245,236,90242,2,0,P|273:218|321:199,1,64,4|0,0:0|0:0,0:0:0:0:
392,197,90572,1,0,0:0:0:0:
311,360,90737,6,0,P|216:338|163:336,1,128,10|2,0:0|0:0,0:0:0:0:
469,247,91231,1,0,0:0:0:0:
414,321,91396,2,0,L|405:390,1,64,4|0,0:0|0:0,0:0:0:0:
478,155,91726,5,0,0:0:0:0:
401,103,91891,1,0,0:0:0:0:
245,236,92056,6,0,L|165:229,1,64,2|0,0:0|0:0,0:0:0:0:
322,58,92385,1,2,0:0:0:0:
233,80,92550,2,0,P|217:113|210:160,1,64,2|0,0:0|0:0,0:0:0:0:
23,65,92880,1,2,0:0:0:0:
97,119,93045,2,0,L|104:197,1,64,4|4,0:0|0:0,0:0:0:0:
72,352,93374,6,0,B|122:372|122:372|196:367,1,128,10|0,0:0|0:0,0:0:0:0:
375,283,93869,1,6,0:0:0:0:
288,311,94034,2,0,L|283:366,2,32,0|0|2,0:0|0:0|0:0,0:0:0:0:
420,156,94363,6,0,L|500:162,1,64,10|0,0:0|0:0,0:0:0:0:
355,89,94693,1,2,0:0:0:0:
224,243,94858,1,6,0:0:0:0:
160,175,95023,2,0,L|84:171,1,64,0|2,0:0|0:0,0:0:0:0:
347,239,95352,6,0,B|366:292|366:292|356:367,1,111.999996582031,8|0,0:0|0:0,0:0:0:0:
50,219,96004,2,0,B|43:164|43:164|66:94,1,111.999996582031,0|0,0:0|0:0,0:0:0:0:
377,151,96656,6,0,L|456:160,2,60.0000022888184,8|8|8,0:1|0:1|0:1,0:0:0:0:
93,303,97308,2,0,L|18:312,2,64,8|8|8,0:1|0:1|0:1,0:0:0:0:
415,231,97960,6,0,P|443:267|452:294,1,68.0000012969971,8|0,0:1|0:1,0:0:0:0:
381,355,98275,2,0,L|294:346,1,68.0000012969971,8|0,0:1|0:1,0:0:0:0:
241,283,98591,2,0,P|250:233|275:200,1,68.0000012969971,8|0,0:1|0:1,0:0:0:0:
321,142,98907,2,0,L|314:61,1,68.0000012969971,8|0,0:1|0:1,0:0:0:0:
123,71,99223,5,8,0:1:0:0:
100,164,99376,1,8,0:1:0:0:
123,71,99529,2,0,P|172:49|213:44,1,71.9999978027344,8|0,0:1|0:1,0:0:0:0:
399,92,99835,5,8,0:1:0:0:
314,49,99988,1,8,0:1:0:0:
302,172,100141,1,8,0:1:0:0:
395,0,100294,1,8,0:1:0:0:
302,172,100447,6,0,P|257:195|166:199,1,120,6|0,0:0|0:0,0:0:0:0:
174,197,100744,2,0,B|189:235|189:235|187:287,1,80,12|0,0:2|0:0,0:0:0:0:
110,126,101041,2,0,P|148:108|205:106,1,80,2|2,0:0|0:0,0:0:0:0:
387,222,101338,1,8,0:0:0:0:
302,266,101486,1,0,0:0:0:0:
300,285,101560,1,0,0:0:0:0:
299,305,101635,6,0,L|309:388,1,80,2|0,0:0|0:0,0:0:0:0:
302,172,101932,1,8,0:0:0:0:
210,337,102080,2,0,P|150:351|110:353,1,80,0|2,0:0|0:0,0:0:0:0:
387,222,102377,2,0,P|460:233|492:249,1,80,2|8,0:0|0:0,0:0:0:0:
150,250,102674,6,0,B|143:185|143:185|155:158|155:158|141:77,1,160,6|2,0:0|0:0,0:0:0:0:
1,68,103120,1,8,0:0:0:0:
63,143,103268,1,0,0:0:0:0:
210,26,103417,1,2,0:0:0:0:
210,26,103565,1,2,0:0:0:0:
237,204,103714,2,0,L|330:216,1,80,8|0,0:0|0:0,0:0:0:0:
479,37,104011,5,10,0:0:0:0:
459,32,104085,1,8,0:0:0:0:
439,27,104159,1,8,0:0:0:0:
335,100,104308,1,8,0:0:0:0:
508,208,104456,1,8,0:3:0:0:
510,187,104531,1,8,0:3:0:0:
502,166,104605,2,0,P|456:150|415:150,1,88.000002685547,8|8,0:3|0:3,0:0:0:0:
347,320,104902,2,0,P|405:322|463:296,1,95.9999970703126,8|4,0:3|0:3,0:0:0:0:
245,136,105199,6,0,L|234:228,1,68.0000012969971,12|2,0:0|0:0,0:0:0:0:
146,80,105496,2,0,L|152:173,1,68.0000012969971,8|2,0:0|0:0,0:0:0:0:
12,107,105793,2,0,B|51:139|51:139|76:247,1,136.000002593994,8|2,0:0|0:0,0:0:0:0:
64,31,106239,1,8,0:0:0:0:
161,243,106387,6,0,P|222:272|245:274,1,68.0000012969971,2|2,0:0|0:0,0:0:0:0:
412,245,106684,1,8,0:0:0:0:
297,340,106833,1,2,0:0:0:0:
297,340,106981,2,0,L|381:337,1,68.0000012969971,8|2,0:3|0:3,0:0:0:0:
412,245,107278,2,0,L|317:250,1,68.0000012969971,4|2,0:3|0:0,0:0:0:0:
199,33,107575,6,0,P|249:20|291:20,1,68.0000012969971,12|2,0:0|0:0,0:0:0:0:
209,125,107872,2,0,P|261:135|298:153,1,68.0000012969971,8|2,0:0|0:0,0:0:0:0:
150,204,108169,2,0,P|188:246|205:332,1,136.000002593994,8|2,0:0|0:0,0:0:0:0:
114,117,108615,1,8,0:0:0:0:
307,228,108763,6,0,L|381:218,1,68.0000012969971,2|2,0:0|0:0,0:0:0:0:
512,78,109060,1,8,0:0:0:0:
451,283,109209,1,2,0:0:0:0:
425,110,109357,1,8,0:0:0:0:
422,93,109432,1,8,0:0:0:0:
419,77,109506,1,8,0:0:0:0:
377,225,109654,5,8,0:0:0:0:
416,60,109803,1,8,0:0:0:0:
377,225,109951,6,0,P|335:235|262:238,1,80,6|2,0:0|0:0,0:0:0:0:
138,203,110248,1,8,0:0:0:0:
196,359,110397,1,0,0:0:0:0:
230,174,110546,1,2,0:0:0:0:
230,174,110694,1,2,0:0:0:0:
126,294,110843,1,8,0:0:0:0:
65,138,110991,1,0,0:0:0:0:
63,118,111065,1,0,0:0:0:0:
61,97,111140,6,0,L|54:5,1,80,2|0,0:0|0:0,0:0:0:0:
50,231,111437,1,8,0:0:0:0:
155,113,111585,2,0,P|170:76|173:18,1,80,0|2,0:0|0:0,0:0:0:0:
230,174,111882,2,0,P|292:181|331:201,1,80,2|8,0:0|0:0,0:0:0:0:
430,346,112179,6,0,B|375:320|375:320|265:310,1,160,4|2,0:0|0:0,0:0:0:0:
28,348,112625,1,8,0:0:0:0:
145,206,112773,1,0,0:0:0:0:
201,379,112922,1,2,0:0:0:0:
201,379,113070,1,2,0:0:0:0:
13,222,113219,2,0,P|15:177|41:111,1,80,8|0,0:0|0:0,0:0:0:0:
301,97,113516,5,8,0:0:0:0:
302,116,113590,1,8,0:0:0:0:
303,135,113664,1,8,0:0:0:0:
295,4,113813,1,8,0:0:0:0:
217,179,113961,1,8,0:3:0:0:
226,196,114036,1,8,0:3:0:0:
242,210,114110,2,0,P|292:228|351:224,1,88.000002685547,8|8,0:3|0:3,0:0:0:0:
203,24,114407,2,0,P|159:87|161:144,1,95.9999970703126,8|4,0:3|0:3,0:0:0:0:
309,328,114704,6,0,L|227:335,1,68.0000012969971,12|2,0:0|0:0,0:0:0:0:
84,297,115001,2,0,L|177:308,1,68.0000012969971,8|2,0:0|0:0,0:0:0:0:
348,205,115298,2,0,B|261:218|261:218|199:258,1,136.000002593994,8|2,0:0|0:0,0:0:0:0:
305,120,115744,1,8,0:0:0:0:
404,314,115892,6,0,P|477:329|495:327,1,68.0000012969971,2|2,0:0|0:0,0:0:0:0:
433,170,116189,1,8,0:0:0:0:
251,318,116338,1,2,0:0:0:0:
251,318,116486,2,0,P|297:298|340:294,1,68.0000012969971,8|2,0:3|0:0,0:0:0:0:
171,369,116783,2,0,L|76:362,1,68.0000012969971,4|2,0:3|0:0,0:0:0:0:
305,120,117080,6,0,P|324:149|336:189,1,68.0000012969971,12|2,0:0|0:0,0:0:0:0:
220,161,117377,2,0,P|216:207|196:255,1,68.0000012969971,8|2,0:0|0:0,0:0:0:0:
135,119,117674,2,0,P|88:183|19:208,1,136.000002593994,8|2,0:0|0:0,0:0:0:0:
215,69,118120,1,8,0:0:0:0:
325,243,118268,6,0,L|402:253,1,68.0000012969971,2|2,0:0|0:0,0:0:0:0:
224,165,118565,1,8,0:0:0:0:
256,307,118714,1,2,0:0:0:0:
305,120,118862,1,8,0:0:0:0:
307,103,118937,1,8,0:0:0:0:
309,86,119011,1,8,0:0:0:0:
329,247,119159,5,8,0:0:0:0:
142,214,119308,1,8,0:0:0:0:
329,247,119456,6,0,B|377:244|377:244|432:218,1,95.9999970703126,6|8,0:0|0:0,0:0:0:0:
501,42,119753,1,2,0:0:0:0:
477,37,119828,1,0,0:0:0:0:
453,33,119902,1,8,0:0:0:0:
354,155,120050,1,2,0:0:0:0:
442,126,120199,1,8,0:0:0:0:
286,38,120347,2,0,L|207:29,2,47.9999985351563,2|0|8,0:0|0:0|0:0,0:0:0:0:
492,210,120645,6,0,B|505:258|505:258|499:309,1,95.9999970703126,2|8,0:0|0:0,0:0:0:0:
259,238,120942,1,2,0:0:0:0:
260,213,121016,1,0,0:0:0:0:
261,189,121090,1,8,0:0:0:0:
416,349,121239,2,0,P|353:312|299:305,1,95.9999970703126,2|8,0:0|0:0,0:0:0:0:
132,351,121536,1,2,0:0:0:0:
109,359,121610,1,0,0:0:0:0:
86,367,121684,1,8,0:0:0:0:
259,238,121833,6,0,L|265:110,1,95.9999970703126,2|8,0:0|0:0,0:0:0:0:
160,32,122130,1,2,0:0:0:0:
157,55,122204,1,0,0:0:0:0:
154,78,122278,1,8,0:0:0:0:
340,81,122427,1,2,0:0:0:0:
287,4,122575,1,8,0:0:0:0:
352,246,122724,2,0,B|402:259|402:259|468:247,1,95.9999970703126,2|8,0:0|0:0,0:0:0:0:
144,172,123021,6,0,P|120:213|110:260,1,95.9999970703126,2|8,0:0|0:0,0:0:0:0:
245,92,123318,2,0,P|275:157|278:202,1,95.9999970703126,2|8,0:0|0:0,0:0:0:0:
86,95,123615,6,0,L|-45:108,1,100,2|8,0:0|0:0,0:0:0:0:
325,50,123912,2,0,L|439:55,1,108.000000411987,2|12,0:0|0:0,0:0:0:0:
229,339,124209,6,0,B|207:294|207:294|213:218,1,95.9999970703126,6|8,0:0|0:0,0:0:0:0:
423,149,124506,1,2,0:0:0:0:
445,157,124580,1,0,0:0:0:0:
467,164,124654,1,8,0:0:0:0:
333,181,124803,1,2,0:0:0:0:
403,243,124951,1,8,0:0:0:0:
325,50,125100,2,0,P|262:34|200:45,1,95.9999970703126,2|8,0:0|0:0,0:0:0:0:
95,281,125397,6,0,B|49:298|49:298|-15:292,1,95.9999970703126,6|8,0:0|0:0,0:0:0:0:
147,116,125694,1,2,0:0:0:0:
170,119,125768,1,0,0:0:0:0:
193,122,125843,1,8,0:0:0:0:
57,155,125991,1,2,0:0:0:0:
68,61,126140,1,8,0:0:0:0:
180,321,126288,2,0,P|232:335|292:329,1,95.9999970703126,6|8,0:0|0:0,0:0:0:0:
362,91,126585,6,0,B|337:135|337:135|330:211,1,95.9999970703126,6|8,0:0|0:0,0:0:0:0:
436,301,126882,1,2,0:0:0:0:
459,303,126956,1,0,0:0:0:0:
483,305,127031,1,8,0:0:0:0:
238,204,127179,2,0,L|121:215,1,95.9999970703126,2|8,0:0|0:0,0:0:0:0:
6,294,127476,2,0,P|0:320|-1:342,2,47.9999985351563,2|0|8,0:0|0:0|0:0,0:0:0:0:
92,131,127773,5,8,0:0:0:0:
89,107,127847,1,8,0:0:0:0:
87,82,127922,1,8,0:0:0:0:
85,58,127996,1,8,0:0:0:0:
83,34,128070,2,0,P|37:17|-14:15,1,95.9999970703126,8|0,0:0|0:0,0:0:0:0:
129,232,128367,5,8,0:0:0:0:
142,212,128442,1,8,0:0:0:0:
159,195,128516,1,8,0:0:0:0:
178,182,128590,1,8,0:0:0:0:
199,173,128664,2,0,L|299:169,1,95.9999970703126,2|8,0:0|0:0,0:0:0:0:
512,304,128961,6,0,B|468:281|468:281|385:275,1,95.9999970703126,6|8,0:0|0:0,0:0:0:0:
242,320,129258,1,2,0:0:0:0:
237,343,129333,1,0,0:0:0:0:
232,366,129407,1,8,0:0:0:0:
329,246,129555,2,0,P|319:198|285:142,1,95.9999970703126,2|8,0:0|0:0,0:0:0:0:
139,100,129852,2,0,L|80:96,2,47.9999985351563,2|0|8,0:0|0:0|0:0,0:0:0:0:
370,55,130149,6,0,L|489:45,1,95.9999970703126,2|8,0:0|0:0,0:0:0:0:
297,156,130447,1,2,0:0:0:0:
288,133,130521,1,0,0:0:0:0:
290,109,130595,1,8,0:0:0:0:
443,167,130744,2,0,L|440:214,2,47.9999985351563,2|2|8,0:0|0:0|0:0,0:0:0:0:
199,70,131041,1,2,0:0:0:0:
178,82,131115,1,0,0:0:0:0:
167,103,131189,1,8,0:0:0:0:
370,55,131338,5,2,0:0:0:0:
285,12,131486,1,8,0:0:0:0:
204,221,131635,2,0,L|195:284,2,47.9999985351563,2|2|8,0:0|0:0|0:0,0:0:0:0:
290,109,131932,1,2,0:0:0:0:
199,70,132080,1,8,0:0:0:0:
341,288,132229,2,0,B|389:293|389:293|458:267,1,95.9999970703126,2|8,0:0|0:0,0:0:0:0:
117,176,132526,6,0,P|75:233|69:289,1,95.9999970703126,2|8,0:0|0:0,0:0:0:0:
369,195,132823,2,0,P|354:142|314:90,1,95.9999970703126,2|8,0:0|0:0,0:0:0:0:
125,336,133120,6,0,L|230:349,1,95.9999970703126,2|8,0:0|0:0,0:0:0:0:
117,176,133417,2,0,L|-5:184,1,95.9999970703126,2|8,0:0|0:0,0:0:0:0:
251,58,133714,6,0,B|298:76|298:76|343:118,1,95.9999970703126,2|8,0:0|0:0,0:0:0:0:
403,362,134011,1,6,0:0:0:0:
426,365,134085,1,0,0:0:0:0:
449,368,134159,1,8,0:0:0:0:
289,269,134308,1,2,0:0:0:0:
249,356,134456,1,8,0:0:0:0:
383,270,134605,2,0,L|392:165,1,95.9999970703126,2|8,0:0|0:0,0:0:0:0:
122,57,134902,6,0,B|92:98|92:98|76:188,1,95.9999970703126,6|8,0:0|0:0,0:0:0:0:
147,283,135199,1,2,0:0:0:0:
168,280,135273,1,0,0:0:0:0:
191,278,135347,1,8,0:0:0:0:
59,234,135496,1,2,0:0:0:0:
59,330,135645,1,8,0:0:0:0:
180,138,135793,2,0,P|252:118|294:121,1,95.9999970703126,6|8,0:0|0:0,0:0:0:0:
499,240,136090,5,6,0:0:0:0:
410,265,136239,1,2,0:0:0:0:
399,285,136313,1,0,0:0:0:0:
393,306,136387,2,0,B|352:320|352:320|285:314,1,88.000002685547,8|8,0:3|0:3,0:0:0:0:
396,145,136684,1,4,0:3:0:0:
412,159,136758,1,4,0:3:0:0:
426,175,136833,1,4,0:3:0:0:
450,70,136981,1,4,0:3:0:0:
312,195,137130,1,4,0:3:0:0:
290,197,137204,1,4,0:3:0:0:
268,193,137278,6,0,P|253:150|250:73,1,88.000002685547,8|8,0:3|0:3,0:0:0:0:
359,0,137575,1,8,0:3:0:0:
343,22,137649,1,8,0:3:0:0:
324,42,137723,1,8,0:3:0:0:
301,57,137797,1,8,0:3:0:0:
276,67,137872,1,8,0:3:0:0:
249,72,137946,1,8,0:3:0:0:
221,71,138020,1,8,0:3:0:0:
194,65,138094,1,8,0:3:0:0:
168,55,138169,2,0,P|115:44|46:49,1,88.000002685547,4|4,0:3|0:3,0:0:0:0:
40,325,138466,6,0,B|81:316|104:295|104:295|128:294|128:294|175:251|247:256,1,207.999990478516,6|0,0:0|0:0,0:0:0:0:
495,366,139455,2,0,L|424:362,1,51.999997619629,2|2,0:0|0:0,0:0:0:0:
354,356,139784,1,8,0:0:0:0:
493,160,140114,5,0,0:0:0:0:
354,356,140444,1,6,0:0:0:0:
249,148,140773,1,2,0:0:0:0:
249,148,141103,6,0,B|190:155|190:155|147:142|147:142|86:140|47:183,1,207.999990478516,6|0,0:0|0:0,0:0:0:0:
230,349,142092,2,0,L|275:353,2,34.6666650797527,0|2|2,0:0|0:0|0:0,0:0:0:0:
140,335,142422,2,0,B|121:284|121:284|132:208,1,103.999995239258,12|0,0:0|0:0,0:0:0:0:
416,198,143081,2,0,B|435:249|435:249|424:325,1,103.999995239258,6|0,0:0|0:0,0:0:0:0:
172,160,143740,6,0,B|228:151|256:104|256:104|302:126|302:126|333:117|380:119,1,207.999990478516,6|0,0:0|0:0,0:0:0:0:
98,222,144729,2,0,L|57:224,2,34.6666650797527,0|2|2,0:0|0:0|0:0,0:0:0:0:
189,251,145059,1,12,0:0:0:0:
272,205,145224,6,0,L|279:140,2,51.999997619629,0|0|2,0:0|0:0|0:0,0:0:0:0:
316,289,145718,2,0,P|366:298|389:296,1,51.999997619629,8|0,0:0|0:0,0:0:0:0:
234,332,146048,2,0,P|215:370|210:385,1,51.999997619629,2|0,0:0|0:0,0:0:0:0:
189,251,146378,5,6,0:0:0:0:
455,279,146707,2,0,B|479:232|479:232|473:165,1,103.999995239258,2|0,0:0|0:0,0:0:0:0:
461,93,147202,6,0,L|521:84,2,51.999997619629,0|2|0,0:0|0:0|0:0,0:0:0:0:
387,151,147696,2,0,P|350:143|321:132,1,51.999997619629,0|0,0:0|0:0,0:0:0:0:
274,75,148026,1,12,0:0:0:0:
166,293,148356,1,2,0:0:0:0:
242,242,148520,1,2,0:0:0:0:
165,210,148685,1,12,0:0:0:0:
165,210,149015,6,0,B|150:177|157:137|157:137|153:128|136:120|136:120|148:59|105:10,1,207.999990478516,6|0,0:0|0:0,0:0:0:0:
10,261,150004,2,0,L|5:314,2,34.6666650797527,0|2|2,0:0|0:0|0:0,0:0:0:0:
19,172,150334,1,12,0:0:0:0:
252,336,150663,2,0,L|257:389,2,34.6666650797527,8|8|8,0:0|0:0|0:0,0:0:0:0:
243,247,150993,1,6,0:0:0:0:
490,221,151323,2,0,L|512:269,2,34.6666650797527,8|8|8,0:0|0:0|0:0,0:0:0:0:
451,140,151652,6,0,B|417:102|361:88|361:88|322:117|322:117|249:126,1,207.999990478516,6|0,0:0|0:0,0:0:0:0:
41,81,152641,2,0,L|106:93,1,51.999997619629,2|2,0:0|0:0,0:0:0:0:
180,134,152971,1,12,0:0:0:0:
180,134,153301,6,0,B|158:182|158:182|162:244,2,103.999995239258,8|8|8,0:3|0:3|0:3,0:0:0:0:
446,62,154290,6,0,P|474:119|479:179,1,103.999995239258,6|2,0:0|0:0,0:0:0:0:
471,247,154784,1,2,0:0:0:0:
463,334,154949,1,2,0:0:0:0:
246,313,155279,1,6,0:0:0:0:
30,290,155608,1,12,0:0:0:0:
115,258,155773,6,0,L|185:252,2,51.999997619629,0|0|0,0:0|0:0|0:0,0:0:0:0:
42,200,156268,2,0,P|33:154|36:132,1,51.999997619629,6|0,0:0|0:0,0:0:0:0:
60,63,156597,2,0,P|97:29|115:21,1,51.999997619629,0|0,0:0|0:0,0:0:0:0:
223,93,156927,6,0,B|274:101|274:101|296:89|326:90|326:90|381:127|350:199,1,207.999990478516,6|0,0:0|0:0,0:0:0:0:
308,264,157751,5,0,0:0:0:0:
308,264,157916,2,0,L|301:337,1,51.999997619629,8|0,0:0|0:0,0:0:0:0:
372,376,158246,2,0,P|410:356|442:349,1,51.999997619629,2|2,0:0|0:0,0:0:0:0:
507,340,158575,1,12,0:0:0:0:
221,357,158905,2,0,P|205:311|190:288,1,51.999997619629,2|2,0:0|0:0,0:0:0:0:
140,250,159235,1,12,0:0:0:0:
140,250,159564,6,0,P|95:281|-19:194,1,207.999990478516,6|0,0:0|0:0,0:0:0:0:
230,43,160553,2,0,L|233:119,1,51.999997619629,2|2,0:0|0:0,0:0:0:0:
210,185,160883,1,12,0:0:0:0:
210,185,161213,6,0,B|162:163|162:163|95:159,2,103.999995239258,2|8|4,0:0|0:3|0:3,0:0:0:0:
336,329,162202,6,0,B|356:298|349:254|349:254|370:236|370:236|368:182|420:146,1,207.999990478516,6|0,0:0|0:0,0:0:0:0:
258,282,163191,2,0,L|200:286,1,51.999997619629,2|2,0:0|0:0,0:0:0:0:
117,262,163520,1,12,0:0:0:0:
272,86,163850,5,0,0:0:0:0:
117,262,164180,1,6,0:0:0:0:
36,44,164509,1,0,0:0:0:0:
36,44,164839,6,0,B|90:23|139:52|139:52|118:97|118:97|126:155,1,207.999990478516,6|0,0:0|0:0,0:0:0:0:
353,107,165828,2,0,P|322:97|283:89,1,51.999997619629,0|2,0:0|0:0,0:0:0:0:
213,107,166158,1,12,0:0:0:0:
232,195,166323,6,0,L|224:267,2,51.999997619629,0|0|2,0:0|0:0|0:0,0:0:0:0:
325,231,166817,2,0,L|330:293,1,51.999997619629,12|0,0:0|0:0,0:0:0:0:
407,187,167147,2,0,P|431:175|473:168,1,51.999997619629,2|0,0:0|0:0,0:0:0:0:
370,364,167476,6,0,B|336:375|307:370|307:370|280:383|280:383|237:346|154:346,1,207.999990478516,6|0,0:0|0:0,0:0:0:0:
81,357,168301,5,0,0:0:0:0:
81,357,168466,2,0,L|75:284,1,51.999997619629,8|0,0:0|0:0,0:0:0:0:
108,217,168795,2,0,P|146:210|175:198,1,51.999997619629,2|2,0:0|0:0,0:0:0:0:
225,143,169125,1,12,0:0:0:0:
342,324,169455,2,0,P|308:311|280:292,1,51.999997619629,2|2,0:0|0:0,0:0:0:0:
250,232,169785,1,12,0:0:0:0:
250,232,170114,6,0,B|285:244|314:246|314:246|343:232|367:207|367:207|399:218|399:218|462:213,1,207.999990478516,6|0,0:0|0:0,0:0:0:0:
194,25,171103,2,0,L|190:93,1,51.999997619629,2|2,0:0|0:0,0:0:0:0:
186,167,171433,1,12,0:0:0:0:
419,48,171762,5,0,0:0:0:0:
186,167,172092,1,6,0:0:0:0:
402,314,172422,1,0,0:0:0:0:
402,314,172751,6,0,B|348:291|286:316|321:347|265:372|211:355,1,207.999990478516,6|0,0:0|0:0,0:0:0:0:
34,155,173740,2,0,P|74:161|102:173,1,51.999997619629,0|2,0:0|0:0,0:0:0:0:
157,220,174070,1,12,0:0:0:0:
345,64,174400,5,0,0:0:0:0:
157,220,174729,1,6,0:0:0:0:
277,15,175059,1,0,0:0:0:0:
277,15,175389,6,0,P|314:99|307:223,1,207.999990478516,6|0,0:0|0:0,0:0:0:0:
124,355,176378,2,0,L|189:347,1,51.999997619629,2|2,0:0|0:0,0:0:0:0:
264,366,176707,1,12,0:0:0:0:
342,318,176872,6,0,P|371:303|409:294,2,51.999997619629,0|0|0,0:0|0:0|0:0,0:0:0:0:
262,277,177367,2,0,L|257:207,1,51.999997619629,12|0,0:0|0:0,0:0:0:0:
222,142,177696,2,0,P|179:128|153:126,1,51.999997619629,2|0,0:0|0:0,0:0:0:0:
41,238,178026,6,0,B|91:223|107:193|107:193|82:145|82:145|93:66,1,207.999990478516,6|0,0:0|0:0,0:0:0:0:
174,30,178850,5,0,0:0:0:0:
174,30,179015,2,0,P|232:43|249:42,1,51.999997619629,2|0,0:0|0:0,0:0:0:0:
314,23,179345,1,8,0:0:0:0:
375,90,179509,1,8,0:0:0:0:
291,111,179674,2,0,L|288:177,1,51.999997619629,0|0,0:0|0:0,0:0:0:0:
311,251,180004,2,0,P|358:237|383:236,1,51.999997619629,8|0,0:0|0:0,0:0:0:0:
450,257,180334,1,0,0:0:0:0:
278,355,180663,5,12,0:0:0:0:
278,355,180992,1,0,0:0:0:0:
211,285,181157,2,0,L|207:207,1,60.0000022888184,8|0,0:0|0:0,0:0:0:0:
270,92,181487,2,0,P|302:95|334:106,2,60.0000022888184,0|8|8,0:0|0:0|0:0,0:0:0:0:
87,126,181981,6,0,B|66:82|66:82|72:-3,1,120.000004577637,8|0,0:0|0:0,0:0:0:0:
7,188,182476,2,0,P|66:216|142:210,1,120.000004577637,8|0,0:0|0:0,0:0:0:0:
270,92,182970,6,0,B|317:73|317:73|410:82,1,120.000004577637,8|0,0:0|0:0,0:0:0:0:
360,278,183465,2,0,P|335:221|331:158,1,120.000004577637,8|0,0:0|0:0,0:0:0:0:
305,348,183959,6,0,B|264:365|264:365|183:354,1,120.000004577637,8|0,0:0|0:0,0:0:0:0:
25,194,184454,1,0,0:0:0:0:
18,283,184619,2,0,P|56:279|91:267,1,60.0000022888184,8|0,0:0|0:0,0:0:0:0:
194,147,184948,2,0,L|250:153,1,30.0000011444092,0|0,0:0|0:0,0:0:0:0:
183,167,185113,2,0,L|222:171,1,30.0000011444092,0|0,0:0|0:0,0:0:0:0:
174,187,185278,5,4,0:0:0:0:
237,62,185608,1,0,0:0:0:0:
311,114,185772,2,0,L|385:121,1,60.0000022888184,8|0,0:0|0:0,0:0:0:0:
146,69,186102,2,0,P|115:82|91:100,2,60.0000022888184,0|8|8,0:0|0:0|0:0,0:0:0:0:
323,202,186597,6,0,L|334:329,1,120.000004577637,8|0,0:0|0:0,0:0:0:0:
512,190,187091,2,0,P|459:159|394:153,1,120.000004577637,8|0,0:0|0:0,0:0:0:0:
232,224,187586,6,0,B|214:176|214:176|220:98,1,120.000004577637,8|0,0:0|0:0,0:0:0:0:
421,49,188080,2,0,P|343:72|279:66,1,120.000004577637,8|0,0:0|0:0,0:0:0:0:
93,23,188575,6,0,B|68:64|68:64|61:153,1,120.000004577637,8|0,0:0|0:0,0:0:0:0:
88,293,189069,1,0,0:0:0:0:
143,219,189234,2,0,P|188:210|225:211,1,60.0000022888184,8|0,0:0|0:0,0:0:0:0:
362,303,189564,2,0,L|357:346,1,30.0000011444092,0|0,0:0|0:0,0:0:0:0:
346,317,189728,2,0,L|341:371,1,30.0000011444092,0|0,0:0|0:0,0:0:0:0:
330,329,189893,6,0,P|317:261|319:248,1,64,4|0,0:0|0:0,0:0:0:0:
367,114,190223,1,0,0:0:0:0:
304,178,190388,2,0,L|230:185,1,64,8|0,0:0|0:0,0:0:0:0:
150,70,190717,1,0,0:0:0:0:
150,70,190882,2,0,P|164:113|166:146,1,64,8|8,0:0|0:0,0:0:0:0:
49,310,191212,6,0,P|56:249|93:190,1,128,8|0,0:0|0:0,0:0:0:0:
286,274,191706,1,8,0:0:0:0:
286,274,191871,2,0,L|215:281,1,64,0|0,0:0|0:0,0:0:0:0:
354,346,192201,6,0,B|376:304|376:304|379:221,1,128,8|0,0:0|0:0,0:0:0:0:
242,123,192695,1,8,0:0:0:0:
242,123,192860,2,0,P|228:160|228:199,1,64,0|0,0:0|0:0,0:0:0:0:
443,78,193190,6,0,L|297:64,1,128,8|0,0:0|0:0,0:0:0:0:
87,25,193684,1,0,0:0:0:0:
132,103,193849,2,0,L|142:189,1,64,8|0,0:0|0:0,0:0:0:0:
97,289,194179,2,0,L|48:284,1,32,0|0,0:0|0:0,0:0:0:0:
105,307,194344,2,0,L|57:304,1,32,0|0,0:0|0:0,0:0:0:0:
112,326,194509,6,0,P|165:315|195:315,1,68.0000012969971,4|0,0:0|0:0,0:0:0:0:
356,350,194838,1,0,0:0:0:0:
304,275,195003,2,0,L|300:203,1,68.0000012969971,8|0,0:0|0:0,0:0:0:0:
447,155,195333,1,0,0:0:0:0:
447,155,195498,2,0,P|431:199|429:248,1,68.0000012969971,8|8,0:0|0:0,0:0:0:0:
418,61,195827,6,0,P|356:40|285:43,1,136.000002593994,8|0,0:0|0:0,0:0:0:0:
151,160,196322,1,8,0:0:0:0:
151,160,196487,2,0,L|231:154,1,68.0000012969971,0|0,0:0|0:0,0:0:0:0:
103,353,196816,6,0,B|77:305|77:305|83:220,1,136.000002593994,8|0,0:0|0:0,0:0:0:0:
160,67,197311,1,8,0:0:0:0:
160,67,197476,2,0,P|110:51|68:46,1,68.0000012969971,0|0,0:0|0:0,0:0:0:0:
244,154,197805,6,0,P|304:131|382:128,1,136.000002593994,8|0,0:0|0:0,0:0:0:0:
510,254,198300,1,0,0:0:0:0:
431,301,198465,2,0,L|348:295,1,68.0000012969971,8|0,0:0|0:0,0:0:0:0:
204,289,198794,2,0,L|246:284,1,34.0000006484985,0|0,0:0|0:0,0:0:0:0:
198,308,198959,2,0,L|249:300,1,34.0000006484985,0|0,0:0|0:0,0:0:0:0:
192,326,199124,5,8,0:0:0:0:
310,138,201761,5,0,0:0:0:0:
298,135,201843,1,0,0:0:0:0:
286,132,201926,1,0,0:0:0:0:
356,218,202091,1,0,0:0:0:0:
245,325,202255,1,0,0:0:0:0:
233,327,202338,1,0,0:0:0:0:
221,329,202420,2,0,L|136:322,1,60.0000022888184,0|0,0:0|0:0,0:0:0:0:
331,305,202750,2,0,P|351:340|359:377,1,60.0000022888184,0|0,0:0|0:0,0:0:0:0:
267,241,203080,5,0,0:0:0:0:
268,229,203162,1,0,0:0:0:0:
270,217,203244,1,0,0:0:0:0:
245,325,203409,1,0,0:0:0:0:
130,200,203574,1,0,0:0:0:0:
129,188,203656,1,0,0:0:0:0:
128,175,203739,2,0,L|121:95,1,60.0000022888184,0|0,0:0|0:0,0:0:0:0:
239,30,204069,1,0,0:0:0:0:
216,117,204233,1,0,0:0:0:0:
382,72,204398,6,0,L|374:24,2,30.0000011444092,0|0|0,0:0|0:0|0:0,0:0:0:0:
430,152,204728,1,0,0:0:0:0:
315,268,204893,1,0,0:0:0:0:
303,266,204975,1,0,0:0:0:0:
291,264,205058,2,0,P|273:201|276:181,1,60.0000022888184,0|0,0:0|0:0,0:0:0:0:
399,312,205387,2,0,P|363:348|332:360,1,60.0000022888184,0|0,0:0|0:0,0:0:0:0:
177,251,205717,5,0,0:0:0:0:
155,343,205882,1,0,0:0:0:0:
161,237,206047,1,0,0:0:0:0:
174,347,206211,1,0,0:0:0:0:
185,150,206376,5,0,0:0:0:0:
68,232,206541,1,0,0:0:0:0:
193,132,206706,1,0,0:0:0:0:
57,251,206871,1,0,0:0:0:0:
114,91,207036,5,0,0:0:0:0:
116,79,207118,1,0,0:0:0:0:
118,67,207200,1,0,0:0:0:0:
38,147,207365,1,0,0:0:0:0:
193,132,207530,1,0,0:0:0:0:
204,130,207613,1,0,0:0:0:0:
215,129,207695,2,0,L|295:134,1,60.0000022888184,0|0,0:0|0:0,0:0:0:0:
394,198,208025,2,0,L|316:207,1,60.0000022888184,0|0,0:0|0:0,0:0:0:0:
200,324,208354,5,0,0:0:0:0:
209,316,208437,1,0,0:0:0:0:
218,309,208519,1,0,0:0:0:0:
308,327,208684,1,0,0:0:0:0:
189,222,208849,1,0,0:0:0:0:
177,220,208931,1,0,0:0:0:0:
165,218,209014,2,0,P|101:231|84:240,1,60.0000022888184,0|0,0:0|0:0,0:0:0:0:
281,238,209343,1,0,0:0:0:0:
310,154,209508,1,0,0:0:0:0:
449,266,209673,6,0,L|499:270,2,30.0000011444092,0|0|0,0:0|0:0|0:0,0:0:0:0:
370,224,210003,1,0,0:0:0:0:
408,368,210167,1,0,0:0:0:0:
396,371,210250,1,0,0:0:0:0:
384,374,210332,2,0,L|304:370,1,60.0000022888184,0|0,0:0|0:0,0:0:0:0:
194,297,210662,1,0,0:0:0:0:
174,384,210827,1,0,0:0:0:0:
213,208,210992,5,8,0:0:0:0:
213,208,212310,5,4,0:0:0:0:
229,211,212393,1,0,0:0:0:0:
244,214,212475,1,0,0:0:0:0:
155,136,212640,1,0,0:0:0:0:
174,292,212805,1,0,0:0:0:0:
177,307,212887,1,0,0:0:0:0:
180,323,212970,2,0,P|231:345|257:348,1,65.6000010009766,8|0,0:0|0:0,0:0:0:0:
397,298,213299,2,0,L|475:293,1,65.6000010009766,0|0,0:0|0:0,0:0:0:0:
333,364,213629,1,0,0:0:0:0:
333,226,213794,5,0,0:0:0:0:
333,226,213959,2,0,P|377:208|426:202,1,65.6000010009766,0|0,0:0|0:0,0:0:0:0:
160,70,214288,2,0,L|153:159,1,65.6000010009766,12|0,0:0|0:0,0:0:0:0:
243,182,214618,2,0,L|248:106,1,65.6000010009766,0|0,0:0|0:0,0:0:0:0:
63,136,214948,5,0,0:0:0:0:
46,139,215030,1,0,0:0:0:0:
29,142,215113,1,0,0:0:0:0:
72,48,215277,1,0,0:0:0:0:
93,221,215442,1,0,0:0:0:0:
79,230,215525,1,0,0:0:0:0:
65,238,215607,2,0,L|-13:248,1,65.6000010009766,8|0,0:0|0:0,0:0:0:0:
151,149,215937,2,0,P|197:157|231:172,1,65.6000010009766,0|0,0:0|0:0,0:0:0:0:
280,329,216266,1,0,0:0:0:0:
382,199,216431,5,0,0:0:0:0:
208,264,216596,1,0,0:0:0:0:
375,297,216761,1,0,0:0:0:0:
390,300,216843,1,0,0:0:0:0:
405,304,216926,2,0,P|444:300|486:288,1,65.6000010009766,12|0,0:0|0:0,0:0:0:0:
316,132,217255,2,0,P|289:181|283:217,1,65.6000010009766,0|0,0:0|0:0,0:0:0:0:
191,358,217585,5,0,0:0:0:0:
174,360,217667,1,0,0:0:0:0:
157,362,217750,1,0,0:0:0:0:
280,329,217915,1,0,0:0:0:0:
194,171,218080,1,0,0:0:0:0:
177,168,218162,1,0,0:0:0:0:
159,165,218244,2,0,P|117:166|67:180,1,65.6000010009766,8|0,0:0|0:0,0:0:0:0:
207,32,218574,2,0,P|230:71|238:107,1,65.6000010009766,0|0,0:0|0:0,0:0:0:0:
258,241,218904,1,0,0:0:0:0:
426,165,219069,5,0,0:0:0:0:
426,165,219233,2,0,L|348:160,1,65.6000010009766,0|0,0:0|0:0,0:0:0:0:
107,285,219563,2,0,P|156:261|191:258,1,65.6000010009766,8|0,0:0|0:0,0:0:0:0:
342,346,219893,2,0,P|310:334|262:327,1,65.6000010009766,0|0,0:0|0:0,0:0:0:0:
70,374,220222,5,0,0:0:0:0:
54,379,220305,1,0,0:0:0:0:
38,384,220387,1,0,0:0:0:0:
159,362,220552,1,0,0:0:0:0:
12,292,220717,1,0,0:0:0:0:
8,276,220799,1,0,0:0:0:0:
3,260,220882,2,0,L|13:174,1,65.6000010009766,8|0,0:0|0:0,0:0:0:0:
67,63,221211,2,0,L|75:149,1,65.6000010009766,0|0,0:0|0:0,0:0:0:0:
177,255,221541,5,8,0:0:0:0:
321,179,221706,1,8,0:0:0:0:
190,93,221871,1,8,0:0:0:0:
272,259,222036,5,8,0:0:0:0:
177,255,222365,1,8,0:0:0:0:
229,175,222695,1,8,0:0:0:0:
323,336,222860,5,0,0:0:0:0:
339,338,222942,1,0,0:0:0:0:
355,341,223025,1,0,0:0:0:0:
272,259,223189,1,0,0:0:0:0:
438,204,223354,1,0,0:0:0:0:
442,219,223437,1,0,0:0:0:0:
446,234,223519,2,0,P|444:275|431:315,1,65.6000010009766,8|0,0:0|0:0,0:0:0:0:
379,133,223849,2,0,P|389:127|454:111,2,65.6000010009766,0|0|0,0:0|0:0|0:0,0:0:0:0:
272,259,224343,5,0,0:0:0:0:
272,259,224508,2,0,L|185:251,1,65.6000010009766,0|0,0:0|0:0,0:0:0:0:
40,210,224838,1,8,0:0:0:0:
83,355,225003,1,8,0:0:0:0:
132,195,225167,2,0,P|126:150|113:115,1,65.6000010009766,0|0,0:0|0:0,0:0:0:0:
3,32,225497,5,0,0:0:0:0:
18,37,225580,1,0,0:0:0:0:
33,42,225662,1,0,0:0:0:0:
122,10,225827,1,0,0:0:0:0:
239,130,225992,1,0,0:0:0:0:
255,127,226074,1,0,0:0:0:0:
271,124,226156,2,0,P|288:71|286:37,1,65.6000010009766,8|0,0:0|0:0,0:0:0:0:
132,195,226486,5,8,0:0:0:0:
349,220,226651,1,4,0:2:0:0:
349,220,228134,5,4,0:0:0:0:
332,222,228217,1,0,0:0:0:0:
316,224,228299,1,0,0:0:0:0:
406,148,228464,1,0,0:0:0:0:
385,326,228629,1,0,0:0:0:0:
367,324,228711,1,0,0:0:0:0:
350,322,228794,2,0,L|267:311,1,65.6000010009766,8|0,0:0|0:0,0:0:0:0:
141,298,229124,1,0,0:0:0:0:
207,363,229288,1,0,0:0:0:0:
220,249,229453,1,0,0:0:0:0:
60,348,229618,5,0,0:0:0:0:
72,160,229783,1,0,0:0:0:0:
235,251,229948,1,0,0:0:0:0:
251,253,230030,1,0,0:0:0:0:
267,255,230113,2,0,L|346:247,1,65.6000010009766,12|0,0:0|0:0,0:0:0:0:
226,103,230442,2,0,P|201:157|197:185,1,65.6000010009766,0|0,0:0|0:0,0:0:0:0:
247,342,230772,6,0,L|296:347,2,32.8000005004883
169,292,231102,1,0,0:0:0:0:
350,258,231266,1,0,0:0:0:0:
360,270,231349,1,0,0:0:0:0:
370,282,231431,2,0,L|461:288,1,65.6000010009766,12|0,0:1|0:0,0:0:0:0:
274,205,231761,2,0,L|193:210,1,65.6000010009766,0|0,0:0|0:0,0:0:0:0:
11,315,232091,5,8,0:0:0:0:
79,166,232255,1,0,0:0:0:0:
169,292,232420,1,8,0:0:0:0:
157,108,232585,6,0,L|166:35,1,65.6000010009766,8|8,0:0|0:0,0:0:0:0:
246,119,232915,2,0,L|256:38,1,65.6000010009766,8|8,0:0|0:0,0:0:0:0:
335,136,233244,1,8,0:0:0:0:
190,195,233409,6,0,L|142:202,7,27.9999991455078,6|0|0|0|0|0|0|0,0:0|0:0|0:0|0:0|0:0|0:0|0:0|0:0,0:0:0:0:
277,225,234069,1,0,0:0:0:0:
285,235,234151,1,0,0:0:0:0:
292,248,234233,1,0,0:0:0:0:
296,261,234316,1,0,0:0:0:0:
297,275,234398,1,2,0:0:0:0:
297,289,234481,1,0,0:0:0:0:
293,302,234563,1,2,0:0:0:0:
288,315,234645,1,0,0:0:0:0:
281,327,234728,6,0,L|288:376,3,27.9999991455078,8|0|0|0,0:0|0:0|0:0|0:0,0:0:0:0:
292,366,235058,2,0,P|328:374|364:370,1,55.9999982910157
446,293,235387,5,6,0:0:0:0:
455,278,235469,1,0,0:0:0:0:
461,262,235551,1,0,0:0:0:0:
461,245,235634,1,0,0:0:0:0:
458,228,235716,1,0,0:0:0:0:
451,212,235799,1,0,0:0:0:0:
449,195,235881,1,0,0:0:0:0:
451,178,235963,1,0,0:0:0:0:
477,130,236047,6,0,L|484:81,7,27.9999991455078,6|0|0|0|0|0|0|0,0:0|0:0|0:0|0:0|0:0|0:0|0:0|0:0,0:0:0:0:
443,18,236706,1,0,0:0:0:0:
430,11,236788,1,0,0:0:0:0:
416,7,236871,1,0,0:0:0:0:
402,6,236953,1,0,0:0:0:0:
388,9,237036,1,0,0:0:0:0:
376,16,237118,1,0,0:0:0:0:
365,25,237200,1,0,0:0:0:0:
359,37,237283,1,0,0:0:0:0:
352,49,237365,6,0,L|346:98,3,27.9999991455078,8|0|0|0,0:0|0:0|0:0|0:0,0:0:0:0:
344,90,237695,2,0,P|299:104|279:120,1,55.9999982910157,0|2,0:0|0:0,0:0:0:0:
224,206,238025,5,6,0:0:0:0:
208,200,238107,1,0,0:0:0:0:
191,197,238189,1,0,0:0:0:0:
174,198,238272,1,0,0:0:0:0:
158,203,238354,1,0,0:0:0:0:
143,210,238437,1,0,0:0:0:0:
130,221,238519,1,0,0:0:0:0:
120,234,238601,1,0,0:0:0:0:
88,277,238684,6,0,L|37:282,7,27.9999991455078,6|0|0|0|0|0|0|0,0:0|0:0|0:0|0:0|0:0|0:0|0:0|0:0,0:0:0:0:
165,326,239343,1,0,0:0:0:0:
178,328,239426,1,0,0:0:0:0:
191,330,239508,1,0,0:0:0:0:
204,332,239591,1,0,0:0:0:0:
217,334,239673,1,0,0:0:0:0:
230,337,239755,1,0,0:0:0:0:
243,339,239838,1,2,0:0:0:0:
256,341,239920,1,0,0:0:0:0:
269,343,240003,6,0,L|323:338,3,27.9999991455078,8|0|0|0,0:0|0:0|0:0|0:0,0:0:0:0:
310,338,240332,2,0,P|344:295|353:269,1,55.9999982910157,0|2,0:0|0:0,0:0:0:0:
368,156,240662,5,6,0:0:0:0:
356,143,240744,1,0,0:0:0:0:
343,132,240826,1,0,0:0:0:0:
329,123,240909,1,0,0:0:0:0:
314,116,240991,1,2,0:0:0:0:
298,110,241074,1,0,0:0:0:0:
282,107,241156,1,0,0:0:0:0:
265,105,241238,1,0,0:0:0:0:
230,126,241321,5,6,0:0:0:0:
216,126,241403,1,0,0:0:0:0:
202,127,241485,1,0,0:0:0:0:
188,127,241568,1,0,0:0:0:0:
174,128,241650,1,0,0:0:0:0:
160,129,241733,1,0,0:0:0:0:
146,129,241815,1,0,0:0:0:0:
132,130,241897,1,0,0:0:0:0:
118,131,241980,5,2,0:0:0:0:
37,84,242145,1,0,0:0:0:0:
31,96,242228,1,0,0:0:0:0:
25,108,242310,2,0,P|30:171|35:187,1,55.9999982910157,8|0,0:0|0:0,0:0:0:0:
223,254,242640,6,0,L|280:261,2,42.6666666666667,8|8|8,0:3|0:3|0:3,0:0:0:0:
136,224,242970,2,0,L|78:229,2,42.6666666666667,8|8|8,0:3|0:3|0:3,0:0:0:0:
247,159,243299,6,0,L|304:166,2,42.6666666666667,4|8|8,0:3|0:3|0:3,0:0:0:0:
160,129,243629,2,0,L|100:133,2,42.6666666666667,4|4|4,0:3|0:3|0:3,0:0:0:0:
269,67,243959,6,0,L|277:9,7,30.0000011444092,6|0|0|0|0|0|0|0,0:0|0:0|0:0|0:0|0:0|0:0|0:0|0:0,0:0:0:0:
362,18,244618,1,0,0:0:0:0:
370,30,244700,1,0,0:0:0:0:
378,43,244782,1,0,0:0:0:0:
384,56,244865,1,0,0:0:0:0:
388,71,244947,1,0,0:0:0:0:
389,86,245030,1,0,0:0:0:0:
387,101,245113,1,2,0:0:0:0:
385,115,245195,1,0,0:0:0:0:
382,129,245277,6,0,L|396:176,3,30.0000011444092,8|0|0|0,0:0|0:0|0:0|0:0,0:0:0:0:
397,171,245607,2,0,P|438:161|479:157,1,60.0000022888184,0|2,0:0|0:0,0:0:0:0:
457,280,245937,5,6,0:0:0:0:
442,269,246019,1,0,0:0:0:0:
425,262,246101,1,0,0:0:0:0:
408,257,246184,1,0,0:0:0:0:
390,255,246266,1,2,0:0:0:0:
372,257,246349,1,0,0:0:0:0:
355,261,246431,1,0,0:0:0:0:
338,268,246513,1,0,0:0:0:0:
302,305,246596,6,0,L|252:309,7,30.0000011444092,6|0|0|0|0|0|0|0,0:0|0:0|0:0|0:0|0:0|0:0|0:0|0:0,0:0:0:0:
196,251,247255,1,0,0:0:0:0:
182,247,247337,1,0,0:0:0:0:
168,244,247419,1,0,0:0:0:0:
153,241,247502,1,0,0:0:0:0:
138,237,247584,1,0,0:0:0:0:
123,234,247667,1,0,0:0:0:0:
108,231,247750,1,2,0:0:0:0:
93,227,247832,1,0,0:0:0:0:
78,223,247915,6,0,L|25:227,3,30.0000011444092,8|0|0|0,0:0|0:0|0:0|0:0,0:0:0:0:
34,219,248244,2,0,P|16:172|15:142,1,60.0000022888184,0|2,0:0|0:0,0:0:0:0:
142,96,248574,5,6,0:0:0:0:
151,111,248656,1,0,0:0:0:0:
163,124,248738,1,0,0:0:0:0:
178,134,248821,1,0,0:0:0:0:
194,142,248903,1,2,0:0:0:0:
212,146,248986,1,0,0:0:0:0:
230,147,249068,1,0,0:0:0:0:
247,144,249150,1,0,0:0:0:0:
294,114,249233,6,0,L|299:62,7,30.0000011444092,6|0|0|0|0|0|0|0,0:0|0:0|0:0|0:0|0:0|0:0|0:0|0:0,0:0:0:0:
344,190,249893,1,0,0:0:0:0:
349,203,249975,1,0,0:0:0:0:
353,218,250057,1,0,0:0:0:0:
354,233,250140,1,0,0:0:0:0:
355,248,250222,1,0,0:0:0:0:
355,263,250305,1,0,0:0:0:0:
353,277,250387,1,2,0:0:0:0:
349,291,250470,1,0,0:0:0:0:
342,304,250552,6,0,L|290:312,3,30.0000011444092,8|0|0|0,0:0|0:0|0:0|0:0,0:0:0:0:
299,317,250882,2,0,P|249:300|227:283,1,60.0000022888184,0|2,0:0|0:0,0:0:0:0:
205,188,251211,5,6,0:0:0:0:
188,194,251293,1,0,0:0:0:0:
170,197,251375,1,0,0:0:0:0:
152,197,251458,1,0,0:0:0:0:
134,193,251540,1,6,0:0:0:0:
118,186,251623,1,0,0:0:0:0:
103,176,251705,1,0,0:0:0:0:
90,164,251787,1,0,0:0:0:0:
80,119,251871,5,8,0:0:0:0:
84,95,251953,1,8,0:0:0:0:
88,71,252036,1,8,0:0:0:0:
93,47,252118,1,8,0:0:0:0:
98,23,252200,2,0,B|131:12|131:12|171:11,1,68.0000012969971,8|8,0:0|0:0,0:0:0:0:
287,143,252530,5,8,0:3:0:0:
307,146,252613,1,8,0:3:0:0:
326,149,252695,1,8,0:3:0:0:
345,152,252777,1,8,0:3:0:0:
365,155,252860,2,0,L|460:146,1,68.0000012969971,8|8,0:3|0:3,0:0:0:0:
207,87,253189,5,4,0:3:0:0:
200,102,253271,1,4,0:3:0:0:
194,118,253353,1,4,0:3:0:0:
190,135,253436,1,4,0:3:0:0:
188,152,253519,2,0,L|194:233,1,68.0000012969971,4|4,0:3|0:3,0:0:0:0:
314,333,253849,6,0,L|393:325,1,68.0000012969971,4|4,0:3|0:3,0:0:0:0:
194,373,254178,2,0,L|122:364,1,68.0000012969971,4|4,0:3|0:3,0:0:0:0:
284,233,254508,6,0,L|335:243,7,32,6|0|0|0|2|0|0|0,0:0|0:0|0:0|0:0|0:0|0:0|0:0|0:0,0:0:0:0:
193,219,255167,1,2,0:0:0:0:
177,221,255249,1,0,0:0:0:0:
161,225,255331,1,0,0:0:0:0:
146,229,255414,1,0,0:0:0:0:
131,234,255496,1,2,0:0:0:0:
116,240,255580,1,0,0:0:0:0:
101,247,255662,1,0,0:0:0:0:
87,255,255744,1,0,0:0:0:0:
73,263,255827,6,0,L|12:255,3,32,8|0|0|0,0:0|0:0|0:0|0:0,0:0:0:0:
26,252,256156,2,0,P|43:200|60:175,1,64,2|0,0:0|0:0,0:0:0:0:
130,104,256486,5,2,0:0:0:0:
131,84,256568,1,0,0:0:0:0:
138,67,256650,1,0,0:0:0:0:
151,53,256733,1,0,0:0:0:0:
168,43,256815,1,2,0:0:0:0:
186,40,256898,1,0,0:0:0:0:
205,44,256980,1,0,0:0:0:0:
222,53,257062,1,0,0:0:0:0:
266,84,257145,6,0,L|312:88,7,32,2|0|0|0|2|0|0|0,0:0|0:0|0:0|0:0|0:0|0:0|0:0|0:0,0:0:0:0:
372,35,257805,1,2,0:0:0:0:
388,26,257887,1,0,0:0:0:0:
407,23,257969,1,0,0:0:0:0:
426,28,258052,1,0,0:0:0:0:
441,39,258134,1,2,0:0:0:0:
449,52,258217,1,0,0:0:0:0:
451,67,258299,1,0,0:0:0:0:
450,83,258382,1,0,0:0:0:0:
444,97,258464,6,0,L|449:159,3,32,8|0|0|0,0:0|0:0|0:0|0:0,0:0:0:0:
449,144,258794,2,0,P|492:163|534:162,1,64,2|2,0:0|0:0,0:0:0:0:
356,189,259124,5,2,0:0:0:0:
367,204,259206,1,0,0:0:0:0:
377,220,259288,1,0,0:0:0:0:
385,238,259371,1,0,0:0:0:0:
390,256,259453,1,2,0:0:0:0:
393,275,259536,1,0,0:0:0:0:
394,294,259618,1,0,0:0:0:0:
391,313,259700,1,0,0:0:0:0:
354,354,259783,6,0,L|309:361,7,32,2|0|0|0|2|0|0|0,0:0|0:0|0:0|0:0|0:0|0:0|0:0|0:0,0:0:0:0:
245,302,260442,1,2,0:0:0:0:
229,296,260525,1,0,0:0:0:0:
213,293,260607,1,0,0:0:0:0:
197,293,260689,1,0,0:0:0:0:
180,294,260772,1,2,0:0:0:0:
164,297,260854,1,0,0:0:0:0:
149,302,260937,1,0,0:0:0:0:
135,310,261019,1,0,0:0:0:0:
122,320,261102,6,0,L|63:324,3,32,8|0|0|0,0:0|0:0|0:0|0:0,0:0:0:0:
74,318,261431,2,0,P|47:269|45:237,1,64,2|2,0:0|0:0,0:0:0:0:
135,180,261761,5,2,0:0:0:0:
149,167,261843,1,0,0:0:0:0:
165,157,261925,1,0,0:0:0:0:
183,149,262008,1,0,0:0:0:0:
201,145,262090,1,2,0:0:0:0:
221,144,262173,1,0,0:0:0:0:
240,147,262255,1,0,0:0:0:0:
258,153,262337,1,0,0:0:0:0:
297,187,262420,5,2,0:0:0:0:
312,189,262503,1,0,0:0:0:0:
327,191,262585,1,0,0:0:0:0:
342,193,262667,1,0,0:0:0:0:
357,195,262750,2,0,L|415:190,3,32,2|0|0|0,0:0|0:0|0:0|0:0,0:0:0:0:
431,277,263080,1,2,0:0:0:0:
412,280,263162,1,0,0:0:0:0:
393,283,263244,1,0,0:0:0:0:
373,286,263327,1,0,0:0:0:0:
354,289,263409,2,0,L|301:285,3,32,2|0|0|0,0:0|0:0|0:0|0:0,0:0:0:0:
266,279,263739,5,8,0:0:0:0:
237,366,263904,1,8,0:0:0:0:
190,223,264069,5,8,0:0:0:0:
151,339,264233,1,8,0:0:0:0:
113,171,264398,5,8,0:0:0:0:
66,313,264563,1,8,0:0:0:0:
34,123,264728,6,0,B|42:82|42:82|68:33,1,80,8|2,0:0|0:0,0:0:0:0:
275,186,265059,6,0,B|313:201|344:191|344:191|360:198|360:198|437:186|486:247,1,207.999990478516,6|0,0:0|0:0,0:0:0:0:
202,335,266059,2,0,L|135:339,1,51.999997619629,2|2,0:0|0:0,0:0:0:0:
66,313,266392,1,12,0:0:0:0:
228,107,266725,5,6,0:0:0:0:
293,364,267059,1,6,0:0:0:0:
122,191,267392,1,6,0:2:0:0:
122,191,267725,6,0,B|154:160|194:151|194:151|232:162|232:162|274:141|339:142,1,207.999990478516,6|0,0:0|0:0,0:0:0:0:
59,92,268725,2,0,P|44:120|38:151,1,51.999997619629,2|2,0:0|0:0,0:0:0:0:
37,232,269059,1,12,0:0:0:0:
395,193,269392,5,2,0:0:0:0:
200,298,269725,1,8,0:0:0:0:
173,208,269892,1,8,0:0:0:0:
264,233,270059,1,8,0:0:0:0:
264,233,270392,6,0,B|204:192|210:134|210:134|239:99|239:99|252:42,1,207.999990478516,6|0,0:0|0:0,0:0:0:0:
17,63,271392,2,0,L|83:61,1,51.999997619629,2|2,0:0|0:0,0:0:0:0:
159,56,271725,1,8,0:0:0:0:
114,142,271892,6,0,P|72:151|49:162,2,51.999997619629,0|2|0,0:0|0:0|0:0,0:0:0:0:
207,175,272392,1,8,0:0:0:0:
207,175,272559,1,8,0:0:0:0:
295,140,272725,1,8,0:0:0:0:
295,140,272892,1,8,0:0:0:0:
284,232,273059,5,8,0:0:0:0:
284,232,273225,2,0,L|366:239,1,68.0000012969971,2|2,0:0|0:0,0:0:0:0:
446,223,273559,1,8,0:0:0:0:
446,223,273725,1,0,0:0:0:0:
417,314,273892,5,2,0:0:0:0:
326,324,274059,1,2,0:0:0:0:
236,334,274225,1,8,0:0:0:0:
145,345,274392,5,8,0:0:0:0:
145,345,274559,2,0,P|90:332|64:329,1,68.0000012969971,2|2,0:0|0:0,0:0:0:0:
178,257,274892,1,8,0:0:0:0:
178,257,275059,6,0,P|166:207|168:171,1,71.9999978027344,8|2,0:0|0:0,0:0:0:0:
267,70,275392,2,0,P|260:127|250:156,1,75.9999979705811,2|0,0:0|0:0,0:0:0:0:
13,139,275725,6,0,P|52:77|179:101,1,207.999990478516,6|0,0:0|0:0,0:0:0:0:
245,325,276725,2,0,L|318:318,1,51.999997619629,2|2,0:0|0:0,0:0:0:0:
380,288,277059,1,12,0:0:0:0:
165,265,277392,5,2,0:0:0:0:
391,384,277725,1,6,0:0:0:0:
190,175,278059,1,6,0:2:0:0:
190,175,278392,6,0,B|279:164|279:164|310:174|310:174|356:167|405:198,1,207.999990478516,6|0,0:0|0:0,0:0:0:0:
165,265,279392,2,0,L|108:258,2,34.6666650797527,8|8|8,0:0|0:0|0:0,0:0:0:0:
254,279,279725,1,2,0:0:0:0:
133,100,280059,2,0,L|76:107,2,34.6666650797527,8|8|8,0:0|0:0|0:0,0:0:0:0:
222,86,280392,1,2,0:0:0:0:
109,338,280725,2,0,L|52:331,2,34.6666650797527,8|8|8,0:0|0:0|0:0,0:0:0:0:
198,352,281059,6,0,B|219:299|219:299|211:253|211:253|221:199|277:173,1,207.999990478516,6|0,0:0|0:0,0:0:0:0:
468,305,282059,2,0,P|454:264|450:234,1,51.999997619629,2|2,0:0|0:0,0:0:0:0:
459,165,282392,1,12,0:0:0:0:
401,91,282559,6,0,L|337:87,2,51.999997619629,0|0|0,0:0|0:0|0:0,0:0:0:0:
371,178,283059,2,0,L|296:184,1,64,6|0,0:0|0:0,0:0:0:0:
168,124,283392,2,0,P|197:128|226:137,1,60.0000022888184,6|0,0:0|0:0,0:0:0:0:
166,379,283725,6,0,B|147:345|147:345|144:282,1,74.6666643880209,6|8,0:2|0:3,0:0:0:0:
205,235,284059,2,0,L|247:231,2,37.3333321940105,8|8|8,0:3|0:3|0:3,0:0:0:0:
115,220,284392,2,0,L|58:226,2,37.3333321940105,8|8|8,0:3|0:3|0:3,0:0:0:0:
176,146,284725,2,0,L|218:142,2,37.3333321940105,8|8|8,0:3|0:3|0:3,0:0:0:0:
90,98,285059,6,0,P|80:71|79:34,2,37.3333321940105,4|8|8,0:3|0:3|0:3,0:0:0:0:
172,52,285392,2,0,P|171:23|183:-11,2,37.3333321940105,4|4|4,0:3|0:3|0:3,0:0:0:0:
259,40,285725,2,0,P|268:12|291:-16,2,37.3333321940105,4|8|8,0:3|0:3|0:3,0:0:0:0:
349,56,286059,2,0,P|367:33|398:14,2,37.3333321940105,4|4|4,0:3|0:3|0:3,0:0:0:0:
290,132,286392,6,0,B|349:147|349:147|404:132|404:132|469:154,1,176.000005371094,6|4,0:0|0:0,0:0:0:0:
265,302,287392,2,0,L|207:305,1,44.0000013427735,2|2,0:0|0:0,0:0:0:0:
133,276,287725,2,0,B|115:234|115:234|118:175,1,88.000002685547,12|0,0:0|0:0,0:0:0:0:
340,245,288392,2,0,B|358:287|358:287|355:346,1,88.000002685547,6|0,0:0|0:0,0:0:0:0:
26,206,289059,6,0,P|114:150|200:142,1,176.000005371094,6|4,0:0|0:0,0:0:0:0:
183,140,290225,1,0,0:0:0:0:
282,158,290392,6,0,B|326:156|326:156|383:134,1,88.000002685547,12|2,0:0|0:0,0:0:0:0:
107,89,291059,2,0,B|92:132|92:132|95:176,1,88.000002685547,6|4,0:0|0:0,0:0:0:0:
193,374,291725,6,0,L|183:179,1,176.000005371094,6|4,0:0|0:0,0:0:0:0:
370,18,292725,2,0,L|362:75,1,44.0000013427735,2|2,0:0|0:0,0:0:0:0:
385,150,293059,2,0,B|428:136|428:136|489:134,1,88.000002685547,6|0,0:0|0:0,0:0:0:0:
225,192,293725,2,0,B|202:154|202:154|194:96,1,88.000002685547,6|0,0:0|0:0,0:0:0:0:
352,319,294392,5,6,0:0:0:0:
352,319,294725,2,0,L|288:322,1,44.0000013427735,2|2,0:0|0:0,0:0:0:0:
224,292,295058,2,0,P|176:276|164:275,1,44.0000013427735,12|2,0:0|0:0,0:0:0:0:
100,320,295392,2,0,L|94:374,1,44.0000013427735,2|2,0:0|0:0,0:0:0:0:
26,265,295725,6,0,B|61:239|61:239|111:226,1,88.000002685547,12|2,0:0|0:0,0:0:0:0:
332,123,296392,2,0,B|292:104|292:104|234:95,1,88.000002685547,12|2,0:0|0:0,0:0:0:0:
352,319,297058,6,0,L|408:322,2,37.3333321940105,2|2|2,0:0|0:0|0:0,0:0:0:0:
373,231,297392,2,0,L|429:234,2,37.3333321940105,2|2|2,0:0|0:0|0:0,0:0:0:0:
282,209,297725,1,2,0:0:0:0:
262,219,297836,2,0,L|203:224,1,37.3333321940105,2|2,0:0|0:0,0:0:0:0:
143,179,298058,2,0,P|101:169|75:167,2,37.3333321940105,2|2|2,0:0|0:0|0:0,0:0:0:0:
168,300,298392,5,8,0:0:0:0:
148,311,298503,2,0,L|83:317,1,37.3333321940105,2|2,0:0|0:0,0:0:0:0:
10,199,298725,1,2,0:0:0:0:
25,215,298836,2,0,P|43:266|45:284,1,37.3333321940105,2|2,0:0|0:0,0:0:0:0:
143,179,299058,5,2,0:0:0:0:
155,160,299170,1,2,0:0:0:0:
167,141,299281,1,2,0:0:0:0:
180,123,299392,2,0,P|205:113|244:108,2,37.3333321940105,2|2|2,0:0|0:0|0:0,0:0:0:0:
83,107,299725,6,0,L|29:100,2,37.3333321940105,2|2|2,0:0|0:0|0:0,0:0:0:0:
115,22,300058,2,0,L|61:14,2,37.3333321940105,2|2|2,0:0|0:0|0:0,0:0:0:0:
207,8,300392,1,2,0:0:0:0:
227,17,300503,2,0,L|281:23,1,37.3333321940105,2|2,0:0|0:0,0:0:0:0:
351,56,300725,2,0,P|394:48|412:48,2,37.3333321940105,2|2|2,0:0|0:0|0:0,0:0:0:0:
264,166,301058,5,8,0:0:0:0:
278,182,301170,2,0,L|335:187,1,37.3333321940105,2|2,0:0|0:0,0:0:0:0:
405,163,301392,2,0,P|413:143|435:114,2,37.3333321940105,2|2|2,0:0|0:0|0:0,0:0:0:0:
373,283,301725,5,2,0:0:0:0:
350,279,301836,1,2,0:0:0:0:
327,275,301947,1,2,0:0:0:0:
304,271,302058,2,0,P|276:274|240:282,2,37.3333321940105,2|2|2,0:0|0:0|0:0,0:0:0:0:
305,366,302392,5,2,0:0:0:0:
286,370,302503,2,0,L|229:380,1,37.3333321940105,2|0,0:0|0:0,0:0:0:0:
168,331,302725,2,0,P|166:314|163:289,2,37.3333321940105,2|2|2,0:0|0:0|0:0,0:0:0:0:
83,375,303058,1,2,0:0:0:0:
65,360,303170,2,0,P|46:313|43:297,1,37.3333321940105,2|2,0:0|0:0,0:0:0:0:
81,234,303392,1,2,0:0:0:0:
87,212,303503,2,0,L|92:152,1,37.3333321940105,2|2,0:0|0:0,0:0:0:0:
30,48,303725,5,8,0:0:0:0:
46,62,303836,2,0,L|101:68,1,37.3333321940105,2|2,0:0|0:0,0:0:0:0:
173,24,304058,2,0,P|221:3|236:0,2,37.3333321940105,2|2|2,0:0|0:0|0:0,0:0:0:0:
181,147,304392,5,2,0:0:0:0:
200,158,304503,1,2,0:0:0:0:
219,169,304614,1,2,0:0:0:0:
238,180,304725,2,0,L|304:172,2,37.3333321940105,2|2|2,0:0|0:0|0:0,0:0:0:0:
190,281,305058,5,2,0:0:0:0:
211,273,305170,2,0,L|281:279,1,37.3333321940105,2|2,0:0|0:0,0:0:0:0:
333,320,305392,2,0,L|348:371,2,37.3333321940105,2|2|2,0:0|0:0|0:0,0:0:0:0:
412,272,305725,2,0,L|452:310,2,37.3333321940105,2|2|2,0:0|0:0|0:0,0:0:0:0:
450,188,306058,2,0,L|508:197,2,37.3333321940105,2|2|2,0:0|0:0|0:0,0:0:0:0:
315,142,306392,5,8,0:0:0:0:
306,121,306503,2,0,L|299:61,1,37.3333321940105,2|2,0:0|0:0,0:0:0:0:
367,12,306725,2,0,P|394:15|413:21,2,37.3333321940105,2|2|2,0:0|0:0|0:0,0:0:0:0:
207,82,307058,5,8,0:0:0:0:
321,235,307392,1,2,0:0:0:0:
46,300,307725,5,6,0:0:0:0:
256,192,307808,12,0,311225,0:0:0:0:
157,326,311725,6,0,L|60:320,1,80,12|2,0:0|0:0,0:0:0:0:
281,244,312022,2,0,B|321:256|321:256|370:292,1,80,8|2,0:0|0:0,0:0:0:0:
143,177,312319,1,8,0:0:0:0:
138,149,312393,1,0,0:0:0:0:
146,122,312467,1,2,0:0:0:0:
166,102,312541,1,0,0:0:0:0:
193,94,312616,1,8,0:0:0:0:
283,118,312764,1,2,0:0:0:0:
372,58,312913,6,0,L|375:10,3,40,8|0|2|0,0:0|0:0|0:0|0:0,0:0:0:0:
457,101,313210,2,0,L|472:52,3,40,8|0|2|0,0:0|0:0|0:0|0:0,0:0:0:0:
378,152,313507,5,8,0:0:0:0:
365,185,313581,1,0,0:0:0:0:
360,212,313655,1,2,0:0:0:0:
364,243,313729,1,0,0:0:0:0:
377,272,313804,5,8,0:0:0:0:
378,299,313878,1,0,0:0:0:0:
369,325,313952,1,2,0:0:0:0:
349,345,314026,1,0,0:0:0:0:
322,353,314101,6,0,L|219:345,1,80,8|2,0:0|0:0,0:0:0:0:
454,215,314398,2,0,B|483:242|483:242|522:308,1,80,8|2,0:0|0:0,0:0:0:0:
265,242,314695,1,8,0:0:0:0:
246,221,314769,1,0,0:0:0:0:
221,207,314843,1,2,0:0:0:0:
192,203,314918,1,0,0:0:0:0:
165,210,314992,1,8,0:0:0:0:
125,296,315140,1,2,0:0:0:0:
74,174,315289,5,8,0:0:0:0:
68,146,315363,1,0,0:0:0:0:
72,118,315437,1,2,0:0:0:0:
86,93,315512,1,0,0:0:0:0:
109,77,315586,2,0,L|178:64,3,40,8|0|2|0,0:0|0:0|0:0|0:0,0:0:0:0:
242,104,315883,5,8,0:0:0:0:
273,107,315957,1,0,0:0:0:0:
304,110,316031,1,2,0:0:0:0:
336,114,316106,1,0,0:0:0:0:
367,118,316180,1,8,0:0:0:0:
448,173,316328,1,2,0:0:0:0:
428,192,316403,1,2,0:0:0:0:
415,216,316477,6,0,L|406:324,1,80,12|2,0:0|0:0,0:0:0:0:
458,80,316774,2,0,B|432:49|432:49|372:15,1,80,8|2,0:0|0:0,0:0:0:0:
242,104,317071,1,8,0:0:0:0:
214,109,317145,1,0,0:0:0:0:
185,109,317220,1,2,0:0:0:0:
158,99,317294,1,0,0:0:0:0:
135,82,317368,1,8,0:0:0:0:
206,17,317517,1,2,0:0:0:0:
226,203,317665,6,0,L|234:266,3,40,8|0|2|0,0:0|0:0|0:0|0:0,0:0:0:0:
138,251,317962,2,0,L|133:312,3,40,8|0|2|0,0:0|0:0|0:0|0:0,0:0:0:0:
206,351,318259,5,8,0:0:0:0:
234,336,318333,1,0,0:0:0:0:
265,330,318408,1,2,0:0:0:0:
296,329,318482,1,0,0:0:0:0:
322,336,318556,5,8,0:0:0:0:
349,339,318630,1,0,0:0:0:0:
377,336,318705,1,2,0:0:0:0:
403,326,318779,1,0,0:0:0:0:
418,302,318853,6,0,L|423:210,1,80,12|2,0:0|0:0,0:0:0:0:
322,53,319150,2,0,L|256:64,1,40,8|0,0:0|0:0,0:0:0:0:
413,74,319299,2,0,L|477:79,1,40,2|0,0:0|0:0,0:0:0:0:
349,142,319447,2,0,L|243:157,1,80,8|2,0:0|0:0,0:0:0:0:
141,69,319744,1,8,0:0:0:0:
161,88,319819,1,0,0:0:0:0:
173,113,319893,1,2,0:0:0:0:
175,140,319967,1,0,0:0:0:0:
170,167,320041,5,8,0:0:0:0:
17,192,320190,1,6,0:0:0:0:
115,309,320338,1,8,0:0:0:0:
146,317,320413,1,0,0:0:0:0:
176,326,320487,1,2,0:0:0:0:
34,361,320635,2,0,P|22:321|31:257,1,80,8|2,0:0|0:0,0:0:0:0:
251,219,320932,2,0,B|355:226,1,80,12|2,0:0|0:0,0:0:0:0:
96,41,321229,6,0,B|75:78|75:78|66:148,1,84.8000001293945,12|2,0:0|0:0,0:0:0:0:
176,326,321526,2,0,L|274:315,1,84.8000001293945,8|2,0:0|0:0,0:0:0:0:
259,133,321824,1,8,0:0:0:0:
230,130,321898,1,0,0:0:0:0:
202,139,321972,1,2,0:0:0:0:
179,158,322046,1,0,0:0:0:0:
166,184,322121,1,8,0:0:0:0:
251,219,322269,1,2,0:0:0:0:
341,85,322418,6,0,L|345:35,3,42.4000000646973,8|0|2|0,0:0|0:0|0:0|0:0,0:0:0:0:
375,175,322715,2,0,L|380:219,3,42.4000000646973,8|0|2|2,0:0|0:0|0:0|0:0,0:0:0:0:
432,99,323012,1,8,0:0:0:0:
460,117,323086,1,0,0:0:0:0:
482,142,323160,1,2,0:0:0:0:
497,173,323234,1,0,0:0:0:0:
504,206,323309,1,8,0:0:0:0:
472,295,323457,1,2,0:0:0:0:
442,299,323531,1,2,0:0:0:0:
412,303,323606,6,0,B|310:299,1,84.8000001293945,8|2,0:0|0:0,0:0:0:0:
166,184,323903,2,0,B|122:188|122:188|53:218,1,84.8000001293945,8|2,0:0|0:0,0:0:0:0:
229,369,324200,1,8,0:0:0:0:
231,339,324274,1,0,0:0:0:0:
233,309,324348,1,2,0:0:0:0:
236,280,324422,1,0,0:0:0:0:
238,250,324497,1,8,0:0:0:0:
257,159,324645,1,2,0:0:0:0:
146,279,324794,5,8,0:0:0:0:
116,282,324868,1,0,0:0:0:0:
86,285,324942,1,2,0:0:0:0:
56,289,325017,1,0,0:0:0:0:
26,293,325091,2,0,L|-36:288,3,42.4000000646973,8|0|2|2,0:0|0:0|0:0|0:0,0:0:0:0:
54,201,325388,5,8,0:0:0:0:
62,168,325462,1,0,0:0:0:0:
59,134,325536,1,2,0:0:0:0:
45,102,325611,1,0,0:0:0:0:
28,77,325685,1,8,0:0:0:0:
140,27,325833,1,2,0:0:0:0:
135,56,325908,1,2,0:0:0:0:
131,85,325982,6,0,B|173:70|173:70|243:65,1,84.8000001293945,8|2,0:0|0:0,0:0:0:0:
368,227,326279,2,0,B|409:244|409:244|485:250,1,84.8000001293945,8|2,0:0|0:0,0:0:0:0:
367,27,326576,1,8,0:0:0:0:
349,50,326650,1,0,0:0:0:0:
341,78,326725,1,2,0:0:0:0:
337,107,326799,1,0,0:0:0:0:
340,136,326873,1,8,0:0:0:0:
431,153,327022,1,2,0:0:0:0:
273,209,327170,6,0,L|197:217,3,42.4000000646973,8|0|2|0,0:0|0:0|0:0|0:0,0:0:0:0:
302,300,327467,2,0,L|230:321,3,42.4000000646973,8|0|2|0,0:0|0:0|0:0|0:0,0:0:0:0:
368,227,327764,5,8,0:0:0:0:
368,193,327838,1,0,0:0:0:0:
355,161,327913,1,2,0:0:0:0:
334,133,327987,1,0,0:0:0:0:
303,117,328061,5,8,0:0:0:0:
273,112,328135,1,0,0:0:0:0:
244,104,328210,1,2,0:0:0:0:
218,88,328284,1,0,0:0:0:0:
200,56,328358,6,0,L|194:0,3,40,8|8|8|8,0:0|0:0|0:0|0:0,0:0:0:0:
129,116,328655,2,0,P|111:164|112:215,1,80,2|8,0:0|0:3,0:0:0:0:
117,219,328878,1,8,0:3:0:0:
125,245,328952,2,0,L|212:248,1,80,8|4,0:3|0:3,0:0:0:0:
463,183,329249,2,0,L|526:176,3,40,8|8|8|8,0:0|0:0|0:0|0:0,0:0:0:0:
374,222,329546,5,4,0:3:0:0:
364,252,329621,1,4,0:3:0:0:
358,283,329695,1,8,0:3:0:0:
357,314,329769,1,8,0:3:0:0:
361,345,329843,1,4,0:3:0:0:
273,384,329992,1,4,0:3:0:0:
184,343,330140,1,4,0:3:0:0:
254,247,330289,1,4,0:3:0:0:
259,270,330363,1,4,0:3:0:0:
264,293,330437,2,0,L|278:188,1,80,8|0,0:0|0:0,0:0:0:0:
147,0,330734,6,0,B|131:42|131:42|138:117,1,89.60000109375,6|8,0:0|0:0,0:0:0:0:
330,133,331031,2,0,L|389:128,2,44.800000546875,2|0|8,0:0|0:0|0:0,0:0:0:0:
103,207,331328,1,2,0:0:0:0:
94,236,331402,1,0,0:0:0:0:
95,268,331476,1,8,0:0:0:0:
107,296,331550,1,0,0:0:0:0:
127,321,331625,1,2,0:0:0:0:
154,337,331699,1,2,0:0:0:0:
184,343,331773,1,8,0:0:0:0:
285,226,331923,5,2,0:0:0:0:
190,250,332071,1,8,0:0:0:0:
325,315,332220,1,2,0:0:0:0:
356,318,332294,1,2,0:0:0:0:
387,321,332368,1,8,0:0:0:0:
456,252,332517,5,2,0:0:0:0:
429,227,332591,1,0,0:0:0:0:
417,193,332665,1,8,0:0:0:0:
417,157,332739,1,0,0:0:0:0:
435,125,332814,2,0,L|488:120,3,44.800000546875,2|2|8|0,0:0|0:0|0:0|0:0,0:0:0:0:
364,59,333111,6,0,B|326:36|326:36|256:24,1,89.60000109375,2|8,0:0|0:0,0:0:0:0:
78,134,333408,2,0,L|-2:141,2,44.800000546875,2|2|8,0:0|0:0|0:0,0:0:0:0:
265,125,333705,1,2,0:0:0:0:
295,132,333779,1,0,0:0:0:0:
321,151,333853,1,8,0:0:0:0:
337,177,333927,1,0,0:0:0:0:
342,208,334002,1,2,0:0:0:0:
335,238,334076,1,2,0:0:0:0:
316,264,334150,1,8,0:0:0:0:
157,252,334299,5,2,0:0:0:0:
233,316,334447,1,8,0:0:0:0:
171,158,334596,1,2,0:0:0:0:
140,150,334670,1,2,0:0:0:0:
109,144,334744,1,8,0:0:0:0:
45,314,334893,5,2,0:0:0:0:
71,291,334967,1,0,0:0:0:0:
79,257,335041,1,8,0:0:0:0:
65,225,335115,1,0,0:0:0:0:
36,203,335190,2,0,L|-32:194,3,44.800000546875,2|2|8|0,0:0|0:0|0:0|0:0,0:0:0:0:
109,144,335487,6,0,B|149:125|149:125|230:117,1,89.60000109375,6|8,0:0|0:0,0:0:0:0:
433,209,335784,2,0,L|437:274,2,44.800000546875,2|0|8,0:0|0:0|0:0,0:0:0:0:
312,84,336081,1,2,0:0:0:0:
295,110,336155,1,0,0:0:0:0:
291,141,336229,1,8,0:0:0:0:
298,171,336304,1,0,0:0:0:0:
303,201,336378,1,2,0:0:0:0:
297,231,336452,1,2,0:0:0:0:
284,259,336526,1,8,0:0:0:0:
132,261,336675,5,2,0:0:0:0:
210,198,336824,1,8,0:0:0:0:
262,353,336972,1,2,0:0:0:0:
292,357,337046,1,2,0:0:0:0:
323,361,337121,1,8,0:0:0:0:
169,360,337269,5,2,0:0:0:0:
284,259,337418,1,8,0:0:0:0:
169,360,337566,2,0,L|73:364,1,89.60000109375,6|8,0:0|0:0,0:0:0:0:
105,138,337863,6,0,P|159:144|204:171,1,89.60000109375,2|8,0:0|0:0,0:0:0:0:
200,179,338086,1,8,0:0:0:0:
210,198,338160,1,8,0:0:0:0:
326,135,338309,1,8,0:0:0:0:
408,230,338457,5,2,0:0:0:0:
429,235,338531,1,8,0:0:0:0:
450,240,338606,1,8,0:0:0:0:
314,119,338754,1,2,0:0:0:0:
331,291,338903,1,8,0:0:0:0:
348,305,338977,1,8,0:0:0:0:
364,316,339051,6,0,L|462:334,1,80,2|8,0:0|0:0,0:0:0:0:
247,240,339348,2,0,B|228:278|228:278|224:320,1,80,8|8,0:0|0:0,0:0:0:0:
419,140,339645,6,0,P|409:78|383:38,1,92.0000017547608,8|8,0:0|0:0,0:0:0:0:
152,212,339942,2,0,L|32:219,1,92.0000017547608,8|8,0:0|0:0,0:0:0:0:
209,19,340239,6,0,B|259:29|259:29|310:65,1,99.1999960644533,6|8,0:0|0:0,0:0:0:0:
395,233,340536,2,0,L|455:243,2,49.5999980322266,2|0|8,0:0|0:0|0:0,0:0:0:0:
240,121,340833,1,2,0:0:0:0:
206,129,340907,1,2,0:0:0:0:
178,149,340981,1,8,0:0:0:0:
159,178,341055,1,0,0:0:0:0:
152,212,341130,1,2,0:0:0:0:
157,246,341204,1,0,0:0:0:0:
174,276,341278,1,8,0:0:0:0:
338,252,341427,5,2,0:0:0:0:
248,212,341576,1,8,0:0:0:0:
275,367,341725,1,2,0:0:0:0:
308,373,341799,1,0,0:0:0:0:
342,381,341873,1,8,0:0:0:0:
174,276,342022,5,2,0:0:0:0:
134,282,342096,1,2,0:0:0:0:
94,288,342170,1,8,0:0:0:0:
54,294,342244,1,0,0:0:0:0:
14,301,342319,2,0,L|7:372,3,49.5999980322266,2|0|8|0,0:0|0:0|0:0|0:0,0:0:0:0:
32,206,342616,6,0,B|74:178|74:178|168:160,1,99.1999960644533,6|8,0:0|0:0,0:0:0:0:
292,235,342913,2,0,L|297:312,2,49.5999980322266,2|0|8,0:0|0:0|0:0,0:0:0:0:
308,14,343210,1,2,0:0:0:0:
341,23,343284,1,2,0:0:0:0:
363,49,343358,1,8,0:0:0:0:
372,82,343432,1,0,0:0:0:0:
365,116,343507,1,2,0:0:0:0:
363,150,343581,1,0,0:0:0:0:
373,182,343655,1,8,0:0:0:0:
512,214,343804,5,2,0:0:0:0:
456,134,343952,1,8,0:0:0:0:
426,262,344101,1,2,0:0:0:0:
422,296,344175,1,0,0:0:0:0:
418,330,344249,1,8,0:0:0:0:
290,234,344398,5,2,0:0:0:0:
260,207,344472,1,2,0:0:0:0:
224,191,344546,1,8,0:0:0:0:
185,187,344620,1,0,0:0:0:0:
146,195,344695,2,0,L|70:187,3,49.5999980322266,2|0|8|0,0:0|0:0|0:0|0:0,0:0:0:0:
204,283,344992,6,0,B|219:333|219:333|215:395,1,99.1999960644533,6|8,0:0|0:0,0:0:0:0:
16,241,345289,2,0,P|7:217|0:171,2,49.5999980322266,2|0|8,0:0|0:0|0:0,0:0:0:0:
290,234,345586,1,2,0:0:0:0:
311,207,345660,1,2,0:0:0:0:
322,174,345734,1,8,0:0:0:0:
319,140,345808,1,0,0:0:0:0:
304,109,345883,1,2,0:0:0:0:
279,85,345957,1,0,0:0:0:0:
247,72,346031,1,8,0:0:0:0:
146,195,346180,5,2,0:0:0:0:
230,166,346328,1,8,0:0:0:0:
74,134,346477,1,2,0:0:0:0:
39,138,346551,1,0,0:0:0:0:
4,144,346625,1,8,0:0:0:0:
129,54,346774,5,2,0:0:0:0:
154,84,346848,1,0,0:0:0:0:
167,121,346922,1,8,0:0:0:0:
167,160,346996,1,0,0:0:0:0:
146,195,347071,2,0,P|120:214|90:244,3,49.5999980322266,6|0|8|0,0:0|0:0|0:0|0:0,0:0:0:0:
261,163,347368,6,0,B|283:119|283:119|284:32,1,99.1999960644533,6|8,0:0|0:0,0:0:0:0:
74,134,347665,2,0,L|5:141,2,49.5999980322266,2|0|8,0:0|0:0|0:0,0:0:0:0:
223,251,347962,1,2,0:0:0:0:
117,313,348111,1,8,0:0:0:0:
83,317,348185,1,8,0:0:0:0:
49,322,348259,1,8,0:0:0:0:
146,195,348408,1,8,0:0:0:0:
292,372,348556,5,2,0:0:0:0:
236,160,348705,1,8,0:0:0:0:
194,375,348853,5,8,0:0:0:0:
325,197,349002,1,8,0:0:0:0:
146,195,349150,5,8,0:0:0:0:
366,288,349299,1,8,0:0:0:0:
162,99,349447,5,8,0:0:0:0:
292,372,349596,1,8,0:0:0:0:
325,197,349744,6,0,L|330:106,1,71.9999978027344,0|0,0:0|0:0,0:0:0:0:
146,195,350081,2,0,L|149:291,1,71.9999978027344,0|0,0:0|0:0,0:0:0:0:
418,210,350418,1,4,0:0:0:0:
256,192,350502,12,0,351766,0:0:0:0:
229,124,352440,6,0,P|172:137|143:153,1,71.9999978027344,0|0,0:0|0:0,0:0:0:0:
322,252,352777,2,0,P|400:269|426:269,1,71.9999978027344,0|0,0:0|0:0,0:0:0:0:
285,50,353114,1,4,0:0:0:0:
256,192,353199,12,0,354547,0:0:0:0:
204,162,355137,6,0,L|195:258,1,71.9999978027344,0|0,0:0|0:0,0:0:0:0:
401,311,355474,2,0,L|392:227,1,71.9999978027344,0|0,0:0|0:0,0:0:0:0:
152,80,355811,1,4,0:0:0:0:
256,192,355895,12,0,357244,0:0:0:0:
103,200,357833,6,0,P|146:179|194:172,1,71.9999978027344,0|0,0:0|0:0,0:0:0:0:
432,253,358170,2,0,P|380:238|329:236,1,71.9999978027344,0|0,0:0|0:0,0:0:0:0:
99,364,358508,1,4,0:0:0:0:
256,192,358592,12,0,359940,0:0:0:0:
238,89,360530,6,0,B|183:84|183:84|109:108,2,106.666666666667,0|0|0,0:0|0:0|0:0,0:0:0:0:
438,228,361330,1,4,0:0:0:0:
256,192,361430,12,0,365430,0:0:0:0:
256,192,366130,6,0,L|183:201,1,55.9999982910157,0|0,0:0|0:0,0:0:0:0:
124,156,366581,1,0,0:0:0:0:
124,156,366806,2,0,P|93:200|80:271,1,111.999996582031,0|0,0:0|0:0,0:0:0:0:
135,334,367483,2,0,L|207:341,1,55.9999982910157,0|0,0:0|0:0,0:0:0:0:
277,302,367934,1,0,0:0:0:0:
277,302,368611,5,0,0:0:0:0:
349,365,368836,1,0,0:0:0:0:
439,335,369062,1,0,0:0:0:0:
383,182,369287,5,0,0:0:0:0:
367,272,369513,1,0,0:0:0:0:
467,143,369739,6,0,P|457:90|447:67,1,55.9999982910157,0|0,0:0|0:0,0:0:0:0:
390,26,370190,1,0,0:0:0:0:
390,26,370415,2,0,L|257:33,1,111.999996582031,0|0,0:0|0:0,0:0:0:0:
195,81,371092,2,0,L|130:76,1,55.9999982910157,0|0,0:0|0:0,0:0:0:0:
282,121,371543,6,0,P|298:167|302:198,1,55.9999982910157,0|0,0:0|0:0,0:0:0:0:
265,262,371994,1,0,0:0:0:0:
265,262,372220,2,0,P|208:242|151:239,1,111.999996582031,0|0,0:0|0:0,0:0:0:0:
69,275,372896,1,0,0:0:0:0:
69,275,373348,5,0,0:0:0:0:
20,190,373573,1,0,0:0:0:0:
73,110,373799,1,0,0:0:0:0:
167,124,374024,2,0,L|278:129,1,111.999996582031,0|0,0:0|0:0,0:0:0:0:
390,28,374701,2,0,P|365:58|354:89,1,55.9999982910157,0|0,0:0|0:0,0:0:0:0:
370,238,375152,1,0,0:0:0:0:
370,238,375902,5,0,0:0:0:0:
279,212,376129,2,0,L|215:217,1,55.9999982910157,0|0,0:0|0:0,0:0:0:0:
139,257,376583,2,0,P|123:296|122:333,1,55.9999982910157,0|0,0:0|0:0,0:0:0:0:
147,166,377038,6,0,P|114:151|75:144,1,55.9999982910157,0|0,0:0|0:0,0:0:0:0:
4,169,377506,1,0,0:0:0:0:
4,169,377741,2,0,L|-3:38,1,111.999996582031,0|0,0:0|0:0,0:0:0:0:
102,31,378444,2,0,L|93:104,1,55.9999982910157,0|0,0:0|0:0,0:0:0:0:
147,166,378913,6,0,P|175:159|209:157,2,55.9999982910157,0|0|0,0:0|0:0|0:0,0:0:0:0:
92,243,379638,2,0,P|149:257|215:297,1,111.999996582031,0|0,0:0|0:0,0:0:0:0:
258,357,380364,1,0,0:0:0:0:
265,374,380848,5,0,0:0:0:0:
