osu file format v14

[General]
AudioFilename: reign.mp3
AudioLeadIn: 0
PreviewTime: 100447
Countdown: 0
SampleSet: Normal
StackLeniency: 0.7
Mode: 1
LetterboxInBreaks: 0
WidescreenStoryboard: 0

[Editor]
Bookmarks: 375155,377059,378904,380857
DistanceSpacing: 0.9
BeatDivisor: 4
GridSize: 32
TimelineZoom: 2.14

[Metadata]
Title:Reign of Fear
TitleUnicode:Reign of Fear
Artist:Apocalyptica
ArtistUnicode:Apocalyptica
Creator:Capu
Version:Inner Oni
Source:
Tags:progressive instrumental rock metal shadowmaker streams stream monos mono
BeatmapID:2058537
BeatmapSetID:983801

[Difficulty]
HPDrainRate:5
CircleSize:2
OverallDifficulty:7.2
ApproachRate:10
SliderMultiplier:1.4
SliderTickRate:1

[Events]
//Background and Video events
0,0,"cropped-1920-1080-775968.jpg",0,-90
//Break Periods
//Storyboard Layer 0 (Background)
//Storyboard Layer 1 (Fail)
//Storyboard Layer 2 (Pass)
//Storyboard Layer 3 (Foreground)
//Storyboard Layer 4 (Overlay)
//Storyboard Sound Samples

[TimingPoints]
26105,789.473684210526,4,1,0,70,1,0
78210,329.67032967033,7,1,0,70,1,0
94363,329.67032967033,4,1,0,70,1,8
95352,326.086956521739,4,1,0,70,1,0
97960,315.789473684211,4,1,0,70,1,0
99223,306.122448979592,4,1,0,70,1,0
99835,-97.5609756097561,4,1,0,70,0,0
100447,297.029702970297,4,1,0,70,1,1
105199,-100,4,1,0,70,0,0
109951,-100,4,1,0,70,0,1
114704,-100,4,1,0,70,0,0
119456,-100,4,1,0,70,0,1
138318,-102.564102564103,4,1,0,70,0,1
138466,329.67032967033,4,1,0,70,1,0
138466,-95.2380952380952,4,1,0,70,0,0
138630,-125,4,1,0,70,0,0
173882,377.358490566038,4,1,0,70,1,8
173882,-109.206071857595,4,1,0,70,0,0
174070,329.67032967033,4,1,0,70,1,0
174070,-125,4,1,0,70,0,0
180663,329.67032967033,7,1,0,70,1,0
180663,-111.111111111111,7,1,0,70,0,0
199124,329.67032967033,4,1,0,70,1,0
254508,-100,4,1,0,70,0,1
265059,333.333333333333,4,1,0,70,1,0
265059,-100,4,1,0,70,0,0
265225,-125,4,1,0,70,0,0
297058,-111.111111111111,4,1,0,70,0,0
306392,-111.111111111111,4,1,0,70,0,0
306475,-109.58904109589,4,1,0,70,0,0
306558,-108.108108108108,4,1,0,70,0,0
306642,-106.666666666667,4,1,0,70,0,0
306725,-105.263157894737,4,1,0,70,0,0
306808,-103.896103896104,4,1,0,70,0,0
306892,-102.564102564103,4,1,0,70,0,0
306975,-101.26582278481,4,1,0,70,0,0
307058,-100,4,1,0,70,0,0
307142,-98.7654320987654,4,1,0,70,0,0
307225,-97.5609756097561,4,1,0,70,0,0
307308,-96.3855421686747,4,1,0,70,0,0
307392,-95.2380952380952,4,1,0,70,0,0
307475,-94.1176470588235,4,1,0,70,0,0
307558,-93.0232558139535,4,1,0,70,0,0
307725,-90.9090909090909,4,1,0,70,0,0
307892,-100,4,1,0,70,0,0
311725,297.029702970297,4,1,0,70,1,0
311725,-100,4,1,0,70,0,1
330734,-95.2380952380952,4,1,0,70,0,1
340239,-90.9090909090909,4,1,0,70,0,1
349744,337.078651685393,4,1,0,70,1,0
349744,-83.3333333333333,4,1,0,70,0,0
349912,-84.7457627118644,4,1,0,70,0,0
350081,-86.2068965517241,4,1,0,70,0,0
350249,-87.719298245614,4,1,0,70,0,0
350418,-89.2857142857143,4,1,0,70,0,0
350586,-100,4,1,0,70,0,0
360530,400,4,1,0,70,1,0
360530,-111.111111111111,4,1,0,70,0,0
365330,400,4,1,0,70,1,8
365930,-100,4,1,0,35,0,0
366130,451.127819548872,4,1,0,35,1,0
367934,-83.3333333333333,4,1,0,35,0,0
368047,-100,4,1,0,35,0,0
373348,451.977401129943,4,1,0,35,1,0
373348,-100,4,1,0,35,0,0
375155,506.329113924051,4,1,0,35,1,0
375155,-71.4285714285714,4,1,0,35,0,0
375661,478.08764940239,4,1,0,35,1,8
375661,-94.3396226415094,4,1,0,35,0,8
376139,459.770114942529,4,1,0,35,1,8
376139,-98.0392156862745,4,1,0,35,0,8
377058,461.538461538462,4,1,0,35,1,0
377058,-98.0392156862745,4,1,0,35,0,0
378904,493.827160493827,4,1,0,35,1,0
378904,-91.743119266055,4,1,0,35,0,0
379891,451.127819548872,4,1,0,35,1,8
379891,-100,4,1,0,35,0,8
380342,515.021459227468,4,1,0,35,1,8
380342,-87.719298245614,4,1,0,35,0,8
380857,476.190476190476,4,1,0,35,1,0
380857,-94.3396226415094,4,1,0,35,0,0

[HitObjects]
256,192,78210,5,0,0:0:0:0:
256,192,78374,1,0,0:0:0:0:
256,192,78539,1,8,0:0:0:0:
256,192,78704,1,0,0:0:0:0:
256,192,79034,1,8,0:0:0:0:
256,192,79199,1,0,0:0:0:0:
256,192,79363,1,0,0:0:0:0:
256,192,79528,1,8,0:0:0:0:
256,192,80023,1,8,0:0:0:0:
256,192,80352,1,0,0:0:0:0:
256,192,80517,1,8,0:0:0:0:
256,192,81012,1,8,0:0:0:0:
256,192,81341,1,0,0:0:0:0:
256,192,81506,1,8,0:0:0:0:
256,192,81836,1,0,0:0:0:0:
256,192,82001,1,8,0:0:0:0:
256,192,82166,1,0,0:0:0:0:
256,192,82330,1,0,0:0:0:0:
256,192,82495,1,8,0:0:0:0:
256,192,82578,1,8,0:0:0:0:
256,192,82660,1,8,0:0:0:0:
256,192,82825,1,0,0:0:0:0:
256,192,82990,1,0,0:0:0:0:
256,192,83155,1,8,0:0:0:0:
256,192,83319,1,0,0:0:0:0:
256,192,83649,1,8,0:0:0:0:
256,192,83814,1,0,0:0:0:0:
256,192,83979,1,0,0:0:0:0:
256,192,84144,1,8,0:0:0:0:
256,192,84638,1,8,0:0:0:0:
256,192,84968,1,0,0:0:0:0:
256,192,85133,1,8,0:0:0:0:
256,192,85627,1,8,0:0:0:0:
256,192,85957,1,0,0:0:0:0:
256,192,86122,1,8,0:0:0:0:
256,192,86451,1,0,0:0:0:0:
256,192,86616,1,8,0:0:0:0:
256,192,86781,1,0,0:0:0:0:
256,192,86946,1,0,0:0:0:0:
256,192,87111,1,8,0:0:0:0:
256,192,87193,1,8,0:0:0:0:
256,192,87275,1,8,0:0:0:0:
256,192,87440,1,0,0:0:0:0:
256,192,87605,1,0,0:0:0:0:
256,192,87770,1,8,0:0:0:0:
256,192,87935,1,0,0:0:0:0:
256,192,88264,1,8,0:0:0:0:
256,192,88429,1,0,0:0:0:0:
256,192,88594,1,0,0:0:0:0:
256,192,88759,1,8,0:0:0:0:
256,192,89089,1,0,0:0:0:0:
256,192,89253,1,8,0:0:0:0:
256,192,89418,1,0,0:0:0:0:
256,192,89583,1,0,0:0:0:0:
256,192,89748,1,8,0:0:0:0:
256,192,90078,1,0,0:0:0:0:
256,192,90242,1,8,0:0:0:0:
256,192,90572,1,0,0:0:0:0:
256,192,90737,1,8,0:0:0:0:
256,192,91067,1,0,0:0:0:0:
256,192,91231,1,8,0:0:0:0:
256,192,91396,1,0,0:0:0:0:
256,192,91561,1,0,0:0:0:0:
256,192,91726,1,8,0:0:0:0:
256,192,91808,1,8,0:0:0:0:
256,192,91891,1,8,0:0:0:0:
256,192,92056,1,0,0:0:0:0:
256,192,92220,1,0,0:0:0:0:
256,192,92385,1,8,0:0:0:0:
256,192,92550,1,0,0:0:0:0:
256,192,92880,1,8,0:0:0:0:
256,192,93045,1,0,0:0:0:0:
256,192,93210,1,0,0:0:0:0:
256,192,93374,1,8,0:0:0:0:
256,192,93539,1,0,0:0:0:0:
256,192,93704,1,0,0:0:0:0:
256,192,93869,1,8,0:0:0:0:
256,192,94034,1,0,0:0:0:0:
256,192,94199,1,0,0:0:0:0:
256,192,94363,1,8,0:0:0:0:
256,192,94528,1,0,0:0:0:0:
256,192,94693,1,0,0:0:0:0:
256,192,94858,1,8,0:0:0:0:
256,192,95023,1,0,0:0:0:0:
256,192,95188,1,0,0:0:0:0:
256,192,95352,1,8,0:0:0:0:
256,192,95515,1,8,0:0:0:0:
256,192,95678,1,8,0:0:0:0:
256,192,95841,1,8,0:0:0:0:
256,192,96004,1,8,0:0:0:0:
256,192,96167,1,8,0:0:0:0:
256,192,96330,1,8,0:0:0:0:
256,192,96493,1,8,0:0:0:0:
256,192,96656,1,8,0:0:0:0:
256,192,96819,1,8,0:0:0:0:
256,192,96982,1,8,0:0:0:0:
256,192,97145,1,8,0:0:0:0:
256,192,97308,1,8,0:0:0:0:
256,192,97471,1,8,0:0:0:0:
256,192,97634,1,8,0:0:0:0:
256,192,97797,1,8,0:0:0:0:
256,192,97960,1,8,0:0:0:0:
256,192,98038,1,8,0:0:0:0:
256,192,98117,1,8,0:0:0:0:
256,192,98196,1,8,0:0:0:0:
256,192,98275,1,8,0:0:0:0:
256,192,98354,1,8,0:0:0:0:
256,192,98433,1,8,0:0:0:0:
256,192,98512,1,8,0:0:0:0:
256,192,98591,1,8,0:0:0:0:
256,192,98670,1,8,0:0:0:0:
256,192,98749,1,8,0:0:0:0:
256,192,98828,1,8,0:0:0:0:
256,192,98907,1,8,0:0:0:0:
256,192,98986,1,8,0:0:0:0:
256,192,99065,1,8,0:0:0:0:
256,192,99223,1,8,0:0:0:0:
256,192,99299,1,8,0:0:0:0:
256,192,99376,1,8,0:0:0:0:
256,192,99452,1,8,0:0:0:0:
256,192,99529,1,8,0:0:0:0:
256,192,99605,1,8,0:0:0:0:
256,192,99682,1,8,0:0:0:0:
256,192,99835,1,8,0:0:0:0:
256,192,99911,1,8,0:0:0:0:
256,192,99988,1,8,0:0:0:0:
256,192,100064,1,8,0:0:0:0:
256,192,100141,1,8,0:0:0:0:
256,192,100217,1,8,0:0:0:0:
256,192,100294,1,0,0:0:0:0:
256,192,100447,1,4,0:0:0:0:
256,192,100595,1,0,0:0:0:0:
256,192,100744,1,8,0:0:0:0:
256,192,100892,1,0,0:0:0:0:
256,192,100966,1,0,0:0:0:0:
256,192,101041,1,8,0:0:0:0:
256,192,101189,1,8,0:0:0:0:
256,192,101338,1,0,0:0:0:0:
256,192,101486,1,8,0:0:0:0:
256,192,101560,1,8,0:0:0:0:
256,192,101635,1,0,0:0:0:0:
256,192,101783,1,0,0:0:0:0:
256,192,101932,1,8,0:0:0:0:
256,192,102080,1,8,0:0:0:0:
256,192,102229,1,0,0:0:0:0:
256,192,102377,1,0,0:0:0:0:
256,192,102451,1,0,0:0:0:0:
256,192,102526,1,8,0:0:0:0:
256,192,102674,1,4,0:0:0:0:
256,192,102971,1,0,0:0:0:0:
256,192,103120,1,8,0:0:0:0:
256,192,103268,1,0,0:0:0:0:
256,192,103343,1,0,0:0:0:0:
256,192,103417,1,8,0:0:0:0:
256,192,103565,1,0,0:0:0:0:
256,192,103714,1,8,0:0:0:0:
256,192,103862,1,0,0:0:0:0:
256,192,104011,1,8,0:0:0:0:
256,192,104085,1,8,0:0:0:0:
256,192,104159,1,8,0:0:0:0:
256,192,104308,1,8,0:0:0:0:
256,192,104382,1,8,0:0:0:0:
256,192,104456,1,0,0:0:0:0:
256,192,104531,1,0,0:0:0:0:
256,192,104605,1,8,0:0:0:0:
256,192,104679,1,8,0:0:0:0:
256,192,104753,1,0,0:0:0:0:
256,192,104828,1,0,0:0:0:0:
256,192,104902,1,8,0:0:0:0:
256,192,104976,1,8,0:0:0:0:
256,192,105050,1,0,0:0:0:0:
256,192,105199,1,12,0:0:0:0:
256,192,105347,1,0,0:0:0:0:
256,192,105496,1,8,0:0:0:0:
256,192,105645,1,0,0:0:0:0:
256,192,105793,1,8,0:0:0:0:
256,192,105942,1,8,0:0:0:0:
256,192,106090,1,0,0:0:0:0:
256,192,106239,1,8,0:0:0:0:
256,192,106387,1,0,0:0:0:0:
256,192,106536,1,0,0:0:0:0:
256,192,106684,1,8,0:0:0:0:
256,192,106721,1,8,0:0:0:0:
256,192,106833,1,0,0:0:0:0:
256,192,106981,1,8,0:0:0:0:
256,192,107130,1,8,0:0:0:0:
256,192,107278,1,0,0:0:0:0:
256,192,107427,1,0,0:0:0:0:
256,192,107575,1,12,0:0:0:0:
256,192,107724,1,0,0:0:0:0:
256,192,107872,1,8,0:0:0:0:
256,192,108021,1,0,0:0:0:0:
256,192,108169,1,8,0:0:0:0:
256,192,108318,1,8,0:0:0:0:
256,192,108466,1,0,0:0:0:0:
256,192,108615,1,8,0:0:0:0:
256,192,108763,1,0,0:0:0:0:
256,192,108912,1,0,0:0:0:0:
256,192,109060,1,8,0:0:0:0:
256,192,109209,1,0,0:0:0:0:
256,192,109357,1,8,0:0:0:0:
256,192,109432,1,8,0:0:0:0:
256,192,109506,1,8,0:0:0:0:
256,192,109654,1,8,0:0:0:0:
256,192,109803,1,0,0:0:0:0:
256,192,109951,1,12,0:0:0:0:
256,192,110100,1,0,0:0:0:0:
256,192,110248,1,8,0:0:0:0:
256,192,110397,1,0,0:0:0:0:
256,192,110471,1,0,0:0:0:0:
256,192,110546,1,8,0:0:0:0:
256,192,110694,1,8,0:0:0:0:
256,192,110843,1,0,0:0:0:0:
256,192,110991,1,8,0:0:0:0:
256,192,111065,1,0,0:0:0:0:
256,192,111140,1,8,0:0:0:0:
256,192,111288,1,0,0:0:0:0:
256,192,111437,1,8,0:0:0:0:
256,192,111585,1,8,0:0:0:0:
256,192,111734,1,0,0:0:0:0:
256,192,111882,1,0,0:0:0:0:
256,192,111956,1,0,0:0:0:0:
256,192,112031,1,8,0:0:0:0:
256,192,112179,1,4,0:0:0:0:
256,192,112476,1,0,0:0:0:0:
256,192,112625,1,8,0:0:0:0:
256,192,112699,1,0,0:0:0:0:
256,192,112773,1,0,0:0:0:0:
256,192,112922,1,8,0:0:0:0:
256,192,113070,1,0,0:0:0:0:
256,192,113145,1,0,0:0:0:0:
256,192,113219,1,0,0:0:0:0:
256,192,113367,1,8,0:0:0:0:
256,192,113516,1,8,0:0:0:0:
256,192,113590,1,8,0:0:0:0:
256,192,113664,1,8,0:0:0:0:
256,192,113813,1,8,0:0:0:0:
256,192,113887,1,8,0:0:0:0:
256,192,113961,1,0,0:0:0:0:
256,192,114036,1,0,0:0:0:0:
256,192,114110,1,8,0:0:0:0:
256,192,114184,1,8,0:0:0:0:
256,192,114258,1,0,0:0:0:0:
256,192,114333,1,0,0:0:0:0:
256,192,114407,1,8,0:0:0:0:
256,192,114481,1,8,0:0:0:0:
256,192,114555,1,0,0:0:0:0:
256,192,114704,1,12,0:0:0:0:
256,192,114852,1,0,0:0:0:0:
256,192,115001,1,8,0:0:0:0:
256,192,115149,1,0,0:0:0:0:
256,192,115298,1,8,0:0:0:0:
256,192,115447,1,8,0:0:0:0:
256,192,115595,1,0,0:0:0:0:
256,192,115744,1,8,0:0:0:0:
256,192,115892,1,0,0:0:0:0:
256,192,116041,1,0,0:0:0:0:
256,192,116189,1,8,0:0:0:0:
256,192,116226,1,8,0:0:0:0:
256,192,116338,1,0,0:0:0:0:
256,192,116486,1,8,0:0:0:0:
256,192,116635,1,8,0:0:0:0:
256,192,116783,1,0,0:0:0:0:
256,192,116932,1,0,0:0:0:0:
256,192,117080,1,12,0:0:0:0:
256,192,117229,1,0,0:0:0:0:
256,192,117377,1,8,0:0:0:0:
256,192,117526,1,0,0:0:0:0:
256,192,117674,1,8,0:0:0:0:
256,192,117823,1,8,0:0:0:0:
256,192,117971,1,0,0:0:0:0:
256,192,118120,1,8,0:0:0:0:
256,192,118268,1,0,0:0:0:0:
256,192,118417,1,0,0:0:0:0:
256,192,118565,1,8,0:0:0:0:
256,192,118714,1,0,0:0:0:0:
256,192,118862,1,8,0:0:0:0:
256,192,118937,1,8,0:0:0:0:
256,192,119011,1,8,0:0:0:0:
256,192,119159,1,8,0:0:0:0:
256,192,119308,1,0,0:0:0:0:
256,192,119456,1,12,0:0:0:0:
256,192,119605,1,8,0:0:0:0:
256,192,119753,1,0,0:0:0:0:
256,192,119828,1,0,0:0:0:0:
256,192,119902,1,8,0:0:0:0:
256,192,120050,1,0,0:0:0:0:
256,192,120199,1,8,0:0:0:0:
256,192,120273,1,0,0:0:0:0:
256,192,120347,1,8,0:0:0:0:
256,192,120422,1,0,0:0:0:0:
256,192,120496,1,8,0:0:0:0:
256,192,120645,1,0,0:0:0:0:
256,192,120793,1,8,0:0:0:0:
256,192,120942,1,0,0:0:0:0:
256,192,121016,1,0,0:0:0:0:
256,192,121090,1,8,0:0:0:0:
256,192,121239,1,0,0:0:0:0:
256,192,121387,1,8,0:0:0:0:
256,192,121461,1,0,0:0:0:0:
256,192,121536,1,8,0:0:0:0:
256,192,121610,1,8,0:0:0:0:
256,192,121684,1,0,0:0:0:0:
256,192,121833,1,8,0:0:0:0:
256,192,121981,1,0,0:0:0:0:
256,192,122130,1,8,0:0:0:0:
256,192,122204,1,8,0:0:0:0:
256,192,122278,1,0,0:0:0:0:
256,192,122427,1,8,0:0:0:0:
256,192,122575,1,0,0:0:0:0:
256,192,122649,1,0,0:0:0:0:
256,192,122724,1,8,0:0:0:0:
256,192,122798,1,8,0:0:0:0:
256,192,122872,1,0,0:0:0:0:
256,192,123021,1,8,0:0:0:0:
256,192,123169,1,0,0:0:0:0:
256,192,123318,1,8,0:0:0:0:
256,192,123392,1,0,0:0:0:0:
256,192,123466,1,0,0:0:0:0:
256,192,123615,1,8,0:0:0:0:
256,192,123763,1,0,0:0:0:0:
256,192,123912,1,12,0:0:0:0:
256,192,124060,1,0,0:0:0:0:
256,192,124209,1,12,0:0:0:0:
256,192,124357,1,0,0:0:0:0:
256,192,124506,1,8,0:0:0:0:
256,192,124580,1,0,0:0:0:0:
256,192,124654,1,0,0:0:0:0:
256,192,124803,1,8,0:0:0:0:
256,192,124951,1,8,0:0:0:0:
256,192,125026,1,0,0:0:0:0:
256,192,125100,1,8,0:0:0:0:
256,192,125174,1,8,0:0:0:0:
256,192,125248,1,0,0:0:0:0:
256,192,125397,1,12,0:0:0:0:
256,192,125546,1,0,0:0:0:0:
256,192,125694,1,8,0:0:0:0:
256,192,125768,1,0,0:0:0:0:
256,192,125843,1,0,0:0:0:0:
256,192,125991,1,8,0:0:0:0:
256,192,126140,1,0,0:0:0:0:
256,192,126214,1,0,0:0:0:0:
256,192,126288,1,12,0:0:0:0:
256,192,126437,1,0,0:0:0:0:
256,192,126585,1,4,0:0:0:0:
256,192,126734,1,8,0:0:0:0:
256,192,126882,1,0,0:0:0:0:
256,192,126956,1,0,0:0:0:0:
256,192,127031,1,8,0:0:0:0:
256,192,127179,1,0,0:0:0:0:
256,192,127328,1,8,0:0:0:0:
256,192,127402,1,8,0:0:0:0:
256,192,127476,1,0,0:0:0:0:
256,192,127550,1,0,0:0:0:0:
256,192,127625,1,8,0:0:0:0:
256,192,127773,1,0,0:0:0:0:
256,192,127847,1,0,0:0:0:0:
256,192,127922,1,0,0:0:0:0:
256,192,127996,1,0,0:0:0:0:
256,192,128070,1,8,0:0:0:0:
256,192,128219,1,0,0:0:0:0:
256,192,128367,1,8,0:0:0:0:
256,192,128442,1,8,0:0:0:0:
256,192,128516,1,8,0:0:0:0:
256,192,128590,1,8,0:0:0:0:
256,192,128664,1,0,0:0:0:0:
256,192,128813,1,8,0:0:0:0:
256,192,128961,1,4,0:0:0:0:
256,192,129110,1,8,0:0:0:0:
256,192,129258,1,0,0:0:0:0:
256,192,129333,1,0,0:0:0:0:
256,192,129407,1,8,0:0:0:0:
256,192,129555,1,0,0:0:0:0:
256,192,129704,1,8,0:0:0:0:
256,192,129778,1,0,0:0:0:0:
256,192,129852,1,8,0:0:0:0:
256,192,129927,1,0,0:0:0:0:
256,192,130001,1,8,0:0:0:0:
256,192,130149,1,0,0:0:0:0:
256,192,130298,1,8,0:0:0:0:
256,192,130447,1,0,0:0:0:0:
256,192,130521,1,0,0:0:0:0:
256,192,130595,1,8,0:0:0:0:
256,192,130744,1,0,0:0:0:0:
256,192,130892,1,8,0:0:0:0:
256,192,130966,1,8,0:0:0:0:
256,192,131041,1,0,0:0:0:0:
256,192,131115,1,0,0:0:0:0:
256,192,131189,1,8,0:0:0:0:
256,192,131338,1,0,0:0:0:0:
256,192,131486,1,8,0:0:0:0:
256,192,131635,1,8,0:0:0:0:
256,192,131709,1,8,0:0:0:0:
256,192,131783,1,0,0:0:0:0:
256,192,131932,1,8,0:0:0:0:
256,192,132080,1,0,0:0:0:0:
256,192,132154,1,0,0:0:0:0:
256,192,132229,1,8,0:0:0:0:
256,192,132303,1,8,0:0:0:0:
256,192,132377,1,0,0:0:0:0:
256,192,132526,1,8,0:0:0:0:
256,192,132674,1,0,0:0:0:0:
256,192,132823,1,8,0:0:0:0:
256,192,132897,1,8,0:0:0:0:
256,192,132971,1,0,0:0:0:0:
256,192,133120,1,8,0:0:0:0:
256,192,133268,1,0,0:0:0:0:
256,192,133343,1,8,0:0:0:0:
256,192,133417,1,8,0:0:0:0:
256,192,133491,1,0,0:0:0:0:
256,192,133565,1,8,0:0:0:0:
256,192,133714,1,0,0:0:0:0:
256,192,133862,1,8,0:0:0:0:
256,192,134011,1,0,0:0:0:0:
256,192,134085,1,0,0:0:0:0:
256,192,134159,1,8,0:0:0:0:
256,192,134308,1,0,0:0:0:0:
256,192,134456,1,8,0:0:0:0:
256,192,134531,1,0,0:0:0:0:
256,192,134605,1,8,0:0:0:0:
256,192,134679,1,8,0:0:0:0:
256,192,134753,1,0,0:0:0:0:
256,192,134902,1,8,0:0:0:0:
256,192,135050,1,0,0:0:0:0:
256,192,135199,1,8,0:0:0:0:
256,192,135273,1,8,0:0:0:0:
256,192,135347,1,0,0:0:0:0:
256,192,135496,1,8,0:0:0:0:
256,192,135645,1,0,0:0:0:0:
256,192,135719,1,0,0:0:0:0:
256,192,135793,1,12,0:0:0:0:
256,192,135942,1,0,0:0:0:0:
256,192,136090,1,12,0:0:0:0:
256,192,136239,1,0,0:0:0:0:
256,192,136313,1,0,0:0:0:0:
256,192,136387,1,0,0:0:0:0:
256,192,136536,1,0,0:0:0:0:
256,192,136684,1,8,0:0:0:0:
256,192,136758,1,0,0:0:0:0:
256,192,136833,1,0,0:0:0:0:
256,192,136981,1,0,0:0:0:0:
256,192,137130,1,0,0:0:0:0:
256,192,137204,1,0,0:0:0:0:
256,192,137278,1,8,0:0:0:0:
256,192,137427,1,0,0:0:0:0:
256,192,137575,1,0,0:0:0:0:
256,192,137649,1,0,0:0:0:0:
256,192,137724,1,0,0:0:0:0:
256,192,137798,1,0,0:0:0:0:
256,192,137872,1,8,0:0:0:0:
256,192,137947,1,0,0:0:0:0:
256,192,138021,1,0,0:0:0:0:
256,192,138095,1,0,0:0:0:0:
256,192,138169,1,0,0:0:0:0:
256,192,138318,1,0,0:0:0:0:
256,192,138466,1,12,0:0:0:0:
256,192,139125,1,0,0:0:0:0:
256,192,139455,1,0,0:0:0:0:
256,192,139619,1,0,0:0:0:0:
256,192,139784,1,8,0:0:0:0:
256,192,140114,1,8,0:0:0:0:
256,192,140444,1,12,0:0:0:0:
256,192,140773,1,0,0:0:0:0:
256,192,141103,1,4,0:0:0:0:
256,192,142202,1,0,0:0:0:0:
256,192,142312,1,0,0:0:0:0:
256,192,142422,1,12,0:0:0:0:
256,192,142751,1,8,0:0:0:0:
256,192,143081,1,0,0:0:0:0:
256,192,143411,1,8,0:0:0:0:
256,192,143740,1,12,0:0:0:0:
256,192,144400,1,0,0:0:0:0:
256,192,144839,1,0,0:0:0:0:
256,192,144949,1,0,0:0:0:0:
256,192,145059,1,12,0:0:0:0:
256,192,145224,1,0,0:0:0:0:
256,192,145389,1,8,0:0:0:0:
256,192,145498,1,0,0:0:0:0:
256,192,145608,1,0,0:0:0:0:
256,192,145718,1,12,0:0:0:0:
256,192,145883,1,8,0:0:0:0:
256,192,146048,1,0,0:0:0:0:
256,192,146378,1,4,0:0:0:0:
256,192,146707,1,0,0:0:0:0:
256,192,147037,1,8,0:0:0:0:
256,192,147202,1,0,0:0:0:0:
256,192,147367,1,8,0:0:0:0:
256,192,147531,1,0,0:0:0:0:
256,192,147696,1,8,0:0:0:0:
256,192,147861,1,8,0:0:0:0:
256,192,148026,1,0,0:0:0:0:
256,192,148191,1,0,0:0:0:0:
256,192,148356,1,8,0:0:0:0:
256,192,148520,1,0,0:0:0:0:
256,192,148685,1,8,0:0:0:0:
256,192,149015,1,12,0:0:0:0:
256,192,150114,1,0,0:0:0:0:
256,192,150224,1,0,0:0:0:0:
256,192,150334,1,8,0:0:0:0:
256,192,150663,1,8,0:0:0:0:
256,192,150773,1,8,0:0:0:0:
256,192,150883,1,8,0:0:0:0:
256,192,150993,1,0,0:0:0:0:
256,192,151323,1,0,0:0:0:0:
256,192,151433,1,0,0:0:0:0:
256,192,151542,1,0,0:0:0:0:
256,192,151652,1,12,0:0:0:0:
256,192,152641,1,0,0:0:0:0:
256,192,152806,1,0,0:0:0:0:
256,192,152971,1,8,0:0:0:0:
256,192,153301,1,0,0:0:0:0:
256,192,153466,1,0,0:0:0:0:
256,192,153630,1,8,0:0:0:0:
256,192,153795,1,8,0:0:0:0:
256,192,153960,1,0,0:0:0:0:
256,192,154125,1,0,0:0:0:0:
256,192,154290,1,12,0:0:0:0:
256,192,154619,1,0,0:0:0:0:
256,192,154784,1,0,0:0:0:0:
256,192,154949,1,0,0:0:0:0:
256,192,155279,1,0,0:0:0:0:
256,192,155608,1,8,0:0:0:0:
256,192,155773,1,0,0:0:0:0:
256,192,155938,1,8,0:0:0:0:
256,192,156103,1,0,0:0:0:0:
256,192,156268,1,8,0:0:0:0:
256,192,156433,1,8,0:0:0:0:
256,192,156597,1,0,0:0:0:0:
256,192,156762,1,0,0:0:0:0:
256,192,156927,1,8,0:0:0:0:
256,192,157751,1,8,0:0:0:0:
256,192,157916,1,8,0:0:0:0:
256,192,158081,1,0,0:0:0:0:
256,192,158246,1,8,0:0:0:0:
256,192,158411,1,0,0:0:0:0:
256,192,158575,1,8,0:0:0:0:
256,192,158740,1,8,0:0:0:0:
256,192,158905,1,0,0:0:0:0:
256,192,159070,1,0,0:0:0:0:
256,192,159235,1,8,0:0:0:0:
256,192,159564,1,12,0:0:0:0:
256,192,160553,1,0,0:0:0:0:
256,192,160718,1,0,0:0:0:0:
256,192,160883,1,8,0:0:0:0:
256,192,161213,1,0,0:0:0:0:
256,192,161378,1,0,0:0:0:0:
256,192,161542,1,8,0:0:0:0:
256,192,161707,1,0,0:0:0:0:
256,192,161872,1,0,0:0:0:0:
256,192,162037,1,0,0:0:0:0:
256,192,162202,1,12,0:0:0:0:
256,192,163191,1,0,0:0:0:0:
256,192,163356,1,0,0:0:0:0:
256,192,163520,1,8,0:0:0:0:
256,192,164180,1,0,0:0:0:0:
256,192,164839,1,12,0:0:0:0:
256,192,165993,1,0,0:0:0:0:
256,192,166075,1,0,0:0:0:0:
256,192,166158,1,8,0:0:0:0:
256,192,166323,1,0,0:0:0:0:
256,192,166487,1,8,0:0:0:0:
256,192,166597,1,0,0:0:0:0:
256,192,166707,1,0,0:0:0:0:
256,192,166817,1,8,0:0:0:0:
256,192,166982,1,0,0:0:0:0:
256,192,167147,1,8,0:0:0:0:
256,192,167476,1,12,0:0:0:0:
256,192,168301,1,8,0:0:0:0:
256,192,168466,1,8,0:0:0:0:
256,192,168630,1,0,0:0:0:0:
256,192,168795,1,8,0:0:0:0:
256,192,168960,1,0,0:0:0:0:
256,192,169125,1,8,0:0:0:0:
256,192,169290,1,8,0:0:0:0:
256,192,169455,1,0,0:0:0:0:
256,192,169619,1,8,0:0:0:0:
256,192,169784,1,8,0:0:0:0:
256,192,169949,1,0,0:0:0:0:
256,192,170114,1,12,0:0:0:0:
256,192,171103,1,0,0:0:0:0:
256,192,171268,1,0,0:0:0:0:
256,192,171433,1,8,0:0:0:0:
256,192,172092,1,4,0:0:0:0:
256,192,172751,1,12,0:0:0:0:
256,192,173882,1,0,0:0:0:0:
256,192,173976,1,0,0:0:0:0:
256,192,174070,1,8,0:0:0:0:
256,192,174400,1,0,0:0:0:0:
256,192,174729,1,8,0:0:0:0:
256,192,175059,1,0,0:0:0:0:
256,192,175389,1,12,0:0:0:0:
256,192,176378,1,0,0:0:0:0:
256,192,176542,1,0,0:0:0:0:
256,192,176707,1,8,0:0:0:0:
256,192,176872,1,0,0:0:0:0:
256,192,177037,1,8,0:0:0:0:
256,192,177202,1,8,0:0:0:0:
256,192,177367,1,0,0:0:0:0:
256,192,177531,1,0,0:0:0:0:
256,192,177696,1,8,0:0:0:0:
256,192,177861,1,8,0:0:0:0:
256,192,178026,1,4,0:0:0:0:
256,192,178685,1,8,0:0:0:0:
256,192,178850,1,0,0:0:0:0:
256,192,179015,1,8,0:0:0:0:
256,192,179180,1,8,0:0:0:0:
256,192,179345,1,0,0:0:0:0:
256,192,179509,1,0,0:0:0:0:
256,192,179674,1,8,0:0:0:0:
256,192,179839,1,0,0:0:0:0:
256,192,180004,1,8,0:0:0:0:
256,192,180169,1,8,0:0:0:0:
256,192,180334,1,0,0:0:0:0:
256,192,180663,1,0,0:0:0:0:
256,192,180827,1,0,0:0:0:0:
256,192,180992,1,8,0:0:0:0:
256,192,181157,1,0,0:0:0:0:
256,192,181322,1,0,0:0:0:0:
256,192,181487,1,8,0:0:0:0:
256,192,181652,1,0,0:0:0:0:
256,192,181816,1,8,0:0:0:0:
256,192,181981,1,8,0:0:0:0:
256,192,182146,1,0,0:0:0:0:
256,192,182311,1,0,0:0:0:0:
256,192,182476,1,8,0:0:0:0:
256,192,182641,1,0,0:0:0:0:
256,192,182805,1,0,0:0:0:0:
256,192,182970,1,8,0:0:0:0:
256,192,183135,1,0,0:0:0:0:
256,192,183300,1,0,0:0:0:0:
256,192,183465,1,8,0:0:0:0:
256,192,183630,1,0,0:0:0:0:
256,192,183794,1,0,0:0:0:0:
256,192,183959,1,8,0:0:0:0:
256,192,184124,1,0,0:0:0:0:
256,192,184289,1,0,0:0:0:0:
256,192,184454,1,8,0:0:0:0:
256,192,184619,1,8,0:0:0:0:
256,192,184783,1,0,0:0:0:0:
256,192,184948,1,8,0:0:0:0:
256,192,185031,1,8,0:0:0:0:
256,192,185113,1,0,0:0:0:0:
256,192,185195,1,0,0:0:0:0:
256,192,185278,1,8,0:0:0:0:
256,192,185608,1,8,0:0:0:0:
256,192,185772,1,0,0:0:0:0:
256,192,185937,1,0,0:0:0:0:
256,192,186102,1,8,0:0:0:0:
256,192,186267,1,0,0:0:0:0:
256,192,186432,1,8,0:0:0:0:
256,192,186597,1,8,0:0:0:0:
256,192,186761,1,0,0:0:0:0:
256,192,186926,1,0,0:0:0:0:
256,192,187091,1,8,0:0:0:0:
256,192,187256,1,0,0:0:0:0:
256,192,187421,1,0,0:0:0:0:
256,192,187586,1,8,0:0:0:0:
256,192,187750,1,0,0:0:0:0:
256,192,187915,1,0,0:0:0:0:
256,192,188080,1,8,0:0:0:0:
256,192,188245,1,0,0:0:0:0:
256,192,188410,1,0,0:0:0:0:
256,192,188575,1,8,0:0:0:0:
256,192,188739,1,0,0:0:0:0:
256,192,188904,1,0,0:0:0:0:
256,192,189069,1,8,0:0:0:0:
256,192,189234,1,8,0:0:0:0:
256,192,189399,1,0,0:0:0:0:
256,192,189564,1,8,0:0:0:0:
256,192,189646,1,0,0:0:0:0:
256,192,189728,1,8,0:0:0:0:
256,192,189811,1,8,0:0:0:0:
256,192,189893,1,0,0:0:0:0:
256,192,190223,1,8,0:0:0:0:
256,192,190388,1,0,0:0:0:0:
256,192,190553,1,0,0:0:0:0:
256,192,190717,1,8,0:0:0:0:
256,192,190882,1,0,0:0:0:0:
256,192,191047,1,8,0:0:0:0:
256,192,191212,1,8,0:0:0:0:
256,192,191377,1,0,0:0:0:0:
256,192,191542,1,0,0:0:0:0:
256,192,191706,1,8,0:0:0:0:
256,192,191871,1,0,0:0:0:0:
256,192,192036,1,0,0:0:0:0:
256,192,192201,1,8,0:0:0:0:
256,192,192366,1,0,0:0:0:0:
256,192,192531,1,0,0:0:0:0:
256,192,192695,1,8,0:0:0:0:
256,192,192860,1,0,0:0:0:0:
256,192,193025,1,0,0:0:0:0:
256,192,193190,1,8,0:0:0:0:
256,192,193355,1,0,0:0:0:0:
256,192,193520,1,0,0:0:0:0:
256,192,193684,1,8,0:0:0:0:
256,192,193849,1,8,0:0:0:0:
256,192,194014,1,0,0:0:0:0:
256,192,194179,1,8,0:0:0:0:
256,192,194261,1,0,0:0:0:0:
256,192,194344,1,0,0:0:0:0:
256,192,194426,1,0,0:0:0:0:
256,192,194509,1,8,0:0:0:0:
256,192,194838,1,8,0:0:0:0:
256,192,195003,1,0,0:0:0:0:
256,192,195168,1,0,0:0:0:0:
256,192,195333,1,8,0:0:0:0:
256,192,195498,1,0,0:0:0:0:
256,192,195663,1,8,0:0:0:0:
256,192,195827,1,8,0:0:0:0:
256,192,195992,1,0,0:0:0:0:
256,192,196157,1,0,0:0:0:0:
256,192,196322,1,8,0:0:0:0:
256,192,196487,1,0,0:0:0:0:
256,192,196652,1,0,0:0:0:0:
256,192,196816,1,8,0:0:0:0:
256,192,196981,1,0,0:0:0:0:
256,192,197146,1,0,0:0:0:0:
256,192,197311,1,8,0:0:0:0:
256,192,197476,1,0,0:0:0:0:
256,192,197641,1,0,0:0:0:0:
256,192,197805,1,8,0:0:0:0:
256,192,197970,1,0,0:0:0:0:
256,192,198135,1,0,0:0:0:0:
256,192,198300,1,8,0:0:0:0:
256,192,198465,1,8,0:0:0:0:
256,192,198630,1,0,0:0:0:0:
256,192,198794,1,8,0:0:0:0:
256,192,198877,1,8,0:0:0:0:
256,192,198959,1,0,0:0:0:0:
256,192,199124,1,8,0:0:0:0:
256,192,199288,1,8,0:0:0:0:
256,192,199453,1,8,0:0:0:0:
256,192,199618,1,8,0:0:0:0:
256,192,199783,1,8,0:0:0:0:
256,192,199948,1,8,0:0:0:0:
256,192,200113,1,8,0:0:0:0:
256,192,200277,1,8,0:0:0:0:
256,192,200442,1,8,0:0:0:0:
256,192,200607,1,8,0:0:0:0:
256,192,200772,1,8,0:0:0:0:
256,192,200937,1,8,0:0:0:0:
256,192,201102,1,8,0:0:0:0:
256,192,201266,1,8,0:0:0:0:
256,192,201431,1,8,0:0:0:0:
256,192,201596,1,8,0:0:0:0:
256,192,201761,1,0,0:0:0:0:
256,192,201843,1,0,0:0:0:0:
256,192,201926,1,0,0:0:0:0:
256,192,202091,1,0,0:0:0:0:
256,192,202255,1,0,0:0:0:0:
256,192,202338,1,0,0:0:0:0:
256,192,202420,1,0,0:0:0:0:
256,192,202585,1,0,0:0:0:0:
256,192,202750,1,0,0:0:0:0:
256,192,202915,1,0,0:0:0:0:
256,192,203080,1,0,0:0:0:0:
256,192,203162,1,0,0:0:0:0:
256,192,203244,1,0,0:0:0:0:
256,192,203409,1,0,0:0:0:0:
256,192,203574,1,0,0:0:0:0:
256,192,203656,1,0,0:0:0:0:
256,192,203739,1,0,0:0:0:0:
256,192,203904,1,0,0:0:0:0:
256,192,204069,1,0,0:0:0:0:
256,192,204233,1,0,0:0:0:0:
256,192,204398,1,0,0:0:0:0:
256,192,204481,1,0,0:0:0:0:
256,192,204563,1,0,0:0:0:0:
256,192,204728,1,0,0:0:0:0:
256,192,204893,1,0,0:0:0:0:
256,192,204975,1,0,0:0:0:0:
256,192,205058,1,0,0:0:0:0:
256,192,205222,1,0,0:0:0:0:
256,192,205387,1,0,0:0:0:0:
256,192,205552,1,0,0:0:0:0:
256,192,205717,1,0,0:0:0:0:
256,192,205882,1,0,0:0:0:0:
256,192,206047,1,0,0:0:0:0:
256,192,206211,1,0,0:0:0:0:
256,192,206376,1,0,0:0:0:0:
256,192,206541,1,0,0:0:0:0:
256,192,206706,1,0,0:0:0:0:
256,192,206871,1,0,0:0:0:0:
256,192,207036,1,0,0:0:0:0:
256,192,207118,1,0,0:0:0:0:
256,192,207200,1,0,0:0:0:0:
256,192,207365,1,0,0:0:0:0:
256,192,207530,1,0,0:0:0:0:
256,192,207613,1,0,0:0:0:0:
256,192,207695,1,0,0:0:0:0:
256,192,207860,1,0,0:0:0:0:
256,192,208025,1,0,0:0:0:0:
256,192,208189,1,0,0:0:0:0:
256,192,208354,1,0,0:0:0:0:
256,192,208437,1,0,0:0:0:0:
256,192,208519,1,0,0:0:0:0:
256,192,208684,1,0,0:0:0:0:
256,192,208849,1,0,0:0:0:0:
256,192,208931,1,0,0:0:0:0:
256,192,209014,1,0,0:0:0:0:
256,192,209178,1,0,0:0:0:0:
256,192,209343,1,0,0:0:0:0:
256,192,209508,1,0,0:0:0:0:
256,192,209673,1,0,0:0:0:0:
256,192,209755,1,0,0:0:0:0:
256,192,209838,1,0,0:0:0:0:
256,192,210003,1,0,0:0:0:0:
256,192,210167,1,0,0:0:0:0:
256,192,210250,1,0,0:0:0:0:
256,192,210332,1,0,0:0:0:0:
256,192,210497,1,0,0:0:0:0:
256,192,210662,1,0,0:0:0:0:
256,192,210827,1,0,0:0:0:0:
256,192,210992,1,8,0:0:0:0:
256,192,211156,1,8,0:0:0:0:
256,192,211321,1,8,0:0:0:0:
256,192,211486,1,8,0:0:0:0:
256,192,211651,1,8,0:0:0:0:
256,192,211816,1,8,0:0:0:0:
256,192,211981,1,8,0:0:0:0:
256,192,212145,1,0,0:0:0:0:
256,192,212310,1,8,0:0:0:0:
256,192,212393,1,0,0:0:0:0:
256,192,212475,1,0,0:0:0:0:
256,192,212640,1,0,0:0:0:0:
256,192,212805,1,0,0:0:0:0:
256,192,212887,1,0,0:0:0:0:
256,192,212970,1,8,0:0:0:0:
256,192,213134,1,0,0:0:0:0:
256,192,213299,1,0,0:0:0:0:
256,192,213464,1,0,0:0:0:0:
256,192,213629,1,0,0:0:0:0:
256,192,213794,1,8,0:0:0:0:
256,192,213959,1,8,0:0:0:0:
256,192,214124,1,0,0:0:0:0:
256,192,214288,1,8,0:0:0:0:
256,192,214453,1,0,0:0:0:0:
256,192,214618,1,8,0:0:0:0:
256,192,214783,1,0,0:0:0:0:
256,192,214948,1,8,0:0:0:0:
256,192,215030,1,0,0:0:0:0:
256,192,215113,1,0,0:0:0:0:
256,192,215277,1,0,0:0:0:0:
256,192,215442,1,0,0:0:0:0:
256,192,215525,1,0,0:0:0:0:
256,192,215607,1,8,0:0:0:0:
256,192,215772,1,0,0:0:0:0:
256,192,215937,1,0,0:0:0:0:
256,192,216102,1,0,0:0:0:0:
256,192,216266,1,0,0:0:0:0:
256,192,216431,1,8,0:0:0:0:
256,192,216596,1,8,0:0:0:0:
256,192,216761,1,0,0:0:0:0:
256,192,216843,1,0,0:0:0:0:
256,192,216926,1,8,0:0:0:0:
256,192,217091,1,0,0:0:0:0:
256,192,217255,1,8,0:0:0:0:
256,192,217420,1,0,0:0:0:0:
256,192,217585,1,8,0:0:0:0:
256,192,217667,1,0,0:0:0:0:
256,192,217750,1,0,0:0:0:0:
256,192,217915,1,0,0:0:0:0:
256,192,218080,1,0,0:0:0:0:
256,192,218162,1,0,0:0:0:0:
256,192,218244,1,8,0:0:0:0:
256,192,218409,1,0,0:0:0:0:
256,192,218574,1,0,0:0:0:0:
256,192,218739,1,0,0:0:0:0:
256,192,218904,1,0,0:0:0:0:
256,192,219069,1,8,0:0:0:0:
256,192,219233,1,8,0:0:0:0:
256,192,219398,1,0,0:0:0:0:
256,192,219563,1,8,0:0:0:0:
256,192,219728,1,0,0:0:0:0:
256,192,219893,1,8,0:0:0:0:
256,192,220058,1,0,0:0:0:0:
256,192,220222,1,8,0:0:0:0:
256,192,220305,1,0,0:0:0:0:
256,192,220387,1,0,0:0:0:0:
256,192,220552,1,0,0:0:0:0:
256,192,220717,1,0,0:0:0:0:
256,192,220799,1,0,0:0:0:0:
256,192,220882,1,8,0:0:0:0:
256,192,221047,1,0,0:0:0:0:
256,192,221211,1,0,0:0:0:0:
256,192,221376,1,0,0:0:0:0:
256,192,221541,1,8,0:0:0:0:
256,192,221706,1,0,0:0:0:0:
256,192,221871,1,8,0:0:0:0:
256,192,222036,1,8,0:0:0:0:
256,192,222365,1,8,0:0:0:0:
256,192,222695,1,0,0:0:0:0:
256,192,222860,1,8,0:0:0:0:
256,192,222942,1,0,0:0:0:0:
256,192,223025,1,0,0:0:0:0:
256,192,223189,1,0,0:0:0:0:
256,192,223354,1,0,0:0:0:0:
256,192,223437,1,0,0:0:0:0:
256,192,223519,1,8,0:0:0:0:
256,192,223684,1,0,0:0:0:0:
256,192,223849,1,0,0:0:0:0:
256,192,224014,1,0,0:0:0:0:
256,192,224178,1,0,0:0:0:0:
256,192,224343,1,8,0:0:0:0:
256,192,224508,1,8,0:0:0:0:
256,192,224673,1,0,0:0:0:0:
256,192,224838,1,8,0:0:0:0:
256,192,225003,1,0,0:0:0:0:
256,192,225167,1,8,0:0:0:0:
256,192,225332,1,0,0:0:0:0:
256,192,225497,1,8,0:0:0:0:
256,192,225580,1,0,0:0:0:0:
256,192,225662,1,0,0:0:0:0:
256,192,225827,1,0,0:0:0:0:
256,192,225992,1,0,0:0:0:0:
256,192,226074,1,0,0:0:0:0:
256,192,226156,1,8,0:0:0:0:
256,192,226321,1,0,0:0:0:0:
256,192,226486,1,8,0:0:0:0:
256,192,226651,1,4,0:0:0:0:
256,192,228134,1,8,0:0:0:0:
256,192,228217,1,0,0:0:0:0:
256,192,228299,1,0,0:0:0:0:
256,192,228464,1,0,0:0:0:0:
256,192,228629,1,0,0:0:0:0:
256,192,228711,1,0,0:0:0:0:
256,192,228794,1,8,0:0:0:0:
256,192,228959,1,0,0:0:0:0:
256,192,229124,1,0,0:0:0:0:
256,192,229288,1,0,0:0:0:0:
256,192,229453,1,0,0:0:0:0:
256,192,229618,1,8,0:0:0:0:
256,192,229783,1,8,0:0:0:0:
256,192,229948,1,0,0:0:0:0:
256,192,230030,1,0,0:0:0:0:
256,192,230113,1,8,0:0:0:0:
256,192,230277,1,0,0:0:0:0:
256,192,230442,1,8,0:0:0:0:
256,192,230607,1,0,0:0:0:0:
256,192,230772,1,8,0:0:0:0:
256,192,230854,1,0,0:0:0:0:
256,192,230937,1,0,0:0:0:0:
256,192,231102,1,0,0:0:0:0:
256,192,231266,1,0,0:0:0:0:
256,192,231349,1,0,0:0:0:0:
256,192,231431,1,8,0:0:0:0:
256,192,231596,1,0,0:0:0:0:
256,192,231761,1,0,0:0:0:0:
256,192,231926,1,0,0:0:0:0:
256,192,232091,1,8,0:0:0:0:
256,192,232255,1,0,0:0:0:0:
256,192,232420,1,8,0:0:0:0:
256,192,232585,1,8,0:0:0:0:
256,192,232750,1,0,0:0:0:0:
256,192,232915,1,8,0:0:0:0:
256,192,233080,1,0,0:0:0:0:
256,192,233244,1,8,0:0:0:0:
256,192,233409,1,8,0:0:0:0:
256,192,233574,1,0,0:0:0:0:
256,192,233739,1,0,0:0:0:0:
256,192,233904,1,0,0:0:0:0:
256,192,234069,1,8,0:0:0:0:
256,192,234151,1,8,0:0:0:0:
256,192,234233,1,8,0:0:0:0:
256,192,234316,1,8,0:0:0:0:
256,192,234398,1,8,0:0:0:0:
256,192,234481,1,8,0:0:0:0:
256,192,234563,1,8,0:0:0:0:
256,192,234645,1,8,0:0:0:0:
256,192,234728,1,8,0:0:0:0:
256,192,234810,1,8,0:0:0:0:
256,192,234893,1,8,0:0:0:0:
256,192,234975,1,8,0:0:0:0:
256,192,235058,1,0,0:0:0:0:
256,192,235140,1,0,0:0:0:0:
256,192,235222,1,0,0:0:0:0:
256,192,235305,1,0,0:0:0:0:
256,192,235387,1,8,0:0:0:0:
256,192,235470,1,8,0:0:0:0:
256,192,235552,1,8,0:0:0:0:
256,192,235634,1,8,0:0:0:0:
256,192,235717,1,0,0:0:0:0:
256,192,235799,1,0,0:0:0:0:
256,192,235882,1,0,0:0:0:0:
256,192,235964,1,0,0:0:0:0:
256,192,236047,1,8,0:0:0:0:
256,192,236211,1,0,0:0:0:0:
256,192,236294,1,0,0:0:0:0:
256,192,236376,1,0,0:0:0:0:
256,192,236541,1,0,0:0:0:0:
256,192,236706,1,8,0:0:0:0:
256,192,236788,1,8,0:0:0:0:
256,192,236871,1,8,0:0:0:0:
256,192,236953,1,8,0:0:0:0:
256,192,237036,1,8,0:0:0:0:
256,192,237118,1,8,0:0:0:0:
256,192,237200,1,8,0:0:0:0:
256,192,237283,1,8,0:0:0:0:
256,192,237365,1,8,0:0:0:0:
256,192,237448,1,8,0:0:0:0:
256,192,237530,1,8,0:0:0:0:
256,192,237613,1,8,0:0:0:0:
256,192,237695,1,0,0:0:0:0:
256,192,237777,1,0,0:0:0:0:
256,192,237860,1,0,0:0:0:0:
256,192,237942,1,0,0:0:0:0:
256,192,238025,1,8,0:0:0:0:
256,192,238107,1,8,0:0:0:0:
256,192,238189,1,8,0:0:0:0:
256,192,238272,1,8,0:0:0:0:
256,192,238354,1,0,0:0:0:0:
256,192,238437,1,0,0:0:0:0:
256,192,238519,1,0,0:0:0:0:
256,192,238602,1,0,0:0:0:0:
256,192,238684,1,8,0:0:0:0:
256,192,238849,1,0,0:0:0:0:
256,192,238931,1,0,0:0:0:0:
256,192,239014,1,0,0:0:0:0:
256,192,239178,1,0,0:0:0:0:
256,192,239343,1,8,0:0:0:0:
256,192,239426,1,8,0:0:0:0:
256,192,239508,1,8,0:0:0:0:
256,192,239591,1,8,0:0:0:0:
256,192,239673,1,8,0:0:0:0:
256,192,239755,1,8,0:0:0:0:
256,192,239838,1,8,0:0:0:0:
256,192,239920,1,8,0:0:0:0:
256,192,240003,1,8,0:0:0:0:
256,192,240085,1,8,0:0:0:0:
256,192,240167,1,8,0:0:0:0:
256,192,240250,1,8,0:0:0:0:
256,192,240332,1,0,0:0:0:0:
256,192,240415,1,0,0:0:0:0:
256,192,240497,1,0,0:0:0:0:
256,192,240580,1,0,0:0:0:0:
256,192,240662,1,8,0:0:0:0:
256,192,240744,1,8,0:0:0:0:
256,192,240827,1,8,0:0:0:0:
256,192,240909,1,8,0:0:0:0:
256,192,240992,1,0,0:0:0:0:
256,192,241074,1,0,0:0:0:0:
256,192,241156,1,0,0:0:0:0:
256,192,241239,1,0,0:0:0:0:
256,192,241321,1,8,0:0:0:0:
256,192,241404,1,8,0:0:0:0:
256,192,241486,1,8,0:0:0:0:
256,192,241569,1,8,0:0:0:0:
256,192,241651,1,8,0:0:0:0:
256,192,241733,1,8,0:0:0:0:
256,192,241816,1,0,0:0:0:0:
256,192,241898,1,0,0:0:0:0:
256,192,241981,1,8,0:0:0:0:
256,192,242063,1,8,0:0:0:0:
256,192,242145,1,8,0:0:0:0:
256,192,242228,1,8,0:0:0:0:
256,192,242310,1,8,0:0:0:0:
256,192,242393,1,8,0:0:0:0:
256,192,242475,1,0,0:0:0:0:
256,192,242558,1,0,0:0:0:0:
256,192,242640,1,8,0:0:0:0:
256,192,242722,1,8,0:0:0:0:
256,192,242805,1,0,0:0:0:0:
256,192,242887,1,0,0:0:0:0:
256,192,242970,1,0,0:0:0:0:
256,192,243080,1,0,0:0:0:0:
256,192,243189,1,0,0:0:0:0:
256,192,243299,1,8,0:0:0:0:
256,192,243409,1,0,0:0:0:0:
256,192,243519,1,0,0:0:0:0:
256,192,243629,1,8,0:0:0:0:
256,192,243739,1,8,0:0:0:0:
256,192,243849,1,0,0:0:0:0:
256,192,243959,1,12,0:0:0:0:
256,192,244288,1,0,0:0:0:0:
256,192,244618,1,8,0:0:0:0:
256,192,244700,1,8,0:0:0:0:
256,192,244783,1,0,0:0:0:0:
256,192,244865,1,0,0:0:0:0:
256,192,244948,1,8,0:0:0:0:
256,192,245030,1,8,0:0:0:0:
256,192,245113,1,0,0:0:0:0:
256,192,245195,1,0,0:0:0:0:
256,192,245277,1,8,0:0:0:0:
256,192,245360,1,8,0:0:0:0:
256,192,245442,1,0,0:0:0:0:
256,192,245525,1,0,0:0:0:0:
256,192,245607,1,8,0:0:0:0:
256,192,245689,1,0,0:0:0:0:
256,192,245772,1,0,0:0:0:0:
256,192,245854,1,0,0:0:0:0:
256,192,245937,1,8,0:0:0:0:
256,192,246019,1,8,0:0:0:0:
256,192,246102,1,8,0:0:0:0:
256,192,246184,1,8,0:0:0:0:
256,192,246266,1,0,0:0:0:0:
256,192,246349,1,0,0:0:0:0:
256,192,246431,1,0,0:0:0:0:
256,192,246514,1,0,0:0:0:0:
256,192,246596,1,8,0:0:0:0:
256,192,246761,1,0,0:0:0:0:
256,192,246843,1,0,0:0:0:0:
256,192,246926,1,0,0:0:0:0:
256,192,247091,1,0,0:0:0:0:
256,192,247255,1,8,0:0:0:0:
256,192,247338,1,8,0:0:0:0:
256,192,247420,1,0,0:0:0:0:
256,192,247503,1,0,0:0:0:0:
256,192,247585,1,8,0:0:0:0:
256,192,247667,1,8,0:0:0:0:
256,192,247750,1,0,0:0:0:0:
256,192,247832,1,0,0:0:0:0:
256,192,247915,1,8,0:0:0:0:
256,192,247997,1,8,0:0:0:0:
256,192,248080,1,0,0:0:0:0:
256,192,248162,1,0,0:0:0:0:
256,192,248244,1,8,0:0:0:0:
256,192,248327,1,0,0:0:0:0:
256,192,248409,1,0,0:0:0:0:
256,192,248492,1,0,0:0:0:0:
256,192,248574,1,8,0:0:0:0:
256,192,248656,1,8,0:0:0:0:
256,192,248739,1,8,0:0:0:0:
256,192,248821,1,8,0:0:0:0:
256,192,248904,1,0,0:0:0:0:
256,192,248986,1,0,0:0:0:0:
256,192,249069,1,0,0:0:0:0:
256,192,249151,1,0,0:0:0:0:
256,192,249233,1,8,0:0:0:0:
256,192,249398,1,0,0:0:0:0:
256,192,249481,1,0,0:0:0:0:
256,192,249563,1,0,0:0:0:0:
256,192,249728,1,0,0:0:0:0:
256,192,249893,1,8,0:0:0:0:
256,192,249975,1,8,0:0:0:0:
256,192,250058,1,0,0:0:0:0:
256,192,250140,1,0,0:0:0:0:
256,192,250222,1,8,0:0:0:0:
256,192,250305,1,8,0:0:0:0:
256,192,250387,1,0,0:0:0:0:
256,192,250470,1,0,0:0:0:0:
256,192,250552,1,8,0:0:0:0:
256,192,250634,1,8,0:0:0:0:
256,192,250717,1,0,0:0:0:0:
256,192,250799,1,0,0:0:0:0:
256,192,250882,1,8,0:0:0:0:
256,192,250964,1,0,0:0:0:0:
256,192,251047,1,0,0:0:0:0:
256,192,251129,1,0,0:0:0:0:
256,192,251211,1,8,0:0:0:0:
256,192,251294,1,8,0:0:0:0:
256,192,251376,1,8,0:0:0:0:
256,192,251459,1,8,0:0:0:0:
256,192,251541,1,0,0:0:0:0:
256,192,251624,1,0,0:0:0:0:
256,192,251706,1,0,0:0:0:0:
256,192,251788,1,0,0:0:0:0:
256,192,251871,1,8,0:0:0:0:
256,192,251953,1,0,0:0:0:0:
256,192,252036,1,8,0:0:0:0:
256,192,252118,1,8,0:0:0:0:
256,192,252200,1,0,0:0:0:0:
256,192,252365,1,8,0:0:0:0:
256,192,252530,1,0,0:0:0:0:
256,192,252613,1,0,0:0:0:0:
256,192,252695,1,8,0:0:0:0:
256,192,252777,1,8,0:0:0:0:
256,192,252860,1,0,0:0:0:0:
256,192,253025,1,8,0:0:0:0:
256,192,253189,1,8,0:0:0:0:
256,192,253272,1,0,0:0:0:0:
256,192,253354,1,8,0:0:0:0:
256,192,253437,1,8,0:0:0:0:
256,192,253519,1,0,0:0:0:0:
256,192,253684,1,8,0:0:0:0:
256,192,253849,1,0,0:0:0:0:
256,192,254014,1,8,0:0:0:0:
256,192,254178,1,0,0:0:0:0:
256,192,254261,1,0,0:0:0:0:
256,192,254343,1,8,0:0:0:0:
256,192,254508,1,4,0:0:0:0:
256,192,254673,1,0,0:0:0:0:
256,192,254838,1,8,0:0:0:0:
256,192,255003,1,0,0:0:0:0:
256,192,255167,1,8,0:0:0:0:
256,192,255250,1,8,0:0:0:0:
256,192,255332,1,8,0:0:0:0:
256,192,255415,1,8,0:0:0:0:
256,192,255497,1,8,0:0:0:0:
256,192,255580,1,8,0:0:0:0:
256,192,255662,1,8,0:0:0:0:
256,192,255744,1,8,0:0:0:0:
256,192,255827,1,8,0:0:0:0:
256,192,255909,1,8,0:0:0:0:
256,192,255992,1,8,0:0:0:0:
256,192,256074,1,8,0:0:0:0:
256,192,256156,1,0,0:0:0:0:
256,192,256239,1,0,0:0:0:0:
256,192,256321,1,0,0:0:0:0:
256,192,256404,1,0,0:0:0:0:
256,192,256486,1,8,0:0:0:0:
256,192,256569,1,8,0:0:0:0:
256,192,256651,1,8,0:0:0:0:
256,192,256733,1,8,0:0:0:0:
256,192,256816,1,0,0:0:0:0:
256,192,256898,1,0,0:0:0:0:
256,192,256981,1,0,0:0:0:0:
256,192,257063,1,0,0:0:0:0:
256,192,257145,1,8,0:0:0:0:
256,192,257310,1,0,0:0:0:0:
256,192,257393,1,0,0:0:0:0:
256,192,257475,1,8,0:0:0:0:
256,192,257640,1,0,0:0:0:0:
256,192,257805,1,8,0:0:0:0:
256,192,257887,1,8,0:0:0:0:
256,192,257970,1,0,0:0:0:0:
256,192,258052,1,0,0:0:0:0:
256,192,258134,1,8,0:0:0:0:
256,192,258217,1,8,0:0:0:0:
256,192,258299,1,0,0:0:0:0:
256,192,258382,1,0,0:0:0:0:
256,192,258464,1,8,0:0:0:0:
256,192,258547,1,8,0:0:0:0:
256,192,258629,1,0,0:0:0:0:
256,192,258711,1,0,0:0:0:0:
256,192,258794,1,8,0:0:0:0:
256,192,258876,1,8,0:0:0:0:
256,192,258959,1,0,0:0:0:0:
256,192,259041,1,0,0:0:0:0:
256,192,259124,1,8,0:0:0:0:
256,192,259206,1,8,0:0:0:0:
256,192,259288,1,8,0:0:0:0:
256,192,259371,1,8,0:0:0:0:
256,192,259453,1,0,0:0:0:0:
256,192,259536,1,0,0:0:0:0:
256,192,259618,1,0,0:0:0:0:
256,192,259700,1,0,0:0:0:0:
256,192,259783,1,8,0:0:0:0:
256,192,259948,1,0,0:0:0:0:
256,192,260030,1,0,0:0:0:0:
256,192,260113,1,8,0:0:0:0:
256,192,260277,1,0,0:0:0:0:
256,192,260442,1,8,0:0:0:0:
256,192,260525,1,8,0:0:0:0:
256,192,260607,1,8,0:0:0:0:
256,192,260689,1,8,0:0:0:0:
256,192,260772,1,8,0:0:0:0:
256,192,260854,1,8,0:0:0:0:
256,192,260937,1,8,0:0:0:0:
256,192,261019,1,8,0:0:0:0:
256,192,261102,1,8,0:0:0:0:
256,192,261184,1,8,0:0:0:0:
256,192,261266,1,8,0:0:0:0:
256,192,261349,1,8,0:0:0:0:
256,192,261431,1,0,0:0:0:0:
256,192,261514,1,0,0:0:0:0:
256,192,261596,1,0,0:0:0:0:
256,192,261678,1,0,0:0:0:0:
256,192,261761,1,8,0:0:0:0:
256,192,261843,1,8,0:0:0:0:
256,192,261926,1,8,0:0:0:0:
256,192,262008,1,8,0:0:0:0:
256,192,262091,1,0,0:0:0:0:
256,192,262173,1,0,0:0:0:0:
256,192,262255,1,0,0:0:0:0:
256,192,262338,1,0,0:0:0:0:
256,192,262420,1,8,0:0:0:0:
256,192,262503,1,0,0:0:0:0:
256,192,262585,1,0,0:0:0:0:
256,192,262667,1,0,0:0:0:0:
256,192,262750,1,8,0:0:0:0:
256,192,262832,1,0,0:0:0:0:
256,192,262915,1,0,0:0:0:0:
256,192,262997,1,0,0:0:0:0:
256,192,263080,1,8,0:0:0:0:
256,192,263162,1,8,0:0:0:0:
256,192,263244,1,0,0:0:0:0:
256,192,263327,1,0,0:0:0:0:
256,192,263409,1,8,0:0:0:0:
256,192,263492,1,8,0:0:0:0:
256,192,263574,1,0,0:0:0:0:
256,192,263656,1,0,0:0:0:0:
256,192,263739,1,8,0:0:0:0:
256,192,263821,1,8,0:0:0:0:
256,192,263904,1,8,0:0:0:0:
256,192,263986,1,0,0:0:0:0:
256,192,264069,1,8,0:0:0:0:
256,192,264151,1,8,0:0:0:0:
256,192,264233,1,8,0:0:0:0:
256,192,264316,1,0,0:0:0:0:
256,192,264398,1,8,0:0:0:0:
256,192,264481,1,8,0:0:0:0:
256,192,264563,1,8,0:0:0:0:
256,192,264645,1,8,0:0:0:0:
256,192,264728,1,8,0:0:0:0:
256,192,264810,1,8,0:0:0:0:
256,192,264893,1,8,0:0:0:0:
256,192,264975,1,8,0:0:0:0:
256,192,265058,1,4,0:0:0:0:
256,192,265725,1,0,0:0:0:0:
256,192,266059,1,0,0:0:0:0:
256,192,266225,1,0,0:0:0:0:
256,192,266392,1,8,0:0:0:0:
256,192,266725,1,0,0:0:0:0:
256,192,267059,1,8,0:0:0:0:
256,192,267392,1,8,0:0:0:0:
256,192,267725,1,4,0:0:0:0:
256,192,268392,1,0,0:0:0:0:
256,192,268725,1,0,0:0:0:0:
256,192,268892,1,0,0:0:0:0:
256,192,269059,1,8,0:0:0:0:
256,192,269392,1,0,0:0:0:0:
256,192,269725,1,8,0:0:0:0:
256,192,269892,1,8,0:0:0:0:
256,192,270059,1,0,0:0:0:0:
256,192,270392,1,12,0:0:0:0:
256,192,271059,1,0,0:0:0:0:
256,192,271392,1,0,0:0:0:0:
256,192,271559,1,0,0:0:0:0:
256,192,271725,1,8,0:0:0:0:
256,192,271892,1,0,0:0:0:0:
256,192,272059,1,8,0:0:0:0:
256,192,272225,1,8,0:0:0:0:
256,192,272392,1,0,0:0:0:0:
256,192,272559,1,0,0:0:0:0:
256,192,272725,1,8,0:0:0:0:
256,192,272892,1,0,0:0:0:0:
256,192,273059,1,8,0:0:0:0:
256,192,273225,1,8,0:0:0:0:
256,192,273392,1,0,0:0:0:0:
256,192,273559,1,0,0:0:0:0:
256,192,273725,1,0,0:0:0:0:
256,192,273892,1,8,0:0:0:0:
256,192,274059,1,8,0:0:0:0:
256,192,274225,1,0,0:0:0:0:
256,192,274392,1,8,0:0:0:0:
256,192,274559,1,0,0:0:0:0:
256,192,274725,1,8,0:0:0:0:
256,192,274892,1,0,0:0:0:0:
256,192,275059,1,8,0:0:0:0:
256,192,275225,1,8,0:0:0:0:
256,192,275392,1,0,0:0:0:0:
256,192,275559,1,0,0:0:0:0:
256,192,275725,1,12,0:0:0:0:
256,192,276392,1,0,0:0:0:0:
256,192,276725,1,0,0:0:0:0:
256,192,276892,1,0,0:0:0:0:
256,192,277059,1,8,0:0:0:0:
256,192,277392,1,0,0:0:0:0:
256,192,277725,1,8,0:0:0:0:
256,192,278059,1,8,0:0:0:0:
256,192,278392,1,4,0:0:0:0:
256,192,279059,1,0,0:0:0:0:
256,192,279392,1,8,0:0:0:0:
256,192,279503,1,0,0:0:0:0:
256,192,279614,1,0,0:0:0:0:
256,192,279725,1,8,0:0:0:0:
256,192,280059,1,8,0:0:0:0:
256,192,280170,1,8,0:0:0:0:
256,192,280281,1,8,0:0:0:0:
256,192,280392,1,0,0:0:0:0:
256,192,280725,1,0,0:0:0:0:
256,192,280836,1,0,0:0:0:0:
256,192,280947,1,0,0:0:0:0:
256,192,281059,1,12,0:0:0:0:
256,192,282059,1,0,0:0:0:0:
256,192,282225,1,0,0:0:0:0:
256,192,282392,1,8,0:0:0:0:
256,192,282559,1,0,0:0:0:0:
256,192,282725,1,8,0:0:0:0:
256,192,282892,1,8,0:0:0:0:
256,192,283059,1,0,0:0:0:0:
256,192,283225,1,0,0:0:0:0:
256,192,283392,1,8,0:0:0:0:
256,192,283559,1,0,0:0:0:0:
256,192,283725,1,8,0:0:0:0:
256,192,283947,1,0,0:0:0:0:
256,192,284059,1,8,0:0:0:0:
256,192,284170,1,8,0:0:0:0:
256,192,284281,1,0,0:0:0:0:
256,192,284392,1,8,0:0:0:0:
256,192,284503,1,0,0:0:0:0:
256,192,284614,1,0,0:0:0:0:
256,192,284725,1,8,0:0:0:0:
256,192,284836,1,0,0:0:0:0:
256,192,284947,1,0,0:0:0:0:
256,192,285059,1,8,0:0:0:0:
256,192,285170,1,8,0:0:0:0:
256,192,285281,1,0,0:0:0:0:
256,192,285392,1,8,0:0:0:0:
256,192,285503,1,0,0:0:0:0:
256,192,285614,1,0,0:0:0:0:
256,192,285725,1,8,0:0:0:0:
256,192,285836,1,0,0:0:0:0:
256,192,285947,1,0,0:0:0:0:
256,192,286059,1,8,0:0:0:0:
256,192,286170,1,8,0:0:0:0:
256,192,286281,1,0,0:0:0:0:
256,192,286392,1,12,0:0:0:0:
256,192,287392,1,0,0:0:0:0:
256,192,287559,1,0,0:0:0:0:
256,192,287725,1,8,0:0:0:0:
256,192,288059,1,0,0:0:0:0:
256,192,288392,1,12,0:0:0:0:
256,192,288725,1,0,0:0:0:0:
256,192,289059,1,4,0:0:0:0:
256,192,290225,1,0,0:0:0:0:
256,192,290309,1,0,0:0:0:0:
256,192,290392,1,8,0:0:0:0:
256,192,290725,1,0,0:0:0:0:
256,192,290836,1,0,0:0:0:0:
256,192,290947,1,0,0:0:0:0:
256,192,291059,1,8,0:0:0:0:
256,192,291392,1,8,0:0:0:0:
256,192,291725,1,4,0:0:0:0:
256,192,292725,1,0,0:0:0:0:
256,192,292892,1,0,0:0:0:0:
256,192,293058,1,8,0:0:0:0:
256,192,293392,1,0,0:0:0:0:
256,192,293725,1,12,0:0:0:0:
256,192,294058,1,12,0:0:0:0:
256,192,294392,1,4,0:0:0:0:
256,192,294725,1,0,0:0:0:0:
256,192,294892,1,0,0:0:0:0:
256,192,295058,1,8,0:0:0:0:
256,192,295225,1,0,0:0:0:0:
256,192,295392,1,0,0:0:0:0:
256,192,295558,1,0,0:0:0:0:
256,192,295725,1,8,0:0:0:0:
256,192,296058,1,0,0:0:0:0:
256,192,296392,1,8,0:0:0:0:
256,192,296725,1,0,0:0:0:0:
256,192,297058,1,8,0:0:0:0:
256,192,297170,1,8,0:0:0:0:
256,192,297281,1,8,0:0:0:0:
256,192,297392,1,0,0:0:0:0:
256,192,297503,1,0,0:0:0:0:
256,192,297614,1,8,0:0:0:0:
256,192,297725,1,8,0:0:0:0:
256,192,297836,1,0,0:0:0:0:
256,192,297947,1,8,0:0:0:0:
256,192,298058,1,8,0:0:0:0:
256,192,298170,1,0,0:0:0:0:
256,192,298281,1,8,0:0:0:0:
256,192,298392,1,8,0:0:0:0:
256,192,298503,1,8,0:0:0:0:
256,192,298614,1,0,0:0:0:0:
256,192,298725,1,8,0:0:0:0:
256,192,298836,1,0,0:0:0:0:
256,192,298947,1,8,0:0:0:0:
256,192,299058,1,8,0:0:0:0:
256,192,299170,1,0,0:0:0:0:
256,192,299281,1,0,0:0:0:0:
256,192,299392,1,8,0:0:0:0:
256,192,299503,1,0,0:0:0:0:
256,192,299614,1,8,0:0:0:0:
256,192,299670,1,0,0:0:0:0:
256,192,299725,1,8,0:0:0:0:
256,192,299836,1,0,0:0:0:0:
256,192,299947,1,0,0:0:0:0:
256,192,300058,1,8,0:0:0:0:
256,192,300170,1,0,0:0:0:0:
256,192,300281,1,8,0:0:0:0:
256,192,300392,1,8,0:0:0:0:
256,192,300503,1,8,0:0:0:0:
256,192,300614,1,0,0:0:0:0:
256,192,300725,1,0,0:0:0:0:
256,192,300836,1,0,0:0:0:0:
256,192,300947,1,8,0:0:0:0:
256,192,301058,1,8,0:0:0:0:
256,192,301170,1,8,0:0:0:0:
256,192,301281,1,0,0:0:0:0:
256,192,301392,1,0,0:0:0:0:
256,192,301503,1,0,0:0:0:0:
256,192,301614,1,8,0:0:0:0:
256,192,301725,1,8,0:0:0:0:
256,192,301836,1,0,0:0:0:0:
256,192,301947,1,8,0:0:0:0:
256,192,302058,1,0,0:0:0:0:
256,192,302142,1,0,0:0:0:0:
256,192,302225,1,8,0:0:0:0:
256,192,302308,1,0,0:0:0:0:
256,192,302392,1,8,0:0:0:0:
256,192,302503,1,8,0:0:0:0:
256,192,302614,1,0,0:0:0:0:
256,192,302725,1,0,0:0:0:0:
256,192,302836,1,8,0:0:0:0:
256,192,302947,1,8,0:0:0:0:
256,192,303058,1,0,0:0:0:0:
256,192,303170,1,8,0:0:0:0:
256,192,303281,1,8,0:0:0:0:
256,192,303392,1,8,0:0:0:0:
256,192,303503,1,0,0:0:0:0:
256,192,303614,1,0,0:0:0:0:
256,192,303725,1,8,0:0:0:0:
256,192,303836,1,8,0:0:0:0:
256,192,303947,1,0,0:0:0:0:
256,192,304058,1,0,0:0:0:0:
256,192,304170,1,8,0:0:0:0:
256,192,304281,1,0,0:0:0:0:
256,192,304392,1,8,0:0:0:0:
256,192,304503,1,8,0:0:0:0:
256,192,304614,1,0,0:0:0:0:
256,192,304725,1,0,0:0:0:0:
256,192,304836,1,0,0:0:0:0:
256,192,304947,1,8,0:0:0:0:
256,192,305003,1,0,0:0:0:0:
256,192,305058,1,8,0:0:0:0:
256,192,305170,1,0,0:0:0:0:
256,192,305281,1,8,0:0:0:0:
256,192,305392,1,0,0:0:0:0:
256,192,305503,1,8,0:0:0:0:
256,192,305614,1,8,0:0:0:0:
256,192,305725,1,8,0:0:0:0:
256,192,305836,1,0,0:0:0:0:
256,192,305947,1,0,0:0:0:0:
256,192,306058,1,8,0:0:0:0:
256,192,306170,1,8,0:0:0:0:
256,192,306281,1,0,0:0:0:0:
256,192,306392,5,8,0:0:0:0:
256,192,306475,1,0,0:0:0:0:
256,192,306558,1,8,0:0:0:0:
256,192,306642,1,0,0:0:0:0:
256,192,306725,1,8,0:0:0:0:
256,192,306808,1,0,0:0:0:0:
256,192,306892,1,8,0:0:0:0:
256,192,306975,1,8,0:0:0:0:
256,192,307058,1,0,0:0:0:0:
256,192,307142,1,0,0:0:0:0:
256,192,307225,1,8,0:0:0:0:
256,192,307308,1,0,0:0:0:0:
256,192,307392,1,8,0:0:0:0:
256,192,307475,1,8,0:0:0:0:
256,192,307558,1,0,0:0:0:0:
256,192,307725,1,12,0:0:0:0:
256,192,311725,1,8,0:0:0:0:
256,192,311873,1,0,0:0:0:0:
256,192,311947,1,0,0:0:0:0:
256,192,312022,1,8,0:0:0:0:
256,192,312170,1,0,0:0:0:0:
256,192,312319,1,8,0:0:0:0:
256,192,312393,1,8,0:0:0:0:
256,192,312467,1,8,0:0:0:0:
256,192,312541,1,8,0:0:0:0:
256,192,312616,1,8,0:0:0:0:
256,192,312690,1,8,0:0:0:0:
256,192,312764,1,8,0:0:0:0:
256,192,312838,1,8,0:0:0:0:
256,192,312913,1,8,0:0:0:0:
256,192,312987,1,8,0:0:0:0:
256,192,313061,1,8,0:0:0:0:
256,192,313135,1,8,0:0:0:0:
256,192,313210,1,0,0:0:0:0:
256,192,313284,1,0,0:0:0:0:
256,192,313358,1,0,0:0:0:0:
256,192,313432,1,0,0:0:0:0:
256,192,313507,1,8,0:0:0:0:
256,192,313581,1,8,0:0:0:0:
256,192,313655,1,8,0:0:0:0:
256,192,313729,1,8,0:0:0:0:
256,192,313804,1,0,0:0:0:0:
256,192,313878,1,0,0:0:0:0:
256,192,313952,1,0,0:0:0:0:
256,192,314026,1,0,0:0:0:0:
256,192,314101,1,8,0:0:0:0:
256,192,314249,1,0,0:0:0:0:
256,192,314324,1,0,0:0:0:0:
256,192,314398,1,8,0:0:0:0:
256,192,314546,1,0,0:0:0:0:
256,192,314695,1,8,0:0:0:0:
256,192,314769,1,8,0:0:0:0:
256,192,314843,1,8,0:0:0:0:
256,192,314918,1,8,0:0:0:0:
256,192,314992,1,8,0:0:0:0:
256,192,315066,1,8,0:0:0:0:
256,192,315140,1,8,0:0:0:0:
256,192,315215,1,8,0:0:0:0:
256,192,315289,1,8,0:0:0:0:
256,192,315363,1,8,0:0:0:0:
256,192,315437,1,8,0:0:0:0:
256,192,315512,1,8,0:0:0:0:
256,192,315586,1,0,0:0:0:0:
256,192,315660,1,0,0:0:0:0:
256,192,315734,1,0,0:0:0:0:
256,192,315809,1,0,0:0:0:0:
256,192,315883,1,8,0:0:0:0:
256,192,315957,1,8,0:0:0:0:
256,192,316031,1,8,0:0:0:0:
256,192,316106,1,8,0:0:0:0:
256,192,316180,1,0,0:0:0:0:
256,192,316254,1,0,0:0:0:0:
256,192,316328,1,0,0:0:0:0:
256,192,316403,1,0,0:0:0:0:
256,192,316477,1,8,0:0:0:0:
256,192,316625,1,0,0:0:0:0:
256,192,316700,1,0,0:0:0:0:
256,192,316774,1,8,0:0:0:0:
256,192,316923,1,0,0:0:0:0:
256,192,317071,1,8,0:0:0:0:
256,192,317145,1,8,0:0:0:0:
256,192,317220,1,8,0:0:0:0:
256,192,317294,1,8,0:0:0:0:
256,192,317368,1,8,0:0:0:0:
256,192,317442,1,8,0:0:0:0:
256,192,317517,1,8,0:0:0:0:
256,192,317591,1,8,0:0:0:0:
256,192,317665,1,8,0:0:0:0:
256,192,317739,1,8,0:0:0:0:
256,192,317814,1,8,0:0:0:0:
256,192,317888,1,8,0:0:0:0:
256,192,317962,1,0,0:0:0:0:
256,192,318036,1,0,0:0:0:0:
256,192,318111,1,0,0:0:0:0:
256,192,318185,1,0,0:0:0:0:
256,192,318259,1,8,0:0:0:0:
256,192,318333,1,8,0:0:0:0:
256,192,318408,1,8,0:0:0:0:
256,192,318482,1,8,0:0:0:0:
256,192,318556,1,0,0:0:0:0:
256,192,318630,1,0,0:0:0:0:
256,192,318705,1,0,0:0:0:0:
256,192,318779,1,0,0:0:0:0:
256,192,318853,1,8,0:0:0:0:
256,192,318927,1,8,0:0:0:0:
256,192,319002,1,8,0:0:0:0:
256,192,319076,1,8,0:0:0:0:
256,192,319150,1,8,0:0:0:0:
256,192,319225,1,8,0:0:0:0:
256,192,319299,1,0,0:0:0:0:
256,192,319373,1,0,0:0:0:0:
256,192,319447,1,8,0:0:0:0:
256,192,319522,1,8,0:0:0:0:
256,192,319596,1,8,0:0:0:0:
256,192,319670,1,8,0:0:0:0:
256,192,319744,1,8,0:0:0:0:
256,192,319819,1,8,0:0:0:0:
256,192,319893,1,0,0:0:0:0:
256,192,319967,1,0,0:0:0:0:
256,192,320041,1,8,0:0:0:0:
256,192,320116,1,0,0:0:0:0:
256,192,320190,1,8,0:0:0:0:
256,192,320264,1,8,0:0:0:0:
256,192,320338,1,0,0:0:0:0:
256,192,320413,1,0,0:0:0:0:
256,192,320487,1,8,0:0:0:0:
256,192,320561,1,0,0:0:0:0:
256,192,320635,1,8,0:0:0:0:
256,192,320710,1,8,0:0:0:0:
256,192,320784,1,0,0:0:0:0:
256,192,320858,1,0,0:0:0:0:
256,192,320932,1,8,0:0:0:0:
256,192,321007,1,0,0:0:0:0:
256,192,321081,1,8,0:0:0:0:
256,192,321229,1,0,0:0:0:0:
256,192,321378,1,8,0:0:0:0:
256,192,321452,1,0,0:0:0:0:
256,192,321526,1,0,0:0:0:0:
256,192,321675,1,8,0:0:0:0:
256,192,321824,1,8,0:0:0:0:
256,192,321898,1,8,0:0:0:0:
256,192,321972,1,0,0:0:0:0:
256,192,322046,1,0,0:0:0:0:
256,192,322121,1,8,0:0:0:0:
256,192,322195,1,8,0:0:0:0:
256,192,322269,1,0,0:0:0:0:
256,192,322343,1,0,0:0:0:0:
256,192,322418,1,8,0:0:0:0:
256,192,322492,1,8,0:0:0:0:
256,192,322566,1,0,0:0:0:0:
256,192,322640,1,0,0:0:0:0:
256,192,322715,1,8,0:0:0:0:
256,192,322789,1,8,0:0:0:0:
256,192,322863,1,8,0:0:0:0:
256,192,322937,1,8,0:0:0:0:
256,192,323012,1,0,0:0:0:0:
256,192,323086,1,0,0:0:0:0:
256,192,323160,1,0,0:0:0:0:
256,192,323234,1,0,0:0:0:0:
256,192,323309,1,8,0:0:0:0:
256,192,323383,1,8,0:0:0:0:
256,192,323457,1,0,0:0:0:0:
256,192,323531,1,0,0:0:0:0:
256,192,323606,1,8,0:0:0:0:
256,192,323754,1,0,0:0:0:0:
256,192,323828,1,0,0:0:0:0:
256,192,323903,1,8,0:0:0:0:
256,192,324051,1,0,0:0:0:0:
256,192,324200,1,8,0:0:0:0:
256,192,324274,1,8,0:0:0:0:
256,192,324348,1,0,0:0:0:0:
256,192,324423,1,0,0:0:0:0:
256,192,324497,1,8,0:0:0:0:
256,192,324571,1,8,0:0:0:0:
256,192,324645,1,0,0:0:0:0:
256,192,324720,1,0,0:0:0:0:
256,192,324794,1,8,0:0:0:0:
256,192,324868,1,8,0:0:0:0:
256,192,324942,1,0,0:0:0:0:
256,192,325017,1,0,0:0:0:0:
256,192,325091,1,8,0:0:0:0:
256,192,325165,1,8,0:0:0:0:
256,192,325239,1,8,0:0:0:0:
256,192,325314,1,8,0:0:0:0:
256,192,325388,1,0,0:0:0:0:
256,192,325462,1,0,0:0:0:0:
256,192,325536,1,0,0:0:0:0:
256,192,325611,1,0,0:0:0:0:
256,192,325685,1,8,0:0:0:0:
256,192,325759,1,8,0:0:0:0:
256,192,325833,1,0,0:0:0:0:
256,192,325908,1,0,0:0:0:0:
256,192,325982,1,8,0:0:0:0:
256,192,326130,1,0,0:0:0:0:
256,192,326205,1,0,0:0:0:0:
256,192,326279,1,8,0:0:0:0:
256,192,326427,1,0,0:0:0:0:
256,192,326576,1,8,0:0:0:0:
256,192,326650,1,8,0:0:0:0:
256,192,326725,1,0,0:0:0:0:
256,192,326799,1,0,0:0:0:0:
256,192,326873,1,8,0:0:0:0:
256,192,326947,1,8,0:0:0:0:
256,192,327022,1,0,0:0:0:0:
256,192,327096,1,0,0:0:0:0:
256,192,327170,1,8,0:0:0:0:
256,192,327244,1,8,0:0:0:0:
256,192,327319,1,0,0:0:0:0:
256,192,327393,1,0,0:0:0:0:
256,192,327467,1,8,0:0:0:0:
256,192,327541,1,8,0:0:0:0:
256,192,327616,1,8,0:0:0:0:
256,192,327690,1,8,0:0:0:0:
256,192,327764,1,0,0:0:0:0:
256,192,327838,1,0,0:0:0:0:
256,192,327913,1,0,0:0:0:0:
256,192,327987,1,0,0:0:0:0:
256,192,328061,1,8,0:0:0:0:
256,192,328135,1,8,0:0:0:0:
256,192,328210,1,0,0:0:0:0:
256,192,328284,1,0,0:0:0:0:
256,192,328358,1,8,0:0:0:0:
256,192,328432,1,8,0:0:0:0:
256,192,328507,1,8,0:0:0:0:
256,192,328581,1,8,0:0:0:0:
256,192,328655,1,8,0:0:0:0:
256,192,328729,1,8,0:0:0:0:
256,192,328804,1,8,0:0:0:0:
256,192,328878,1,8,0:0:0:0:
256,192,328952,1,0,0:0:0:0:
256,192,329026,1,0,0:0:0:0:
256,192,329101,1,0,0:0:0:0:
256,192,329175,1,0,0:0:0:0:
256,192,329249,1,8,0:0:0:0:
256,192,329324,1,8,0:0:0:0:
256,192,329398,1,8,0:0:0:0:
256,192,329472,1,8,0:0:0:0:
256,192,329546,1,0,0:0:0:0:
256,192,329621,1,0,0:0:0:0:
256,192,329695,1,8,0:0:0:0:
256,192,329769,1,8,0:0:0:0:
256,192,329843,1,0,0:0:0:0:
256,192,329918,1,0,0:0:0:0:
256,192,329992,1,0,0:0:0:0:
256,192,330066,1,0,0:0:0:0:
256,192,330140,5,8,0:0:0:0:
256,192,330215,1,8,0:0:0:0:
256,192,330289,1,0,0:0:0:0:
256,192,330363,1,0,0:0:0:0:
256,192,330437,1,8,0:0:0:0:
256,192,330586,1,0,0:0:0:0:
256,192,330734,1,12,0:0:0:0:
256,192,330883,1,0,0:0:0:0:
256,192,330957,1,0,0:0:0:0:
256,192,331031,1,8,0:0:0:0:
256,192,331180,1,0,0:0:0:0:
256,192,331328,1,8,0:0:0:0:
256,192,331403,1,8,0:0:0:0:
256,192,331477,1,8,0:0:0:0:
256,192,331551,1,8,0:0:0:0:
256,192,331625,1,8,0:0:0:0:
256,192,331700,1,8,0:0:0:0:
256,192,331774,1,8,0:0:0:0:
256,192,331848,1,8,0:0:0:0:
256,192,331923,1,8,0:0:0:0:
256,192,331997,1,8,0:0:0:0:
256,192,332071,1,8,0:0:0:0:
256,192,332145,1,8,0:0:0:0:
256,192,332220,1,0,0:0:0:0:
256,192,332294,1,0,0:0:0:0:
256,192,332368,1,0,0:0:0:0:
256,192,332442,1,0,0:0:0:0:
256,192,332517,1,8,0:0:0:0:
256,192,332591,1,8,0:0:0:0:
256,192,332665,1,8,0:0:0:0:
256,192,332739,1,8,0:0:0:0:
256,192,332814,1,0,0:0:0:0:
256,192,332888,1,0,0:0:0:0:
256,192,332962,1,0,0:0:0:0:
256,192,333036,1,0,0:0:0:0:
256,192,333111,1,8,0:0:0:0:
256,192,333259,1,0,0:0:0:0:
256,192,333333,1,0,0:0:0:0:
256,192,333408,1,8,0:0:0:0:
256,192,333556,1,0,0:0:0:0:
256,192,333705,1,8,0:0:0:0:
256,192,333779,1,8,0:0:0:0:
256,192,333853,1,0,0:0:0:0:
256,192,333927,1,0,0:0:0:0:
256,192,334002,1,8,0:0:0:0:
256,192,334076,1,8,0:0:0:0:
256,192,334150,1,0,0:0:0:0:
256,192,334225,1,0,0:0:0:0:
256,192,334299,1,8,0:0:0:0:
256,192,334373,1,8,0:0:0:0:
256,192,334447,1,8,0:0:0:0:
256,192,334522,1,8,0:0:0:0:
256,192,334596,1,0,0:0:0:0:
256,192,334670,1,0,0:0:0:0:
256,192,334744,1,0,0:0:0:0:
256,192,334819,1,0,0:0:0:0:
256,192,334893,1,8,0:0:0:0:
256,192,334967,1,8,0:0:0:0:
256,192,335041,1,8,0:0:0:0:
256,192,335116,1,8,0:0:0:0:
256,192,335190,1,0,0:0:0:0:
256,192,335264,1,0,0:0:0:0:
256,192,335338,1,8,0:0:0:0:
256,192,335413,1,8,0:0:0:0:
256,192,335487,1,0,0:0:0:0:
256,192,335635,1,0,0:0:0:0:
256,192,335710,1,0,0:0:0:0:
256,192,335784,1,8,0:0:0:0:
256,192,335932,1,0,0:0:0:0:
256,192,336081,1,8,0:0:0:0:
256,192,336155,1,8,0:0:0:0:
256,192,336229,1,8,0:0:0:0:
256,192,336304,1,8,0:0:0:0:
256,192,336378,1,8,0:0:0:0:
256,192,336452,1,8,0:0:0:0:
256,192,336526,1,8,0:0:0:0:
256,192,336601,1,8,0:0:0:0:
256,192,336675,1,8,0:0:0:0:
256,192,336749,1,8,0:0:0:0:
256,192,336824,1,8,0:0:0:0:
256,192,336898,1,8,0:0:0:0:
256,192,336972,1,0,0:0:0:0:
256,192,337046,1,0,0:0:0:0:
256,192,337121,1,0,0:0:0:0:
256,192,337195,1,0,0:0:0:0:
256,192,337269,1,8,0:0:0:0:
256,192,337343,1,8,0:0:0:0:
256,192,337418,1,8,0:0:0:0:
256,192,337492,1,8,0:0:0:0:
256,192,337566,1,0,0:0:0:0:
256,192,337640,1,0,0:0:0:0:
256,192,337715,1,0,0:0:0:0:
256,192,337789,1,0,0:0:0:0:
256,192,337863,1,8,0:0:0:0:
256,192,337937,1,8,0:0:0:0:
256,192,338012,1,8,0:0:0:0:
256,192,338086,1,8,0:0:0:0:
256,192,338160,1,8,0:0:0:0:
256,192,338234,1,8,0:0:0:0:
256,192,338309,1,8,0:0:0:0:
256,192,338383,1,8,0:0:0:0:
256,192,338457,1,0,0:0:0:0:
256,192,338531,1,0,0:0:0:0:
256,192,338606,1,0,0:0:0:0:
256,192,338680,1,0,0:0:0:0:
256,192,338754,1,0,0:0:0:0:
256,192,338828,1,0,0:0:0:0:
256,192,338903,1,0,0:0:0:0:
256,192,338977,1,0,0:0:0:0:
256,192,339051,1,8,0:0:0:0:
256,192,339125,1,8,0:0:0:0:
256,192,339200,1,8,0:0:0:0:
256,192,339274,1,8,0:0:0:0:
256,192,339348,1,8,0:0:0:0:
256,192,339423,1,8,0:0:0:0:
256,192,339497,1,0,0:0:0:0:
256,192,339571,1,0,0:0:0:0:
256,192,339645,1,8,0:0:0:0:
256,192,339720,1,8,0:0:0:0:
256,192,339794,1,8,0:0:0:0:
256,192,339868,1,8,0:0:0:0:
256,192,339942,1,8,0:0:0:0:
256,192,340017,1,8,0:0:0:0:
256,192,340091,1,0,0:0:0:0:
256,192,340239,1,12,0:0:0:0:
256,192,340388,1,0,0:0:0:0:
256,192,340462,1,0,0:0:0:0:
256,192,340536,1,8,0:0:0:0:
256,192,340685,1,0,0:0:0:0:
256,192,340833,1,8,0:0:0:0:
256,192,340908,1,8,0:0:0:0:
256,192,340982,1,8,0:0:0:0:
256,192,341056,1,8,0:0:0:0:
256,192,341130,1,8,0:0:0:0:
256,192,341205,1,8,0:0:0:0:
256,192,341279,1,8,0:0:0:0:
256,192,341353,1,8,0:0:0:0:
256,192,341427,1,8,0:0:0:0:
256,192,341502,1,8,0:0:0:0:
256,192,341576,1,8,0:0:0:0:
256,192,341650,1,8,0:0:0:0:
256,192,341725,1,0,0:0:0:0:
256,192,341799,1,0,0:0:0:0:
256,192,341873,1,0,0:0:0:0:
256,192,341947,1,0,0:0:0:0:
256,192,342022,1,8,0:0:0:0:
256,192,342096,1,8,0:0:0:0:
256,192,342170,1,8,0:0:0:0:
256,192,342244,1,8,0:0:0:0:
256,192,342319,1,0,0:0:0:0:
256,192,342393,1,0,0:0:0:0:
256,192,342467,1,0,0:0:0:0:
256,192,342541,1,0,0:0:0:0:
256,192,342616,1,8,0:0:0:0:
256,192,342764,1,0,0:0:0:0:
256,192,342838,1,0,0:0:0:0:
256,192,342913,1,8,0:0:0:0:
256,192,343061,1,0,0:0:0:0:
256,192,343210,1,8,0:0:0:0:
256,192,343284,1,8,0:0:0:0:
256,192,343358,1,0,0:0:0:0:
256,192,343432,1,0,0:0:0:0:
256,192,343507,1,8,0:0:0:0:
256,192,343581,1,8,0:0:0:0:
256,192,343655,1,0,0:0:0:0:
256,192,343729,1,0,0:0:0:0:
256,192,343804,1,8,0:0:0:0:
256,192,343878,1,8,0:0:0:0:
256,192,343952,1,0,0:0:0:0:
256,192,344026,1,0,0:0:0:0:
256,192,344101,1,8,0:0:0:0:
256,192,344175,1,8,0:0:0:0:
256,192,344249,1,8,0:0:0:0:
256,192,344324,1,8,0:0:0:0:
256,192,344398,1,0,0:0:0:0:
256,192,344472,1,0,0:0:0:0:
256,192,344546,1,0,0:0:0:0:
256,192,344621,1,0,0:0:0:0:
256,192,344695,1,8,0:0:0:0:
256,192,344769,1,8,0:0:0:0:
256,192,344843,1,0,0:0:0:0:
256,192,344918,1,0,0:0:0:0:
256,192,344992,1,8,0:0:0:0:
256,192,345140,1,0,0:0:0:0:
256,192,345215,1,0,0:0:0:0:
256,192,345289,1,8,0:0:0:0:
256,192,345437,1,0,0:0:0:0:
256,192,345586,1,8,0:0:0:0:
256,192,345660,1,8,0:0:0:0:
256,192,345734,1,8,0:0:0:0:
256,192,345809,1,8,0:0:0:0:
256,192,345883,1,8,0:0:0:0:
256,192,345957,1,8,0:0:0:0:
256,192,346031,1,8,0:0:0:0:
256,192,346106,1,8,0:0:0:0:
256,192,346180,1,8,0:0:0:0:
256,192,346254,1,8,0:0:0:0:
256,192,346328,1,8,0:0:0:0:
256,192,346403,1,8,0:0:0:0:
256,192,346477,1,0,0:0:0:0:
256,192,346551,1,0,0:0:0:0:
256,192,346625,1,0,0:0:0:0:
256,192,346700,1,0,0:0:0:0:
256,192,346774,1,8,0:0:0:0:
256,192,346848,1,8,0:0:0:0:
256,192,346923,1,8,0:0:0:0:
256,192,346997,1,8,0:0:0:0:
256,192,347071,1,0,0:0:0:0:
256,192,347145,1,0,0:0:0:0:
256,192,347220,1,0,0:0:0:0:
256,192,347294,1,0,0:0:0:0:
256,192,347368,1,8,0:0:0:0:
256,192,347442,1,8,0:0:0:0:
256,192,347517,1,8,0:0:0:0:
256,192,347591,1,8,0:0:0:0:
256,192,347665,1,8,0:0:0:0:
256,192,347739,1,8,0:0:0:0:
256,192,347814,1,8,0:0:0:0:
256,192,347888,1,8,0:0:0:0:
256,192,347962,1,0,0:0:0:0:
256,192,348036,1,0,0:0:0:0:
256,192,348111,1,0,0:0:0:0:
256,192,348185,1,0,0:0:0:0:
256,192,348259,1,0,0:0:0:0:
256,192,348333,1,0,0:0:0:0:
256,192,348408,1,0,0:0:0:0:
256,192,348482,1,0,0:0:0:0:
256,192,348556,1,8,0:0:0:0:
256,192,348630,1,8,0:0:0:0:
256,192,348705,1,8,0:0:0:0:
256,192,348779,1,8,0:0:0:0:
256,192,348853,1,8,0:0:0:0:
256,192,348927,1,8,0:0:0:0:
256,192,349002,1,0,0:0:0:0:
256,192,349076,1,0,0:0:0:0:
256,192,349150,1,8,0:0:0:0:
256,192,349225,1,8,0:0:0:0:
256,192,349299,1,8,0:0:0:0:
256,192,349373,1,8,0:0:0:0:
256,192,349447,1,8,0:0:0:0:
256,192,349522,1,8,0:0:0:0:
256,192,349596,1,8,0:0:0:0:
256,192,349744,1,0,0:0:0:0:
256,192,349912,1,0,0:0:0:0:
256,192,350081,1,0,0:0:0:0:
256,192,350249,1,0,0:0:0:0:
256,192,350418,1,12,0:0:0:0:
256,192,352440,1,0,0:0:0:0:
256,192,352609,1,0,0:0:0:0:
256,192,352777,1,0,0:0:0:0:
256,192,352946,1,0,0:0:0:0:
256,192,353114,1,12,0:0:0:0:
256,192,355137,1,0,0:0:0:0:
256,192,355305,1,0,0:0:0:0:
256,192,355474,1,0,0:0:0:0:
256,192,355642,1,0,0:0:0:0:
256,192,355811,1,12,0:0:0:0:
256,192,357833,1,0,0:0:0:0:
256,192,358002,1,0,0:0:0:0:
256,192,358170,1,0,0:0:0:0:
256,192,358339,1,0,0:0:0:0:
256,192,358508,1,12,0:0:0:0:
256,192,360530,1,4,0:0:0:0:
256,192,360796,1,4,0:0:0:0:
256,192,361063,1,4,0:0:0:0:
256,192,361330,1,12,0:0:0:0:
256,192,366130,1,0,0:0:0:0:
256,192,366355,1,0,0:0:0:0:
256,192,366581,1,8,0:0:0:0:
256,192,366806,1,0,0:0:0:0:
256,192,367257,1,8,0:0:0:0:
256,192,367483,1,0,0:0:0:0:
256,192,367708,1,0,0:0:0:0:
256,192,367934,1,8,0:0:0:0:
256,192,368611,1,0,0:0:0:0:
256,192,368836,1,8,0:0:0:0:
256,192,369062,1,8,0:0:0:0:
256,192,369287,1,0,0:0:0:0:
256,192,369513,1,0,0:0:0:0:
256,192,369739,1,0,0:0:0:0:
256,192,369964,1,0,0:0:0:0:
256,192,370190,1,8,0:0:0:0:
256,192,370415,1,8,0:0:0:0:
256,192,370866,1,0,0:0:0:0:
256,192,371092,1,8,0:0:0:0:
256,192,371317,1,0,0:0:0:0:
256,192,371543,1,8,0:0:0:0:
256,192,371769,1,0,0:0:0:0:
256,192,371994,1,8,0:0:0:0:
256,192,372220,1,8,0:0:0:0:
256,192,372671,1,0,0:0:0:0:
256,192,372896,1,8,0:0:0:0:
256,192,373348,1,0,0:0:0:0:
256,192,373573,1,0,0:0:0:0:
256,192,373799,1,8,0:0:0:0:
256,192,374025,1,8,0:0:0:0:
256,192,374477,1,0,0:0:0:0:
256,192,374703,1,8,0:0:0:0:
256,192,374929,1,0,0:0:0:0:
256,192,375155,1,8,0:0:0:0:
256,192,375900,1,0,0:0:0:0:
256,192,376139,1,8,0:0:0:0:
256,192,376368,1,8,0:0:0:0:
256,192,376598,1,0,0:0:0:0:
256,192,376828,1,8,0:0:0:0:
256,192,377058,1,0,0:0:0:0:
256,192,377288,1,0,0:0:0:0:
256,192,377519,1,0,0:0:0:0:
256,192,377750,1,8,0:0:0:0:
256,192,378211,1,0,0:0:0:0:
256,192,378442,1,8,0:0:0:0:
256,192,378673,1,8,0:0:0:0:
256,192,378904,1,0,0:0:0:0:
256,192,379150,1,0,0:0:0:0:
256,192,379397,1,0,0:0:0:0:
256,192,379644,1,8,0:0:0:0:
256,192,380116,1,0,0:0:0:0:
256,192,380342,1,8,0:0:0:0:
256,192,380857,1,8,0:0:0:0:
