osu file format v14

[General]
AudioFilename: audio.mp3
AudioLeadIn: 0
PreviewTime: 50483
Countdown: 1
SampleSet: Soft
StackLeniency: 0.6
Mode: 0
LetterboxInBreaks: 0
WidescreenStoryboard: 1

[Editor]
Bookmarks: 212,31300,40744,50188,69076,87965,111575,130463,149352,158796
DistanceSpacing: 1.2
BeatDivisor: 4
GridSize: 16
TimelineZoom: 1.3

[Metadata]
Title:Path
TitleUnicode:Path
Artist:Apocalyptica
ArtistUnicode:Apocalyptica
Creator:Daykeyboard
Version:Bridges
Source:
Tags:death stranding mercury records cello classical neoclassical cult progressive alternative symphonic metal Eicca Toppinen Paavo Lötjönen Perttu Kivilaakso Mikko Sirén
BeatmapID:2157905
BeatmapSetID:1031942

[Difficulty]
HPDrainRate:5
CircleSize:5
OverallDifficulty:5
ApproachRate:9.5
SliderMultiplier:1
SliderTickRate:1

[Events]
//Background and Video events
0,0,"yakovlev.jpg",0,0
//Break Periods
2,36073,111050
//Storyboard Layer 0 (Background)
//Storyboard Layer 1 (Fail)
//Storyboard Layer 2 (Pass)
//Storyboard Layer 3 (Foreground)
//Storyboard Layer 4 (Overlay)
//Storyboard Sound Samples

[TimingPoints]
212,688.073394495413,4,2,0,100,1,0
900,-100,4,2,0,15,0,0
1244,807.537012113055,4,2,0,100,1,0
1647,652.883569096844,4,2,0,100,1,0
1973,-100,4,2,0,15,0,0
2300,743.494423791822,4,2,0,100,1,0
2671,-100,4,2,0,15,0,0
3043,674.157303370787,4,2,0,100,1,0
3717,-100,4,2,0,15,0,0
4054,759.493670886076,4,2,0,100,1,0
4434,712.589073634204,4,2,0,100,1,0
4790,-100,4,2,0,15,0,0
5147,698.48661233993,4,2,0,100,1,0
5496,-100,4,2,0,15,0,0
5845,668.15144766147,4,2,0,100,1,0
6513,-100,4,2,0,15,0,0
6847,721.153846153846,4,2,0,100,1,0
7207,702.576112412178,4,2,0,100,1,0
7558,-100,4,2,0,15,0,0
7909,721.153846153846,4,2,0,100,1,0
8269,-100,4,2,0,15,0,0
8630,714.285714285714,4,2,0,100,1,0
9344,-100,4,2,0,15,0,0
9702,739.827373612824,4,2,0,100,1,0
10072,680.272108843537,4,2,0,100,1,0
10412,-100,4,2,0,15,0,0
10752,757.575757575758,4,2,0,100,1,0
11130,-100,4,2,0,15,0,0
11509,665.926748057714,4,2,0,100,1,0
12174,-100,4,2,0,15,0,0
12508,740.740740740741,4,2,0,100,1,0
12878,657.174151150055,4,2,0,100,1,0
13206,-100,4,2,0,15,0,0
13535,735.294117647059,4,2,0,100,1,0
13902,-100,4,2,0,15,0,0
14270,708.382526564345,4,2,0,100,1,0
14978,-100,4,2,0,15,0,0
15332,723.763570566948,4,2,0,100,1,0
15694,662.983425414365,4,2,0,100,1,0
16025,-100,4,2,0,15,0,0
16357,750,4,2,0,100,1,0
16732,-100,4,2,0,15,0,0
17107,686.49885583524,4,2,0,100,1,0
17793,-100,4,2,0,15,0,0
18137,784.313725490196,4,2,0,100,1,0
18529,658.616904500549,4,2,0,100,1,0
18858,-100,4,2,0,15,0,0
19187,751.87969924812,4,2,0,100,1,0
19562,-100,4,2,0,15,0,0
19939,688.073394495413,4,2,0,100,1,0
20627,-100,4,2,0,15,0,0
20971,795.755968169761,4,2,0,100,1,0
21369,645.161290322581,4,2,0,100,1,0
21691,-100,4,2,0,15,0,0
22014,737.100737100737,4,2,0,100,1,0
22382,-100,4,2,0,15,0,0
22751,688.86337543054,4,2,0,100,1,0
23439,-100,4,2,0,15,0,0
23784,739.827373612824,4,2,0,100,1,0
24154,729.92700729927,4,2,0,100,1,0
24518,-100,4,2,0,15,0,0
24884,759.493670886076,4,2,0,100,1,0
25263,-100,4,2,0,15,0,0
25643,727.272727272727,4,2,0,100,1,0
26370,-100,4,2,0,15,0,0
26733,877.19298245614,4,2,0,100,1,0
27172,711.743772241993,4,2,0,100,1,0
27527,-100,4,2,0,15,0,0
27884,810.810810810811,4,2,0,100,1,0
28289,-100,4,2,0,15,0,0
28695,1302.93159609121,4,2,0,100,1,0
30975,-100,4,2,0,5,0,0
31300,295.13034923758,4,2,0,100,1,0
31300,-80,4,2,0,100,0,0
31742,-100,4,2,0,100,0,0
33661,-80,4,2,0,100,0,0
34103,-100,4,2,0,100,0,0
87965,-100,4,2,0,100,0,1
106115,-100,4,2,0,100,0,0
111575,-200,4,2,0,100,0,0
116297,-166.666666666667,4,2,0,100,0,0
121019,-142.857142857143,4,2,0,100,0,0
123380,-166.666666666667,4,2,0,100,0,0
128102,-142.857142857143,4,2,0,100,0,0
130463,-100,4,2,0,100,0,0
158796,-100,4,2,0,100,0,1
180340,295.13034923758,4,2,0,100,1,1
182996,295.13034923758,4,2,0,100,1,1
185652,295.13034923758,4,2,0,100,1,1
188013,-100,4,2,0,100,0,0

[Colours]
Combo1 : 80,90,86
Combo2 : 138,159,151
Combo3 : 117,138,136
Combo4 : 97,116,112

[HitObjects]
214,277,212,6,0,B|245:250|229:208|229:208|219:194|204:187,1,100,8|0,0:0|0:0,0:0:0:0:
211,191,1244,1,8,0:0:0:0:
310,176,1647,2,0,P|335:170|360:172,1,50,8|0,0:0|0:0,0:0:0:0:
398,248,2300,2,0,B|386:241|363:238|363:238|350:241,1,50,12|0,0:0|0:0,0:0:0:0:
241,214,3043,6,0,B|231:197|233:177|233:177|245:136|271:109,1,100,8|0,0:0|0:0,0:0:0:0:
259,122,4054,1,8,0:0:0:0:
404,141,4434,2,0,P|413:113|417:84,1,50,8|0,0:0|0:0,0:0:0:0:
330,116,5147,2,0,B|321:132|321:152|321:152|317:173,1,50,12|0,0:0|0:0,0:0:0:0:
308,272,5845,6,0,B|339:267|339:267|374:273|408:272,1,100,8|0,0:0|0:0,0:0:0:0:
407,272,6847,1,8,0:0:0:0:
420,335,7207,2,0,B|440:338|440:338|479:338,1,50,8|0,0:0|0:0,0:0:0:0:
347,345,7909,2,0,B|341:342|341:342|316:349|296:343,1,50,12|0,0:0|0:0,0:0:0:0:
202,222,8630,6,0,B|202:235|201:243|201:243|201:281|199:288|199:288|199:303|195:321,1,100,8|0,0:0|0:0,0:0:0:0:
194,321,9702,1,8,0:0:0:0:
124,322,10072,2,0,B|107:321|107:321|70:332,1,50,8|0,0:0|0:0,0:0:0:0:
47,242,10752,2,0,B|72:254|84:254|84:254|101:257,1,50,12|0,0:0|0:0,0:0:0:0:
234,272,11509,6,0,B|240:253|249:245|249:245|286:245|321:213,1,100,8|0,0:0|0:0,0:0:0:0:
311,220,12508,1,8,0:0:0:0:
368,168,12878,2,0,B|372:157|372:157|371:147|371:147|374:129|372:110,1,50,8|0,0:0|0:0,0:0:0:0:
446,85,13535,2,0,B|448:97|436:110|437:137,1,50,12|0,0:0|0:0,0:0:0:0:
461,222,14270,6,0,B|439:219|419:213|419:213|393:239|401:275,1,100,8|0,0:0|0:0,0:0:0:0:
399,264,15332,1,8,0:0:0:0:
466,333,15694,2,0,B|470:316|470:316|468:303|469:283,1,50,8|0,0:0|0:0,0:0:0:0:
398,343,16357,2,0,B|381:339|372:341|372:341|346:340|345:350,1,50,12|0,0:0|0:0,0:0:0:0:
262,294,17107,6,0,B|271:289|282:290|282:290|286:240|251:214,1,100,8|0,0:0|0:0,0:0:0:0:
256,218,18136,1,8,0:0:0:0:
168,231,18529,2,0,B|151:237|151:237|141:236|131:239|131:239|120:244,1,50,8|0,0:0|0:0,0:0:0:0:
198,321,19187,2,0,B|206:306|206:306|211:301|211:301|216:290|216:290|212:288|219:281|219:281|220:274,1,50,12|0,0:0|0:0,0:0:0:0:
290,208,19939,6,0,B|324:213|340:248|340:248|340:289,1,100,8|0,0:0|0:0,0:0:0:0:
340,280,20971,1,8,0:0:0:0:
301,343,21369,2,0,B|314:344|330:351|337:349|337:349|353:355|353:355|362:350,1,50,8|0,0:0|0:0,0:0:0:0:
442,338,22014,2,0,B|433:323|430:310|430:310|433:300|434:282,1,50,12|0,0:0|0:0,0:0:0:0:
470,150,22751,6,0,B|437:167|427:162|427:162|415:162|415:162|407:167|387:166|372:178,1,100,8|0,0:0|0:0,0:0:0:0:
375,175,23784,1,8,0:0:0:0:
272,171,24154,2,0,B|274:196|274:196|276:210|267:237,1,50,8|0,0:0|0:0,0:0:0:0:
325,283,24884,2,0,B|330:262|326:260|329:246|329:246|335:232,1,50,12|0,0:0|0:0,0:0:0:0:
452,191,25643,6,0,B|450:206|438:233|438:233|443:244|432:261|417:269|417:269|405:265,1,100,8|0,0:0|0:0,0:0:0:0:
407,265,26733,1,8,0:0:0:0:
337,298,27172,2,0,B|340:317|340:317|336:333|337:338|337:338|335:355,1,50,8|0,0:0|0:0,0:0:0:0:
231,218,27884,2,0,B|235:242|235:242|234:252|234:252|237:263|235:273|235:273|237:278,1,50,12|0,0:0|0:0,0:0:0:0:
385,192,28694,6,0,B|370:166|348:152|319:126|283:113|264:161|319:222|332:146|369:110|369:110|344:85|306:86,1,281.25,8|0,0:0|0:0,0:0:0:0:
220,184,31300,6,0,B|218:214|218:214|205:244,2,62.5
133,111,31742,2,0,B|170:108|196:125|196:125|212:118|243:125,1,100
287,162,32185,2,0,B|299:132|301:102,1,50
370,82,32480,1,0,0:0:0:0:
361,67,32628,1,0,0:0:0:0:
276,43,32775,2,0,B|246:30|216:28,1,50
352,52,33070,1,0,0:0:0:0:
218,92,33218,2,0,B|193:96|176:82|176:82|155:104|122:111,1,100
381,148,33661,6,0,B|380:117|380:117|367:88,2,62.5
407,317,34103,2,0,B|433:301|448:275|448:275|466:288|490:287,1,100
485,224,34546,2,0,P|473:201|448:186,1,50
352,221,34841,1,0,0:0:0:0:
343,236,34989,1,0,0:0:0:0:
334,251,35136,1,0,0:0:0:0:
405,309,35284,2,0,P|414:285|409:256,1,50
325,266,35579,1,0,0:0:0:0:
386,165,35726,2,0,P|354:160|320:162,1,50
113,322,111575,6,0,P|148:278|181:343,1,150,2|0,0:0|0:0,0:0:0:0:
152,177,112755,2,0,P|204:156|200:229,1,150,2|0,0:0|0:0,0:0:0:0:
258,70,113936,2,0,P|313:78|273:139,1,150,2|0,0:0|0:0,0:0:0:0:
403,30,115117,2,0,P|447:65|382:98,1,150,2|0,0:0|0:0,0:0:0:0:
447,258,116297,6,0,B|448:207|408:175|408:175|459:177|490:137,1,179.999994506836
268,96,117478,2,0,B|315:112|331:160|331:160|347:112|395:97,1,179.999994506836
296,313,118658,2,0,B|295:262|334:230|334:230|283:232|253:192,1,179.999994506836
91,78,119839,2,0,B|140:87|178:53|178:53|168:103|202:140,1,179.999994506836
279,77,121019,6,0,B|323:73|368:90|368:90|328:237|246:284|213:214|194:176|245:161|330:162|392:228,1,489.999985046387,2|0,0:0|0:0,0:0:0:0:
332,349,123380,6,0,B|315:335|290:333|290:333|421:308,1,179.999994506836,2|0,0:0|0:0,0:0:0:0:
247,286,124561,2,0,B|264:272|289:270|289:270|158:245,1,179.999994506836,2|0,0:0|0:0,0:0:0:0:
34,128,125741,6,0,B|58:150|59:181|59:181|109:160|133:132|157:35|107:10|60:53|63:87|95:108|164:110|164:110|182:150|224:156,1,419.999987182618,2|0,0:0|0:0,0:0:0:0:
240,73,128102,6,0,B|330:66|375:102|375:102|384:63|350:30,1,209.999993591309,2|0,0:0|0:0,0:0:0:0:
417,180,129283,2,0,B|327:173|282:209|282:209|273:170|307:137,1,209.999993591309,2|0,0:0|0:0,0:0:0:0:
454,119,130463,5,4,0:0:0:0:
