osu file format v14

[General]
AudioFilename: manala.mp3
AudioLeadIn: 0
PreviewTime: 283701
Countdown: 0
SampleSet: None
StackLeniency: 0.7
Mode: 0
LetterboxInBreaks: 0
WidescreenStoryboard: 0

[Editor]
Bookmarks: 161370,161734,161916,195331,201245,201416,206902,207074,215559,215645,215731,215816,216159,216331,216502,216674,216845,217016,217188,217359,218388,218645,218731,218816,219074,219416,219759,219931,226445,226702,235102,235188,235274,235445,240845,241016,241359,241531,241874,242045,242302,242474,242559,242645,245131,245645,246159,246674,247188,362455
DistanceSpacing: 1
BeatDivisor: 12
GridSize: 4
TimelineZoom: 1.6

[Metadata]
Title:At the Gates of Manala
TitleUnicode:At the Gates of Manala
Artist:Apocalyptica
ArtistUnicode:Apocalyptica
Creator:pishifat
Version:Insane
Source:
Tags:7th seventh symphony cello thrash metal
BeatmapID:1004796
BeatmapSetID:469908

[Difficulty]
HPDrainRate:5
CircleSize:4
OverallDifficulty:7.5
ApproachRate:9
SliderMultiplier:2
SliderTickRate:1

[Events]
//Background and Video events
0,0,"x.jpg",0,0
//Break Periods
2,106392,123560
2,162570,169178
2,170864,173892
2,174977,177219
2,275246,285355
//Storyboard Layer 0 (Background)
//Storyboard Layer 1 (Fail)
//Storyboard Layer 2 (Pass)
//Storyboard Layer 3 (Foreground)
//Storyboard Sound Samples

[TimingPoints]
6926,363.636363636364,5,3,5,75,1,0
8744,363.636363636364,4,3,5,75,1,0
13107,363.636363636364,5,3,5,75,1,0
14925,363.636363636364,4,3,5,75,1,0
19288,363.636363636364,5,3,5,75,1,0
19288,-111.111111111111,5,3,5,75,0,0
21106,363.636363636364,4,3,5,75,1,0
21106,-111.111111111111,4,3,5,75,0,0
22560,-100,4,3,5,75,0,0
24015,-94.3396226415094,4,3,5,75,0,0
25469,363.636363636364,5,3,5,75,1,0
27287,363.636363636364,4,3,5,75,1,0
31650,363.636363636364,3,2,1,70,1,0
31650,-133.333333333333,3,2,1,70,0,0
40013,363.636363636364,3,2,1,45,1,0
40194,-114.942528735632,3,2,1,70,0,0
43285,363.636363636364,4,2,1,70,1,0
44557,-114.942528735632,4,2,1,70,0,0
44740,363.636363636364,3,2,1,45,1,0
44921,-114.942528735632,3,2,1,70,0,0
50194,363.636363636364,4,2,1,65,1,0
50194,-200,4,2,1,65,0,0
67103,-166.666666666667,4,2,1,65,0,0
67648,-200,4,2,1,65,0,0
70012,-166.666666666667,4,2,1,72,0,0
70557,-166.666666666667,4,2,1,72,0,0
71284,-153.846153846154,4,2,1,72,0,0
71648,-142.857142857143,4,2,1,72,0,0
72012,-125,4,2,1,80,0,0
72739,-111.111111111111,4,2,1,80,0,0
73466,-111.111111111111,4,3,5,75,0,0
74921,-125,4,3,5,75,0,0
76375,-125,4,3,5,75,0,0
77466,-114.942528735632,4,3,5,75,0,0
78557,-108.695652173913,4,3,5,75,0,0
78739,-108.695652173913,4,3,5,65,0,0
79284,-108.695652173913,4,3,5,75,0,0
80739,-125,4,3,5,75,0,0
83284,-114.942528735632,4,3,5,75,0,0
84012,-114.942528735632,4,3,5,65,0,0
84375,-114.942528735632,4,3,5,65,0,0
84739,-114.942528735632,4,3,5,75,0,0
84921,-114.942528735632,4,3,5,80,0,0
85012,-114.942528735632,4,3,5,85,0,0
85103,-108.695652173913,4,3,5,90,0,0
85194,-108.695652173913,4,3,5,75,0,0
86557,-125,4,3,5,75,0,0
88012,-125,4,3,5,75,0,0
89103,-114.942528735632,4,3,5,75,0,0
90921,-108.695652173913,4,3,5,75,0,0
92375,-125,4,3,5,75,0,0
93830,363.636363636364,5,3,5,75,1,0
95648,363.636363636364,4,3,5,75,1,0
100011,363.636363636364,5,3,5,75,1,0
101829,363.636363636364,4,3,5,75,1,0
106192,363.636363636364,3,3,5,75,1,0
114737,363.636363636364,3,2,1,70,1,0
118009,363.636363636364,4,2,1,70,1,0
119463,363.636363636364,3,2,1,70,1,0
122735,363.636363636364,4,2,1,70,1,0
124189,363.636363636364,4,2,1,70,1,0
124189,-133.333333333333,4,2,1,70,0,0
133643,363.636363636364,4,2,1,70,1,0
133643,-133.333333333333,4,2,1,70,0,0
138733,363.636363636364,4,2,1,70,1,0
138733,-133.333333333333,4,2,1,70,0,0
140914,363.636363636364,3,2,1,70,1,0
140914,-133.333333333333,3,2,1,70,0,0
141277,-133.333333333333,3,2,1,60,0,0
141459,-133.333333333333,3,2,1,65,0,0
141641,-133.333333333333,3,2,1,70,0,0
141823,-133.333333333333,3,2,1,76,0,0
142007,363.636363636364,4,3,5,75,1,0
142007,-108.695652173913,4,3,5,75,0,0
143461,-125,4,3,5,75,0,0
146007,-114.942528735632,4,3,5,75,0,0
147097,-108.695652173913,4,3,5,75,0,0
149279,-125,4,3,5,75,0,0
151825,-114.942528735632,4,3,5,75,0,0
152916,-108.695652173913,4,3,5,75,0,0
155097,-125,4,3,5,75,0,0
157643,-114.942528735632,4,3,5,75,0,0
158734,-108.695652173913,4,3,5,75,0,0
160916,-125,4,3,5,75,0,0
161279,-125,4,3,5,65,0,0
162370,514.285714286008,4,3,5,75,1,0
169636,514.284244902157,4,2,1,65,1,0
169636,-151.515151515152,4,2,1,65,0,0
170664,514.285714286008,4,2,1,65,1,0
174521,-151.515151515152,4,2,1,65,0,0
174606,-151.515151515152,4,2,1,45,0,0
174778,-151.515151515152,4,2,1,65,0,0
177848,514.285714315102,4,2,1,65,1,0
177848,-151.515151515152,4,2,1,65,0,0
178019,-151.515151515152,4,2,1,55,0,0
178190,-151.515151515152,4,2,1,45,0,0
178362,-151.515151515152,4,2,1,65,0,0
178533,-151.515151515152,4,2,1,55,0,0
178705,-151.515151515152,4,2,1,45,0,0
178874,514.285714285715,4,2,1,65,1,0
178874,-111.111111111111,4,2,4,65,0,0
193359,-111.111111111111,4,2,1,65,0,0
193874,-111.111111111111,4,2,1,45,0,0
194302,-111.111111111111,4,2,1,65,0,0
194388,-111.111111111111,4,2,1,45,0,0
194816,-111.111111111111,4,2,1,65,0,0
194902,-111.111111111111,4,2,1,45,0,0
195331,-111.111111111111,4,2,1,70,0,0
215559,-111.111111111111,4,2,1,55,0,0
215902,-111.111111111111,4,2,1,70,0,0
226359,-111.111111111111,4,2,1,55,0,0
228245,-100,4,2,1,70,0,0
235102,-100,4,2,1,55,0,0
236474,-100,4,2,1,70,0,0
240588,-100,4,2,1,70,0,0
240674,-100,4,2,1,45,0,0
241102,-100,4,2,1,70,0,0
241188,-100,4,2,1,45,0,0
241616,-100,4,2,1,70,0,0
241702,-100,4,2,1,45,0,0
242131,-100,4,2,1,70,0,0
242216,-100,4,2,1,45,0,0
242645,-100,4,2,1,70,0,0
242731,-100,4,2,1,55,0,0
242816,-100,4,2,1,45,0,0
242902,-100,4,2,1,35,0,0
242988,-100,4,2,1,55,0,0
243159,-100,4,2,1,70,0,0
243245,-100,4,2,1,55,0,0
243674,-100,4,2,1,70,0,0
243759,-100,4,2,1,55,0,0
244188,-100,4,2,1,70,0,0
244274,-100,4,2,1,55,0,0
244702,-100,4,2,1,70,0,0
252931,-90.9090909090909,4,2,1,70,0,0
257559,555.555555555556,4,2,1,70,1,0
258114,535.714285714286,4,2,1,70,1,0
258649,545.454545454546,4,2,1,70,1,0
259194,652.173913043478,4,2,1,70,1,0
259194,-111.111111111111,4,2,1,70,0,0
259846,750,4,2,1,70,1,0
259846,-125,4,2,1,70,0,0
260096,-125,4,2,1,50,0,0
260346,-125,4,2,1,70,0,0
260596,810.810810810811,5,2,1,70,1,0
260596,-142.857142857143,5,2,1,70,0,0
261406,882.352941176471,5,2,1,70,1,0
261406,-166.666666666667,5,2,1,70,0,0
261700,-166.666666666667,5,2,1,50,0,0
261994,-166.666666666667,5,2,1,70,0,0
262435,-166.666666666667,5,2,1,50,0,0
275046,1090.90909090909,4,2,1,70,1,0
305591,-90.9090909090909,4,2,1,70,0,0
323046,-76.9230769230769,4,2,1,70,0,0
340500,-71.4285714285715,4,2,1,70,0,0
357955,-71.4285714285715,4,2,1,70,0,0
358091,-71.4285714285715,4,2,1,40,0,0

[Colours]
Combo1 : 151,153,176
Combo2 : 124,154,145
Combo3 : 138,173,176
Combo4 : 126,142,156

[HitObjects]
33,103,6926,6,0,P|90:58|162:69,1,150,4|0,1:0|2:0,0:0:0:0:
244,20,7289,2,0,B|256:138,1,100,8|4,0:1|0:0,0:0:0:0:
262,256,7653,1,4,0:0:0:0:
442,78,7835,5,8,0:0:0:0:
370,128,8016,1,4,0:0:0:0:
344,120,8198,1,4,0:0:0:0:
491,237,8380,2,0,P|451:208|367:224,1,100,8|4,0:1|0:0,0:0:0:0:
213,353,8744,5,4,1:0:0:0:
258,119,8925,1,8,0:1:0:0:
228,268,9107,1,4,0:0:0:0:
58,148,9289,5,8,0:0:0:0:
140,170,9471,1,4,0:0:0:0:
147,194,9653,1,4,0:0:0:0:
204,1,9834,2,0,P|175:39|183:106,1,100,8|4,0:1|0:0,0:0:0:0:
375,318,10198,5,4,1:0:0:0:
209,279,10380,2,0,B|327:263,1,100,8|4,0:1|0:0,0:0:0:0:
484,248,10744,1,8,0:0:0:0:
418,188,10925,1,4,0:0:0:0:
394,195,11107,1,4,0:0:0:0:
497,67,11289,2,0,P|449:65|401:38,1,100,8|4,0:1|0:0,0:0:0:0:
82,216,11653,6,0,B|119:200|119:200|140:160|140:160|182:181|225:174|258:145,1,200,4|0,1:0|0:3,0:0:0:0:
0,65,12198,2,0,P|84:78|111:116,1,100,8|4,0:1|0:0,0:0:0:0:
194,261,12562,1,4,0:0:0:0:
262,36,12744,1,8,0:1:0:0:
191,82,12925,1,4,0:0:0:0:
492,148,13107,6,0,P|419:136|360:179,1,150,4|0,1:0|2:0,0:0:0:0:
269,146,13470,2,0,L|279:258,1,100,8|4,0:1|0:0,0:0:0:0:
290,377,13834,1,4,0:0:0:0:
48,203,14016,5,8,0:0:0:0:
128,233,14197,1,4,0:0:0:0:
123,257,14379,1,4,0:0:0:0:
269,146,14561,2,0,P|202:146|165:181,1,100,8|4,0:1|0:0,0:0:0:0:
390,359,14925,5,4,1:0:0:0:
419,171,15106,1,8,0:1:0:0:
237,226,15288,1,4,0:0:0:0:
440,290,15470,5,8,0:0:0:0:
352,228,15652,1,4,0:0:0:0:
356,252,15834,1,4,0:0:0:0:
427,71,16015,2,0,L|417:195,1,100,8|4,0:1|0:0,0:0:0:0:
113,246,16379,5,4,1:0:0:0:
296,160,16561,1,8,0:1:0:0:
197,262,16743,1,4,0:0:0:0:
73,172,16925,5,8,0:0:0:0:
149,131,17106,1,4,0:0:0:0:
154,106,17288,1,4,0:0:0:0:
25,299,17470,2,0,P|87:259|145:272,1,100,8|4,0:1|0:0,0:0:0:0:
458,332,17834,6,0,B|418:323|418:323|378:344|378:344|358:298|315:279|273:289,1,200,4|0,1:0|0:0,0:0:0:0:
495,209,18379,2,0,P|457:230|386:224,1,100,8|4,0:1|0:0,0:0:0:0:
275,150,18743,1,4,0:0:0:0:
481,80,18925,1,8,0:1:0:0:
408,36,19106,1,4,0:0:0:0:
314,227,19288,6,0,B|219:233|219:233|163:195,1,134.999995880127,4|0,1:0|2:0,0:0:0:0:
166,196,19651,2,0,P|190:163|192:100,1,89.9999972534181,8|4,0:1|0:0,0:0:0:0:
104,15,20015,1,4,0:0:0:0:
12,148,20197,5,8,0:0:0:0:
92,121,20378,1,4,0:0:0:0:
112,131,20560,1,4,0:0:0:0:
97,333,20742,2,0,P|159:295|205:301,1,89.9999972534181,8|4,0:1|0:0,0:0:0:0:
401,323,21106,5,4,1:0:0:0:
206,198,21287,2,0,P|268:236|314:230,1,89.9999972534181,8|4,0:1|0:0,0:0:0:0:
483,180,21651,1,8,0:0:0:0:
339,170,21833,1,4,0:0:0:0:
330,148,22015,1,4,0:0:0:0:
401,323,22196,2,0,L|410:210,1,89.9999972534181,8|4,0:1|0:0,0:0:0:0:
230,10,22560,5,4,1:0:0:0:
283,236,22742,1,8,0:1:0:0:
325,126,22924,1,4,0:0:0:0:
140,126,23106,5,8,0:0:0:0:
217,166,23287,1,4,0:0:0:0:
241,159,23469,1,4,0:0:0:0:
11,18,23651,2,0,P|77:24|118:63,1,100,8|0,0:1|0:0,0:0:0:0:
306,266,24015,6,0,B|363:275|408:236|408:195|408:195|363:190|334:139,1,212.000000323486,4|0,1:0|0:0,0:0:0:0:
512,72,24560,2,0,P|467:106|399:102,1,106.000000161743,8|4,0:1|0:0,0:0:0:0:
279,70,24924,1,4,0:0:0:0:
159,198,25106,1,8,0:1:0:0:
239,172,25287,1,4,0:0:0:0:
398,340,25469,6,0,L|222:316,1,150,4|0,1:0|2:2,0:0:0:0:
171,290,25832,2,0,P|124:300|85:363,1,100,8|4,0:1|0:0,0:0:0:0:
239,172,26196,1,4,0:0:0:0:
49,150,26378,5,8,0:0:0:0:
106,217,26559,1,4,0:0:0:0:
130,211,26741,1,4,0:0:0:0:
3,62,26923,2,0,L|113:73,1,100,8|4,0:1|0:0,0:0:0:0:
405,98,27287,5,4,1:0:0:0:
199,26,27468,1,8,0:1:0:0:
322,142,27650,1,4,0:0:0:0:
200,201,27832,5,8,0:0:0:0:
213,116,28014,1,4,0:0:0:0:
236,106,28196,1,4,0:0:0:0:
36,165,28377,2,0,P|105:139|148:154,1,100,8|4,0:1|0:0,0:0:0:0:
431,272,28741,5,4,1:0:0:0:
317,131,28923,2,0,L|330:271,1,100,8|4,0:1|0:0,0:0:0:0:
339,384,29287,1,8,0:0:0:0:
431,272,29468,1,4,0:0:0:0:
407,264,29650,1,4,0:0:0:0:
512,144,29832,2,0,P|444:160|406:215,1,100,8|4,0:1|0:0,0:0:0:0:
72,138,30196,6,0,B|120:143|120:143|146:180|146:180|213:159|263:209,1,200,4|0,1:0|0:0,0:0:0:0:
87,275,30741,2,0,P|141:278|214:226,1,100,8|4,0:1|0:0,0:0:0:0:
287,122,31105,1,4,0:0:0:0:
23,70,31287,1,8,0:1:0:0:
72,138,31468,1,4,0:0:0:0:
269,39,31650,6,0,P|233:55|220:173,1,150.000005722046,4|0,1:2|0:0,0:0:0:0:
278,204,32195,1,4,0:3:0:0:
128,246,32377,2,0,L|221:237,1,75.0000028610231,8|0,0:0|0:0,0:0:0:0:
376,250,32740,5,4,0:3:0:0:
359,332,32922,2,0,P|406:330|442:305,1,75.0000028610231,4|0,0:3|0:0,0:0:0:0:
488,201,33286,1,4,0:3:0:0:
376,250,33468,2,0,L|366:162,1,75.0000028610231,8|0,0:0|0:0,0:0:0:0:
289,7,33831,5,4,0:3:0:0:
225,65,34013,2,4,P|262:88|320:89,2,75.0000028610231,4|0|4,0:3|0:0|0:3,0:3:0:0:
53,148,34559,2,0,P|88:125|126:119,1,75.0000028610231,8|0,0:0|0:0,0:0:0:0:
334,168,34922,6,0,L|325:271,1,75.0000028610231,4|0,0:3|0:0,0:0:0:0:
122,203,35286,1,8,0:0:0:0:
200,176,35468,1,4,0:3:0:0:
230,370,35650,1,8,0:0:0:0:
221,363,36013,6,0,B|319:346|319:346|392:384,1,150.000005722046,4|0,1:2|0:0,0:0:0:0:
285,268,36559,1,4,0:3:0:0:
406,299,36740,2,0,P|452:292|495:254,1,75.0000028610231,8|0,0:0|0:0,0:0:0:0:
404,105,37104,5,4,0:3:0:0:
316,89,37286,2,0,L|323:176,1,75.0000028610231,4|0,0:3|0:0,0:0:0:0:
338,371,37650,1,4,0:3:0:0:
220,237,37831,2,0,P|262:239|295:256,1,75.0000028610231,8|0,0:0|0:0,0:0:0:0:
111,305,38195,5,4,0:3:0:0:
127,149,38377,2,0,L|137:224,2,75.0000028610231,4|0|4,0:3|0:3|0:3,0:0:0:0:
10,46,38922,2,0,P|46:68|111:71,1,75.0000028610231,8|0,0:0|0:0,0:0:0:0:
276,10,39286,1,4,0:3:0:0:
204,53,39468,1,4,0:3:0:0:
344,190,39650,1,8,0:0:0:0:
334,108,39831,2,0,P|290:123|260:166,1,75.0000028610231,4|4,0:3|0:0,0:0:0:0:
444,251,40194,5,4,0:3:0:0:
371,297,40376,2,0,L|268:311,1,87.0000007301331,0|4,0:3|0:3,0:0:0:0:
81,160,40740,5,8,0:0:0:0:
160,191,40922,1,0,0:0:0:0:
92,242,41103,1,4,0:3:0:0:
62,140,41285,5,4,0:3:0:0:
80,266,41467,2,0,L|96:380,1,87.0000007301331,0|4,0:0|0:3,0:0:0:0:
254,131,41831,5,8,0:0:0:0:
160,191,42013,1,0,0:0:0:0:
195,290,42194,1,4,0:3:0:0:
137,179,42376,5,4,0:3:0:0:
243,215,42558,2,0,P|288:209|340:162,1,87.0000007301331,0|4,0:0|0:3,0:0:0:0:
506,301,42922,6,0,L|402:293,1,87.0000007301331,8|0,0:0|0:0,0:0:0:0:
303,284,43285,1,4,0:3:0:0:
473,208,43466,5,4,0:3:0:0:
354,353,43648,1,8,0:0:0:0:
303,284,43830,1,0,0:3:0:0:
73,332,44012,5,4,0:3:0:0:
228,367,44194,1,0,0:0:0:0:
55,316,44375,1,8,0:0:0:0:
126,265,44557,2,0,L|134:168,1,87.0000007301331,0|4,0:0|0:0,0:0:0:0:
153,6,44921,5,4,0:3:0:0:
74,112,45103,2,0,P|112:93|156:92,1,87.0000007301331,0|4,0:0|0:3,0:0:0:0:
363,225,45467,5,8,0:0:0:0:
279,213,45649,1,0,0:0:0:0:
330,147,45830,1,4,0:3:0:0:
378,248,46012,5,4,0:3:0:0:
466,155,46194,2,0,L|456:53,1,87.0000007301331,0|4,0:0|0:3,0:0:0:0:
243,7,46558,5,8,0:0:0:0:
167,69,46740,1,0,0:0:0:0:
217,155,46921,1,4,0:3:0:0:
83,79,47103,5,4,0:3:0:0:
240,142,47285,2,0,P|258:201|239:248,1,87.0000007301331,0|4,0:0|0:3,0:0:0:0:
35,297,47649,6,0,L|137:281,1,87.0000007301331,8|0,0:0|0:0,0:0:0:0:
333,259,48012,1,4,0:3:0:0:
168,190,48194,1,4,0:3:0:0:
277,326,48376,2,0,P|317:343|367:341,1,87.0000007301331,8|0,0:0|0:0,0:0:0:0:
320,125,48740,5,4,0:3:0:0:
250,229,48921,1,4,0:3:0:0:
432,299,49103,2,0,L|421:194,1,87.0000007301331,8|0,0:0|0:0,0:0:0:0:
407,41,49467,2,0,L|416:127,1,87.0000007301331,4|0,0:3|0:0,0:0:0:0:
512,243,49830,5,8,0:0:0:0:
326,95,50012,1,8,0:0:0:0:
101,188,50194,6,0,L|206:176,1,100,4|4,0:2|0:3,0:0:0:0:
287,168,50739,1,0,0:0:0:0:
162,206,50921,2,0,L|227:198,1,50,8|0,0:0|0:0,0:0:0:0:
385,243,51284,2,0,L|315:236,1,50
162,349,51648,5,4,0:3:0:0:
183,361,51830,1,4,0:3:0:0:
262,325,52012,2,0,P|262:295|246:260,1,50
122,173,52375,2,0,P|118:117|155:73,1,100,8|0,0:0|0:0,0:0:0:0:
217,45,52921,1,0,0:0:0:0:
374,139,53103,5,4,0:3:0:0:
448,103,53284,1,4,0:3:0:0:
379,58,53466,2,0,L|312:52,1,50
221,164,53830,2,0,L|98:175,1,100,8|0,0:0|0:0,0:0:0:0:
36,180,54375,1,0,0:0:0:0:
74,301,54557,6,4,P|95:286|134:281,1,50,4|4,0:3|0:3,0:3:0:0:
195,321,54921,2,0,P|220:322|243:333,1,50
349,200,55284,1,8,0:0:0:0:
269,223,55466,1,4,0:3:0:0:
412,321,55648,2,0,L|417:260,1,50
438,37,56012,6,0,L|448:149,1,100,4|0,0:3|0:0,0:0:0:0:
378,191,56557,1,0,0:0:0:0:
467,99,56739,2,0,L|473:164,1,50,8|0,0:0|0:0,0:0:0:0:
479,275,57103,2,0,P|445:259|413:258,1,50
249,322,57466,5,4,0:3:0:0:
329,298,57648,1,4,0:3:0:0:
262,240,57830,1,0,0:0:0:0:
238,232,58012,1,0,0:0:0:0:
361,127,58194,1,8,0:0:0:0:
305,63,58375,2,0,P|282:96|288:173,1,100,4|0,0:3|0:0,0:0:0:0:
249,322,58921,6,0,L|181:328,1,50,4|0,0:3|0:0,0:0:0:0:
77,272,59284,2,0,L|148:280,1,50
337,206,59648,1,8,0:0:0:0:
277,148,59830,1,0,0:0:0:0:
199,176,60012,2,0,L|140:181,1,50
100,11,60375,5,4,0:3:0:0:
162,68,60557,1,4,0:3:0:0:
242,51,60739,1,0,0:0:0:0:
257,31,60921,1,0,0:0:0:0:
199,176,61103,1,8,0:0:0:0:
277,148,61284,2,0,P|327:151|372:198,1,100,4|0,0:3|0:0,0:0:0:0:
193,358,61830,6,0,L|184:250,1,100,4|0,0:3|0:0,0:0:0:0:
199,176,62375,1,0,0:0:0:0:
72,235,62557,2,0,P|33:220|17:200,1,50,8|0,0:0|0:0,0:0:0:0:
80,101,62921,2,0,L|85:158,1,50
136,324,63284,5,4,0:3:0:0:
184,258,63466,1,4,0:3:0:0:
263,284,63648,2,0,L|322:288,1,50
477,220,64012,2,0,L|418:224,1,50,8|4,0:0|0:3,0:0:0:0:
304,114,64375,2,0,L|355:119,1,50,0|0,0:1|0:0,0:0:0:0:
247,176,64739,6,0,P|197:169|159:134,1,100,4|0,0:3|0:0,0:0:0:0:
143,60,65284,1,0,0:0:0:0:
168,187,65466,2,0,P|150:169|138:124,1,50,8|0,0:0|0:0,0:0:0:0:
159,272,65830,2,0,P|134:266|99:243,1,50
317,312,66194,5,4,0:3:0:0:
249,351,66375,1,4,0:3:0:0:
337,325,66557,2,0,L|343:266,1,50
494,351,66921,1,8,0:0:0:0:
425,301,67103,2,0,B|428:251|428:251|416:227|416:227|421:160,1,119.999996337891,4|0,0:3|0:0,0:0:0:0:
306,24,67648,6,0,P|276:79|286:124,1,100,4|0,0:3|0:0,0:0:0:0:
360,88,68194,1,0,0:0:0:0:
311,196,68375,2,0,L|251:200,1,50,8|0,0:0|0:0,0:0:0:0:
142,100,68739,2,0,L|191:96,1,50
178,254,69103,5,4,0:3:0:0:
104,215,69284,1,4,0:3:0:0:
23,236,69466,2,0,P|3:280|4:301,1,50
248,296,69830,1,8,0:0:0:0:
137,350,70012,2,0,B|184:355|184:355|204:373|204:373|249:379,1,119.999996337891,4|0,0:3|0:0,0:0:0:0:
472,228,70557,5,4,0:3:0:0:
341,303,70739,1,8,0:3:0:0:
392,237,70921,1,0,0:0:0:0:
348,383,71103,1,4,0:3:0:0:
275,248,71284,2,0,L|201:241,1,64.9999970245363,8|0,0:0|0:0,0:0:0:0:
17,265,71648,2,0,L|92:273,1,69.9999978637696,8|0,0:0|0:0,0:0:0:0:
251,158,72012,5,4,0:3:0:0:
38,181,72194,2,0,L|118:191,1,80,8|0,0:0|0:0,0:0:0:0:
207,57,72557,1,0,3:0:0:0:
198,62,72648,1,0,3:0:0:0:
189,68,72739,2,0,P|260:65|293:36,1,89.9999972534181,8|8,3:2|0:3,0:0:0:0:
359,38,73012,1,4,0:3:0:0:
375,20,73103,2,0,L|386:125,1,89.9999972534181,4|4,0:3|0:3,0:0:0:0:
245,316,73466,6,0,P|319:262|396:282,1,134.999995880127,4|0,1:0|2:0,0:0:0:0:
444,231,73830,2,0,L|437:344,1,89.9999972534181,0|0,0:3|0:3,0:0:0:0:
234,176,74194,1,8,0:1:0:0:
314,160,74375,1,0,0:0:0:0:
163,303,74557,1,8,0:1:0:0:
245,316,74739,1,8,0:3:0:0:
138,114,74921,5,6,0:0:0:0:
289,243,75103,1,8,0:1:0:0:
152,96,75284,2,0,P|89:116|66:146,1,80,8|0,0:1|0:0,0:0:0:0:
293,150,75648,5,8,0:1:0:0:
157,188,75830,1,4,0:0:0:0:
319,160,76012,2,0,L|415:148,1,80,8|0,0:1|0:0,0:0:0:0:
286,372,76375,5,4,1:0:0:0:
239,301,76557,2,0,P|246:250|279:212,1,80,4|0,0:3|0:0,0:0:0:0:
487,264,76921,1,4,0:3:0:0:
356,326,77103,2,0,L|435:333,1,80,8|0,0:1|0:0,0:0:0:0:
502,148,77466,6,0,L|414:156,1,87.0000007301331,8|4,0:1|0:0,0:0:0:0:
274,171,77830,1,4,0:3:0:0:
462,236,78012,1,8,0:1:0:0:
401,136,78194,2,0,P|377:187|393:236,1,87.0000007301331,4|0,0:0|0:0,0:0:0:0:
299,375,78557,5,8,0:1:0:0:
240,232,78739,1,8,0:0:0:0:
218,208,78830,1,8,0:0:0:0:
187,197,78921,5,4,0:0:0:0:
180,245,79012,1,4,0:0:0:0:
151,281,79103,1,4,0:0:0:0:
106,292,79194,1,4,0:0:0:0:
59,274,79284,6,0,P|35:215|79:144,1,137.999995367432,4|0,1:0|0:0,0:0:0:0:
57,65,79648,2,0,L|165:77,1,91.9999969116212
393,59,80012,2,0,P|329:72|297:111,1,91.9999969116212,8|0,0:1|0:0,0:0:0:0:
183,178,80375,2,0,P|247:191|278:228,1,91.9999969116212,8|8,0:1|0:0,0:0:0:0:
381,345,80739,5,6,0:3:0:0:
370,181,80921,1,8,0:1:0:0:
363,364,81103,2,0,L|366:260,1,80,8|0,0:1|0:0,0:0:0:0:
407,72,81466,5,4,0:3:0:0:
285,137,81648,1,8,0:1:0:0:
417,47,81830,2,0,P|349:80|334:113,1,80,8|0,0:1|0:0,0:0:0:0:
252,245,82194,5,4,1:0:0:0:
179,195,82375,2,0,L|185:89,1,80,4|0,0:3|0:0,0:0:0:0:
73,3,82739,1,4,0:3:0:0:
0,82,82921,2,0,L|11:183,1,80,8|0,0:1|0:0,0:0:0:0:
160,367,83284,5,8,0:1:0:0:
101,218,83466,2,0,P|52:244|33:298,1,87.0000007301331,4|0,0:3|0:0,0:0:0:0:
242,342,83830,1,8,0:1:0:0:
209,261,84012,1,8,0:0:0:0:
199,259,84103,1,8,0:0:0:0:
190,257,84194,1,8,0:0:0:0:
351,350,84375,5,4,0:3:0:0:
363,322,84466,1,4,0:3:0:0:
370,292,84557,1,4,0:3:0:0:
367,261,84648,1,4,0:3:0:0:
394,223,84739,5,8,0:3:0:0:
379,181,84830,1,8,0:3:0:0:
379,137,84921,1,8,0:3:0:0:
396,97,85012,1,8,0:3:0:0:
430,71,85103,6,0,B|336:64|336:64|289:28,1,137.999995367432,4|0,1:0|2:0,0:0:0:0:
218,22,85466,2,4,P|170:46|149:92,1,91.9999969116212,4|4,0:3|0:3,0:3:0:0:
299,231,85830,1,8,0:1:0:0:
269,151,86012,1,0,0:0:0:0:
116,287,86194,1,8,0:1:0:0:
135,207,86375,1,8,0:0:0:0:
345,350,86557,5,6,0:0:0:0:
197,269,86739,1,8,0:1:0:0:
357,377,86921,2,0,L|371:277,1,80,8|8,0:1|0:0,0:0:0:0:
235,116,87284,5,6,0:0:0:0:
272,236,87466,1,4,0:0:0:0:
209,104,87648,2,0,P|267:74|317:82,1,80,8|0,0:1|0:0,0:0:0:0:
499,172,88012,5,4,1:0:0:0:
429,216,88194,2,0,L|333:202,1,80,4|0,0:0|0:0,0:0:0:0:
139,261,88557,1,4,0:0:0:0:
248,327,88739,2,0,L|353:311,1,80,8|0,0:1|0:0,0:0:0:0:
361,119,89103,6,0,P|313:125|273:173,1,87.0000007301331,8|4,0:1|0:0,0:0:0:0:
225,313,89466,1,4,0:0:0:0:
349,204,89648,1,8,0:1:0:0:
196,146,89830,1,0,0:0:0:0:
368,227,90012,1,4,0:0:0:0:
120,197,90194,6,0,L|112:81,1,87.0000007301331,8|0,0:1|0:0,0:0:0:0:
307,287,90557,2,0,L|301:373,1,87.0000007301331,8|4,0:0|0:0,0:0:0:0:
403,148,90921,6,0,P|446:181|433:294,1,137.999995367432,4|0,1:0|0:2,0:0:0:0:
479,355,91284,2,0,L|385:342,1,91.9999969116212,4|4,0:0|0:0,0:0:0:0:
128,316,91648,2,0,P|209:301|238:269,1,91.9999969116212,8|0,0:1|0:0,0:0:0:0:
76,137,92012,2,0,P|147:177|190:171,1,91.9999969116212,8|8,0:1|0:0,0:0:0:0:
410,59,92375,5,6,0:0:0:0:
235,78,92557,1,8,0:1:0:0:
431,42,92739,2,0,L|347:30,1,80,8|0,0:1|0:0,0:0:0:0:
150,95,93103,5,8,0:1:0:0:
296,135,93284,1,4,0:0:0:0:
132,67,93466,2,0,P|109:118|123:176,1,80,8|0,0:1|0:0,0:0:0:0:
273,329,93830,6,0,P|274:256|222:204,1,150,4|0,1:0|0:2,0:0:0:0:
194,123,94193,1,8,0:1:0:0:
99,304,94375,2,0,L|205:290,1,100,8|4,0:0|0:0,0:0:0:0:
357,185,94739,5,8,0:0:0:0:
424,239,94920,1,4,0:0:0:0:
418,263,95102,1,4,0:0:0:0:
450,82,95284,2,0,P|477:130|465:184,1,100,8|4,0:1|0:0,0:0:0:0:
282,338,95648,5,4,1:0:0:0:
260,160,95829,1,8,0:1:0:0:
329,271,96011,1,4,0:0:0:0:
119,235,96193,5,8,0:0:0:0:
187,289,96375,1,4,0:0:0:0:
211,285,96557,1,4,0:0:0:0:
75,149,96738,2,0,L|190:157,1,100,8|4,0:1|0:0,0:0:0:0:
424,171,97102,5,4,1:1:0:0:
269,101,97284,2,0,P|307:69|356:66,1,100,8|4,0:1|0:0,0:0:0:0:
502,147,97648,1,8,0:0:0:0:
441,89,97829,1,4,0:0:0:0:
445,65,98011,1,4,0:0:0:0:
479,252,98193,2,0,L|344:267,1,100,8|4,0:1|0:0,0:0:0:0:
74,158,98557,6,0,B|111:174|111:174|132:214|132:214|174:193|209:202|247:234,1,200,4|0,1:0|2:0,2:0:0:0:
458,81,99102,2,0,P|405:90|359:139,1,100,8|4,0:1|0:0,0:0:0:0:
318,279,99466,1,4,0:0:0:0:
291,88,99648,1,8,0:1:0:0:
303,169,99829,1,4,0:0:0:0:
13,137,100011,6,0,P|58:73|157:86,1,150,4|0,1:0|0:2,0:0:0:0:
212,31,100374,2,0,L|205:144,1,100,8|8,0:1|0:0,0:0:0:0:
196,300,100738,1,4,0:0:0:0:
345,167,100920,5,8,0:0:0:0:
265,195,101101,1,4,0:0:0:0:
259,219,101283,1,4,0:0:0:0:
418,250,101465,2,0,P|367:249|307:292,1,100,8|4,0:1|0:0,0:0:0:0:
141,364,101829,5,4,1:0:0:0:
112,171,102010,1,8,0:1:0:0:
196,300,102192,1,4,0:0:0:0:
270,161,102374,5,8,0:0:0:0:
202,209,102556,1,4,0:0:0:0:
179,220,102738,1,4,0:0:0:0:
156,10,102919,2,0,P|192:44|203:120,1,100,8|4,0:1|0:0,0:0:0:0:
196,300,103283,5,4,1:1:0:0:
12,160,103465,2,0,L|142:174,1,100,8|4,0:1|0:0,0:0:0:0:
357,190,103829,1,8,0:0:0:0:
259,234,104010,1,4,0:0:0:0:
283,229,104192,1,4,0:0:0:0:
229,76,104374,2,0,P|199:145|214:191,1,100,8|4,0:1|0:0,0:0:0:0:
346,377,104738,6,0,B|369:375|384:365|384:365|408:365|426:382|426:382|448:316|527:324,1,200,4|0,1:1|2:0,2:0:0:0:
337,194,105283,2,0,L|327:316,1,100,8|0,0:1|0:0,0:0:0:0:
401,139,105647,1,4,0:0:0:0:
179,154,105829,1,8,0:1:0:0:
250,198,106010,1,4,0:0:0:0:
278,14,106192,5,4,0:2:0:0:
467,101,124189,6,0,B|419:106|419:106|375:91|375:91|317:99,1,150.000005722046,4|0,0:0|0:0,0:0:0:0:
259,154,124734,1,0,0:0:0:0:
433,191,124916,2,0,P|373:199|343:223,1,75.0000028610231,8|0,0:0|0:0,0:0:0:0:
260,339,125279,1,0,0:0:0:0:
340,318,125461,1,0,0:0:0:0:
200,211,125643,5,6,0:3:0:0:
277,258,125825,2,0,L|284:169,1,75.0000028610231
194,22,126189,1,0,0:0:0:0:
139,150,126370,2,0,L|127:56,1,75.0000028610231,8|0,0:0|0:0,0:0:0:0:
294,24,126734,2,0,L|288:110,1,75.0000028610231
131,254,127098,5,6,0:3:0:0:
148,172,127279,2,0,P|184:151|230:150,2,75.0000028610231,4|0|0,0:3|0:0|0:0,0:0:0:0:
74,310,127825,1,8,0:0:0:0:
211,231,128007,1,0,0:0:0:0:
217,240,128370,1,0,0:0:0:0:
355,162,128552,5,6,0:3:0:0:
411,225,128734,2,0,L|425:398,1,150.000005722046
300,257,129279,1,8,0:0:0:0:
242,322,129461,2,0,P|282:339|339:337,1,75.0000028610231
204,119,129825,1,0,0:0:0:0:
82,251,130007,5,6,0:3:0:0:
166,284,130189,2,0,L|158:180,1,75.0000028610231
151,50,130552,1,0,0:0:0:0:
230,115,130734,2,0,P|262:97|309:92,1,75.0000028610231,8|0,0:0|0:0,0:0:0:0:
456,55,131098,1,0,0:0:0:0:
378,24,131279,1,0,0:0:0:0:
316,217,131461,5,6,0:3:0:0:
456,170,131643,2,0,L|372:161,1,75.0000028610231
253,273,132007,1,0,0:0:0:0:
503,240,132189,1,8,0:0:0:0:
493,247,132552,2,0,P|510:310|502:338,1,75.0000028610231
276,333,132916,5,8,0:0:0:0:
426,297,133098,1,0,0:0:0:0:
357,347,133279,1,4,0:3:0:0:
417,214,133461,1,0,0:0:0:0:
213,232,133643,6,0,L|111:240,2,75.0000028610231,4|0|0,0:2|0:0|0:0,0:0:0:0:
333,221,134188,1,0,0:0:0:0:
178,78,134370,2,0,P|166:106|173:171,1,75.0000028610231,8|0,0:0|0:0,0:0:0:0:
331,47,134733,1,0,0:0:0:0:
249,32,134915,1,0,0:0:0:0:
368,123,135097,5,6,0:3:0:0:
328,197,135279,2,0,L|243:203,1,75.0000028610231
89,213,135643,1,0,0:0:0:0:
279,290,135824,2,0,L|193:283,1,75.0000028610231,8|0,0:0|0:0,0:0:0:0:
25,349,136188,1,0,0:0:0:0:
88,297,136370,1,0,0:0:0:0:
256,375,136552,6,0,L|343:367,1,75.0000028610231,6|4,0:3|0:3,0:3:0:0:
429,252,136915,1,0,0:0:0:0:
419,259,137279,1,8,0:0:0:0:
289,183,137461,2,0,P|344:189|376:214,1,75.0000028610231
441,342,137824,1,0,0:0:0:0:
501,146,138006,6,0,L|494:244,1,75.0000028610231,8|0,0:0|0:0,0:0:0:0:
309,263,138370,1,4,0:3:0:0:
360,198,138552,1,0,0:0:0:0:
459,364,138733,5,6,0:3:0:0:
353,342,138914,2,0,P|311:357|287:381,1,75.0000028610231
426,264,139278,1,0,0:0:0:0:
146,247,139460,2,0,L|237:253,1,75.0000028610231,12|0,0:0|0:0,0:0:0:0:
375,179,139823,1,0,0:0:0:0:
298,148,140005,1,0,0:0:0:0:
270,326,140187,5,6,0:3:0:0:
353,335,140369,2,0,P|332:268|303:246,1,75.0000028610231,4|0,0:3|0:3,0:3:0:0:
192,161,140733,1,0,0:0:0:0:
182,358,140914,2,0,L|188:264,1,75.0000028610231,8|0,0:0|0:0,0:0:0:0:
199,75,141277,5,8,0:0:0:0:
280,219,141459,1,8,0:0:0:0:
104,94,141641,1,8,0:0:0:0:
278,127,141823,1,8,0:0:0:0:
91,301,142007,6,0,P|41:225|60:156,1,137.999995367432,4|0,1:0|2:2,0:0:0:0:
12,99,142370,2,0,L|137:91,1,91.9999969116212,4|0,0:0|0:0,0:0:0:0:
313,18,142734,2,0,P|262:29|217:80,1,91.9999969116212,8|0,0:1|0:0,0:0:0:0:
420,175,143097,2,0,P|373:150|306:160,1,91.9999969116212,8|4,0:1|0:0,0:0:0:0:
159,258,143461,5,6,0:0:0:0:
321,292,143643,1,8,0:1:0:0:
135,280,143825,2,0,L|125:180,1,80,8|0,0:1|0:0,0:0:0:0:
231,46,144188,5,8,0:3:0:0:
211,182,144370,1,4,0:3:0:0:
206,25,144552,2,0,P|258:7|304:14,1,80,8|0,0:3|0:0,0:0:0:0:
463,173,144916,5,4,1:0:0:0:
394,126,145097,2,0,L|298:117,1,80,4|0,0:0|0:0,0:0:0:0:
186,241,145461,1,4,0:0:0:0:
298,100,145643,2,0,L|208:112,1,80,8|0,0:1|0:0,0:0:0:0:
440,289,146007,6,0,L|324:277,1,87.0000007301331,8|4,0:1|0:0,0:0:0:0:
107,262,146370,1,4,0:0:0:0:
263,202,146552,1,8,0:1:0:0:
241,369,146734,2,0,L|229:252,1,87.0000007301331,8|8,0:1|0:0,0:0:0:0:
231,56,147097,5,4,0:0:0:0:
181,177,147279,1,4,0:0:0:0:
309,129,147461,1,8,0:0:0:0:
123,62,147643,1,8,0:0:0:0:
376,32,147825,6,0,P|425:86|413:170,1,137.999995367432,4|0,1:0|2:1,0:0:0:0:
355,196,148188,1,4,0:0:0:0:
511,83,148370,1,4,0:0:0:0:
369,281,148552,2,0,P|310:267|278:233,1,91.9999969116212,8|0,0:1|0:0,0:0:0:0:
69,361,148916,2,0,P|128:347|160:313,1,91.9999969116212,8|0,0:1|0:0,0:0:0:0:
271,343,149188,1,0,1:0:0:0:
286,364,149279,6,0,L|209:354,2,53.3333333333333,0|0|0,1:0|1:0|1:0,1:0:0:0:
298,262,149643,2,0,L|153:245,1,120,8|0,1:0|2:1,0:0:0:0:
275,170,150007,6,0,L|342:163,2,53.3333333333333,0|0|0,1:0|1:0|1:0,1:0:0:0:
291,87,150370,1,8,1:0:0:0:
299,79,150734,5,4,1:0:0:0:
191,58,150916,2,0,P|158:66|118:106,1,80,4|0,0:0|0:0,0:0:0:0:
77,260,151279,1,4,0:0:0:0:
25,108,151461,2,0,L|35:200,1,80,8|0,0:1|0:0,0:0:0:0:
154,367,151825,6,0,L|159:263,1,87.0000007301331,8|0,0:1|0:0,0:0:0:0:
212,68,152188,1,4,0:0:0:0:
238,250,152370,1,8,0:1:0:0:
112,136,152552,2,0,P|181:147|210:173,1,87.0000007301331,8|0,0:1|0:0,0:0:0:0:
318,370,152916,5,8,0:0:0:0:
344,217,153097,1,8,0:0:0:0:
253,281,153279,1,4,0:0:0:0:
410,305,153461,1,4,0:0:0:0:
233,102,153643,6,0,P|152:100|99:167,1,137.999995367432,4|0,1:0|2:1,0:0:0:0:
26,116,154007,2,0,L|37:238,1,91.9999969116212,4|4,0:0|0:0,0:0:0:0:
210,291,154370,1,8,0:1:0:0:
192,177,154552,1,0,0:0:0:0:
185,373,154734,2,0,P|231:374|272:354,1,91.9999969116212,2|8,0:0|0:0,0:0:0:0:
359,132,155097,5,6,0:0:0:0:
192,177,155279,1,8,0:1:0:0:
340,109,155461,2,0,L|452:118,1,80,8|8,0:1|0:0,0:0:0:0:
394,287,155825,5,4,0:0:0:0:
290,200,156007,1,4,0:0:0:0:
378,307,156188,2,0,P|441:297|475:266,1,80,8|0,0:1|0:0,0:0:0:0:
330,58,156552,5,4,1:0:0:0:
264,111,156734,2,0,L|271:202,1,80,4|0,0:0|0:0,0:0:0:0:
200,351,157097,1,4,0:0:0:0:
102,272,157279,2,0,L|106:185,1,80,8|0,0:1|0:0,0:0:0:0:
46,8,157643,1,8,0:1:0:0:
112,108,157825,1,8,0:0:0:0:
214,18,158007,5,4,0:0:0:0:
26,89,158188,1,8,0:1:0:0:
189,217,158370,2,0,P|233:212|285:179,1,87.0000007301331,8|8,0:1|0:3,0:0:0:0:
367,12,158734,5,4,0:3:0:0:
410,231,158916,1,8,0:1:0:0:
256,110,159097,2,0,P|308:116|345:149,1,91.9999969116212,8|4,0:1|0:0,0:0:0:0:
475,334,159461,6,0,L|260:312,1,183.999993823242,4|4,1:0|0:0,0:0:0:0:
142,290,160007,1,4,0:0:0:0:
327,223,160188,2,0,L|224:233,1,91.9999969116212,8|0,0:1|0:0,0:0:0:0:
40,170,160552,2,0,L|141:177,1,91.9999969116212,8|8,0:1|0:0,0:0:0:0:
325,103,160916,5,4,0:0:0:0:
157,38,161097,1,8,0:1:0:0:
204,128,161279,1,8,0:0:0:0:
215,126,161370,1,8,0:0:0:0:
226,125,161461,1,8,0:0:0:0:
113,139,161643,2,4,P|117:156|130:176,1,40
63,233,161825,2,4,P|79:245|98:253,1,40
76,337,162007,2,4,P|116:336|153:322,1,80,8|4,0:0|0:0,0:0:0:0:
340,187,162370,5,4,0:2:0:0:
202,55,169807,6,0,P|237:46|264:51,1,43.9999998657227,8|4,0:0|0:3,0:0:0:0:
222,173,170150,2,4,P|235:143|253:125,2,43.9999998657227,8|8|4,0:3|0:3|0:3,0:3:0:0:
256,324,170664,5,4,0:0:0:0:
256,324,174585,6,8,L|227:330,2,24.749999924469,8|8|8,0:3|0:3|0:3,0:3:0:0:
469,15,177848,6,8,L|506:18,2,21.9999999328613
384,7,178190,1,8,0:0:0:0:
457,100,178362,5,8,0:0:0:0:
385,144,178533,1,8,0:0:0:0:
306,115,178705,1,8,0:0:0:0:
221,114,178874,5,4,0:0:0:0:
227,145,178959,1,8,0:0:0:0:
195,122,179045,1,2,0:0:0:0:
206,153,179131,1,8,0:0:0:0:
168,139,179216,1,2,0:0:0:0:
187,165,179302,1,8,0:0:0:0:
143,167,179388,2,0,L|179:196,5,29.9999990844727,2|8|2|8|2|8,0:0|0:0|0:0|0:0|0:0|0:0,0:0:0:0:
94,251,179902,2,0,L|148:263,5,29.9999990844727,2|8|2|8|2|8,0:0|0:0|0:0|0:0|0:0|0:0,0:0:0:0:
89,341,180416,2,0,L|141:337,5,29.9999990844727,2|8|2|8|2|8,0:0|0:0|0:0|0:0|0:0|0:0,0:0:0:0:
201,367,180931,5,2,0:0:0:0:
206,336,181016,1,8,0:0:0:0:
228,368,181101,1,2,0:0:0:0:
229,335,181187,1,8,0:0:0:0:
259,361,181273,1,2,0:0:0:0:
251,331,181358,1,8,0:0:0:0:
293,344,181445,2,0,L|269:304,5,29.9999990844727,2|8|2|8|2|8,0:0|0:0|0:0|0:0|0:0|0:0,0:0:0:0:
367,282,181959,2,0,L|320:252,5,29.9999990844727,2|8|2|8|2|8,0:0|0:0|0:0|0:0|0:0|0:0,0:0:0:0:
404,198,182474,2,0,L|353:183,5,29.9999990844727,2|8|2|8|2|8,0:0|0:0|0:0|0:0|0:0|0:0,0:0:0:0:
302,142,182988,5,6,0:0:0:0:
291,170,183074,1,8,0:0:0:0:
275,135,183159,1,2,0:0:0:0:
268,167,183245,1,8,0:0:0:0:
243,137,183331,1,2,0:0:0:0:
246,167,183416,1,8,0:0:0:0:
207,148,183502,2,0,L|223:191,5,29.9999990844727,2|8|2|8|2|8,0:0|0:0|0:0|0:0|0:0|0:0,0:0:0:0:
124,196,184016,2,0,L|164:233,5,29.9999990844727,2|8|2|8|2|8,0:0|0:0|0:0|0:0|0:0|0:0,0:0:0:0:
72,272,184531,2,0,L|119:294,5,29.9999990844727,2|8|2|8|2|8,0:0|0:0|0:0|0:0|0:0|0:0,0:0:0:0:
7,204,185045,5,6,2:0:0:0:
35,195,185131,1,8,2:0:0:0:
2,176,185216,1,2,2:0:0:0:
35,172,185301,1,8,2:0:0:0:
8,144,185388,1,2,2:0:0:0:
37,150,185474,1,8,2:0:0:0:
22,110,185559,2,0,L|63:130,5,29.9999990844727,2|8|2|8|2|8,2:0|2:0|2:0|2:0|2:0|2:0,2:0:0:0:
111,58,186074,5,6,0:0:0:0:
140,54,186159,1,8,0:0:0:0:
169,50,186245,1,2,0:0:0:0:
198,46,186331,1,8,0:0:0:0:
227,42,186416,2,0,L|278:36,1,29.9999990844727,2|8,0:0|0:0,0:0:0:0:
170,137,186588,5,6,0:0:0:0:
199,141,186673,1,8,0:0:0:0:
228,145,186759,1,2,0:0:0:0:
257,150,186845,1,8,0:0:0:0:
286,155,186931,2,0,L|340:161,1,29.9999990844727,2|8,0:0|0:0,0:0:0:0:
194,223,187102,5,6,2:0:0:0:
223,227,187187,1,8,2:0:0:0:
193,251,187274,1,2,2:0:0:0:
226,250,187359,1,8,2:0:0:0:
204,282,187445,1,2,2:0:0:0:
232,271,187531,1,8,2:0:0:0:
223,313,187616,2,0,L|260:286,5,29.9999990844727,2|8|2|8|2|8,2:0|2:0|2:0|2:0|2:0|2:0,2:0:0:0:
329,271,188131,5,6,2:0:0:0:
332,301,188216,1,8,2:0:0:0:
357,271,188302,1,2,2:0:0:0:
355,305,188388,1,8,2:0:0:0:
387,282,188474,1,2,2:0:0:0:
377,310,188559,1,8,2:0:0:0:
418,301,188645,2,0,L|391:339,5,29.9999990844727,2|8|2|8|2|8,2:0|2:0|2:0|2:0|2:0|2:0,2:0:0:0:
472,229,189159,5,6,2:0:0:0:
443,219,189244,1,8,2:0:0:0:
477,201,189331,1,2,2:0:0:0:
444,196,189416,1,8,2:0:0:0:
473,169,189502,1,2,2:0:0:0:
443,173,189588,1,8,2:0:0:0:
461,135,189674,2,0,L|418:152,5,29.9999990844727,2|8|2|8|2|8,2:0|2:0|2:0|2:0|2:0|2:0,2:0:0:0:
385,61,190189,5,6,0:0:0:0:
356,69,190274,1,8,0:0:0:0:
326,65,190359,1,2,0:0:0:0:
299,50,190445,1,8,0:0:0:0:
277,29,190531,2,0,L|273:-7,1,29.9999990844727,2|8,0:0|0:0,0:0:0:0:
224,102,190702,5,6,0:0:0:0:
196,90,190787,1,8,0:0:0:0:
166,90,190874,1,2,0:0:0:0:
140,106,190959,1,8,0:0:0:0:
121,129,191045,2,0,L|117:170,1,29.9999990844727,2|8,0:0|0:0,0:0:0:0:
260,185,191216,5,6,2:0:0:0:
249,213,191302,1,8,2:0:0:0:
284,199,191388,1,2,2:0:0:0:
267,227,191474,1,8,2:0:0:0:
306,222,191559,1,2,2:0:0:0:
284,243,191645,1,8,2:0:0:0:
324,253,191731,2,0,L|282:274,5,29.9999990844727,2|8|2|8|2|8,2:0|2:0|2:0|2:0|2:0|2:0,2:0:0:0:
212,296,192245,5,6,2:0:0:0:
197,323,192330,1,8,2:0:0:0:
185,287,192415,1,2,2:0:0:0:
175,318,192501,1,8,2:0:0:0:
154,285,192587,1,2,2:0:0:0:
152,315,192674,1,8,2:0:0:0:
118,291,192759,2,0,L|128:336,5,29.9999990844727,2|8|2|8|2|8,2:0|2:0|2:0|2:0|2:0|2:0,2:0:0:0:
62,208,193274,5,6,0:0:0:0:
67,184,193359,1,8,0:0:0:0:
79,163,193445,1,8,0:0:0:0:
96,146,193531,1,8,0:0:0:0:
117,135,193616,1,8,0:0:0:0:
140,129,193702,1,8,0:0:0:0:
164,129,193788,2,4,L|209:134,5,29.9999990844727,4|4|4|4|4|4,0:3|0:3|0:3|0:3|0:3|0:3,0:3:0:0:
291,134,194302,5,8,0:0:0:0:
279,148,194388,1,4,0:3:0:0:
271,164,194474,1,4,0:3:0:0:
267,181,194559,1,4,0:3:0:0:
265,199,194645,1,4,0:3:0:0:
267,216,194731,1,4,0:3:0:0:
293,238,194816,5,8,0:0:0:0:
299,248,194902,1,4,0:3:0:0:
304,258,194988,1,4,0:3:0:0:
307,269,195074,1,4,0:3:0:0:
308,280,195159,1,4,0:3:0:0:
309,291,195245,1,4,0:3:0:0:
292,323,195331,6,0,B|341:330|341:330|359:347|359:347|428:358,1,119.999996337891,4|0,0:0|0:0,0:0:0:0:
396,217,195845,2,0,L|389:145,2,59.9999981689454,8|0|0,0:0|0:0|0:0,0:0:0:0:
497,151,196359,2,0,L|502:92,1,59.9999981689454,4|4,0:3|0:3,0:0:0:0:
457,21,196702,1,0,0:0:0:0:
310,184,196874,1,8,0:0:0:0:
373,71,197045,2,0,P|339:86|311:116,1,59.9999981689454,0|4,0:0|0:3,0:0:0:0:
218,239,197388,5,4,0:3:0:0:
137,142,197559,2,0,P|179:151|214:173,1,59.9999981689454
343,302,197902,1,8,0:0:0:0:
413,249,198074,1,4,0:3:0:0:
332,215,198245,1,4,0:3:0:0:
229,322,198416,2,0,L|87:310,1,119.999996337891,4|0,0:3|0:0,0:0:0:0:
74,148,198931,2,0,L|193:158,1,119.999996337891,8|0,0:0|0:0,0:0:0:0:
317,63,199445,6,0,P|315:32|299:-7,2,59.9999981689454,4|0|4,0:3|0:0|0:3,0:0:0:0:
273,188,199959,2,0,P|332:148|393:155,1,119.999996337891,8|4,0:0|0:3,0:0:0:0:
431,301,200474,2,0,P|384:337|325:339,1,119.999996337891,4|4,0:3|0:3,0:0:0:0:
193,158,200988,1,8,0:0:0:0:
77,243,201159,2,0,P|69:257|65:271,1,29.9999990844727,4|0,0:3|0:0,0:0:0:0:
150,291,201331,2,0,P|150:306|154:321,1,29.9999990844727,4|0,0:3|0:0,0:0:0:0:
238,378,201502,6,0,L|245:232,1,119.999996337891,4|0,0:3|0:0,0:0:0:0:
249,61,202016,5,8,0:0:0:0:
168,84,202188,1,4,0:3:0:0:
321,112,202359,5,8,0:0:0:0:
251,161,202531,1,4,0:3:0:0:
403,151,202702,5,8,0:0:0:0:
354,219,202874,1,4,0:3:0:0:
512,314,203045,5,8,0:3:0:0:
456,249,203216,1,8,0:3:0:0:
400,308,203388,1,4,0:3:0:0:
236,195,203559,6,0,B|226:150|226:150|234:113|234:113|223:57,1,119.999996337891,4|0,0:0|0:0,0:0:0:0:
87,132,204074,2,0,P|145:108|160:107,1,59.9999981689454,8|0,0:0|0:0,0:0:0:0:
315,151,204416,1,4,0:3:0:0:
173,306,204588,2,0,P|141:255|148:197,1,119.999996337891,4|0,0:3|0:0,0:0:0:0:
264,86,205102,1,8,0:0:0:0:
286,239,205274,2,4,L|205:233,1,59.9999981689454,4|4,0:3|0:3,0:3:0:0:
53,224,205616,6,0,P|21:233|-12:260,2,59.9999981689454,4|0|4,0:3|0:0|0:3,0:0:0:0:
250,323,206131,1,8,0:0:0:0:
173,364,206302,2,4,L|161:280,1,59.9999981689454,4|4,0:3|0:3,0:3:0:0:
138,107,206645,1,4,0:3:0:0:
149,191,206816,2,0,L|155:243,2,29.9999990844727,0|0|4,0:0|0:0|0:3,0:0:0:0:
176,32,207159,2,0,P|242:18|255:20,1,59.9999981689454,8|4,0:0|0:3,0:0:0:0:
320,31,207502,1,4,0:3:0:0:
259,219,207674,6,0,L|269:82,1,119.999996337891,4|4,0:3|0:3,0:0:0:0:
460,147,208188,2,0,L|450:284,1,119.999996337891,8|4,0:0|0:3,0:0:0:0:
267,315,208702,2,0,P|318:293|342:292,2,59.9999981689454,4|0|4,0:3|0:0|0:3,0:0:0:0:
142,370,209216,2,0,P|111:366|78:349,1,59.9999981689454,8|0,0:0|0:0,0:0:0:0:
39,282,209559,1,4,0:3:0:0:
220,214,209731,5,8,0:0:0:0:
185,295,209902,1,4,0:3:0:0:
110,131,210074,2,0,B|157:124|157:124|181:134|181:134|246:125,1,119.999996337891,8|4,0:0|0:3,0:0:0:0:
313,119,210588,1,0,0:0:0:0:
402,284,210759,5,8,0:0:0:0:
320,266,210931,1,4,0:3:0:0:
437,157,211102,5,8,0:0:0:0:
361,185,211274,1,4,0:3:0:0:
449,19,211445,5,8,0:0:0:0:
313,119,211616,1,8,0:0:0:0:
492,225,211788,6,0,P|523:163|508:103,1,119.999996337891,4|4,0:0|0:3,0:0:0:0:
420,267,212302,2,0,L|342:259,1,59.9999981689454,8|4,0:0|0:3,0:0:0:0:
274,250,212645,1,4,0:3:0:0:
438,155,212816,2,0,P|383:153|313:196,1,119.999996337891,4|4,0:3|0:3,0:0:0:0:
222,318,213331,1,8,0:0:0:0:
137,165,213502,2,4,P|180:176|203:192,1,59.9999981689454,4|4,0:3|0:3,0:3:0:0:
53,277,213845,6,0,L|60:201,1,59.9999981689454,4|0,0:3|0:0,0:0:0:0:
68,100,214188,1,4,0:3:0:0:
249,72,214359,2,0,L|172:81,1,59.9999981689454,8|4,0:0|0:3,0:0:0:0:
54,92,214702,1,4,0:3:0:0:
178,212,214874,6,0,P|229:208|292:169,1,119.999996337891,4|4,0:3|0:3,0:0:0:0:
442,325,215388,1,8,0:0:0:0:
293,263,215559,1,8,0:3:0:0:
304,260,215645,1,8,0:3:0:0:
316,260,215731,1,4,0:3:0:0:
327,263,215816,1,4,0:3:0:0:
336,270,215902,5,4,0:3:0:0:
377,152,216074,2,0,L|382:106,1,29.9999990844727,8|0,0:3|0:0,0:0:0:0:
287,173,216245,2,0,L|293:130,1,29.9999990844727,4|0,0:3|0:0,0:0:0:0:
196,195,216416,6,0,L|201:148,5,29.9999990844727,8|0|4|0|4|0,3:2|3:0|3:3|3:0|3:3|3:0,3:0:0:0:
106,218,216931,2,0,L|110:168,5,29.9999990844727,4|0|4|0|4|0,3:3|3:3|3:3|3:3|3:3|3:3,3:3:0:0:
23,245,217445,1,8,0:0:0:0:
10,162,217616,1,4,0:3:0:0:
37,328,217788,1,4,0:3:0:0:
169,270,217959,6,0,P|210:279|247:297,1,59.9999981689454,4|0,0:3|0:0,0:0:0:0:
353,360,218302,1,0,3:3:0:0:
362,367,218388,1,0,3:3:0:0:
370,375,218474,2,0,L|375:305,1,59.9999981689454,8|0,3:2|1:2,3:0:0:0:
345,234,218731,1,8,3:2:0:0:
320,245,218816,2,0,L|310:168,1,59.9999981689454,8|4,3:2|3:0,3:0:0:0:
311,173,219074,1,4,3:0:0:0:
309,161,219159,1,8,3:0:0:0:
222,188,219331,1,8,3:0:0:0:
221,199,219416,1,8,3:0:0:0:
220,211,219502,1,4,3:0:0:0:
135,180,219674,2,4,L|129:133,3,29.9999990844727,4|4|4|4,3:0|3:0|3:0|3:0,3:0:0:0:
110,133,220016,6,0,L|128:251,1,119.999996337891,4|4,0:0|0:3,0:0:0:0:
149,383,220531,1,8,0:2:0:0:
0,288,220702,2,4,P|44:298|70:313,1,59.9999981689454,4|4,0:3|0:3,0:3:0:0:
262,359,221045,2,0,P|304:272|293:230,1,119.999996337891,4|4,0:3|0:3,0:0:0:0:
209,111,221559,1,8,0:2:0:0:
397,184,221731,2,4,L|326:175,1,59.9999981689454,4|4,0:3|0:3,0:3:0:0:
117,153,222074,5,4,0:3:0:0:
186,240,222245,1,0,0:0:0:0:
224,137,222416,1,4,0:3:0:0:
195,251,222588,5,8,0:0:0:0:
112,177,222759,1,4,0:3:0:0:
214,143,222930,1,4,0:3:0:0:
112,202,223102,5,8,0:0:0:0:
207,261,223274,2,0,L|257:268,3,29.9999990844727,4|0|4|0,3:0|3:0|3:0|3:0,3:0:0:0:
257,282,223616,2,0,P|268:314|266:358,2,59.9999981689454,8|0|4,0:0|0:0|0:3,0:0:0:0:
112,177,224131,6,0,B|158:181|158:181|183:169|183:169|255:176,1,119.999996337891,4|4,0:0|0:3,0:0:0:0:
386,241,224645,2,0,P|424:238|465:220,1,59.9999981689454,8|4,0:0|0:3,0:0:0:0:
500,166,224988,1,4,0:3:0:0:
345,76,225159,2,0,P|313:128|326:203,1,119.999996337891,4|4,0:3|0:3,0:0:0:0:
484,45,225674,2,0,L|419:38,1,59.9999981689454,8|4,0:0|0:3,0:0:0:0:
277,24,226016,1,4,0:3:0:0:
398,146,226188,5,8,0:0:0:0:
229,165,226359,1,8,0:0:0:0:
233,153,226445,1,8,0:0:0:0:
242,145,226531,1,8,0:0:0:0:
299,243,226702,1,8,0:0:0:0:
266,250,226788,1,8,0:0:0:0:
233,255,226874,1,8,0:0:0:0:
191,261,226959,1,8,0:0:0:0:
165,227,227045,1,8,0:0:0:0:
123,220,227131,1,8,0:0:0:0:
84,235,227216,6,8,L|78:180,5,29.9999990844727
0,185,227731,2,4,L|7:134,5,29.9999990844727,4|4|4|4|4|4,0:3|0:3|0:3|0:3|0:3|0:3,0:3:0:0:
62,89,228245,6,0,B|111:84|111:84|138:99|138:99|213:92,1,133.333333333333,4|4,0:0|0:3,0:0:0:0:
367,44,228759,1,8,0:0:0:0:
306,100,228931,1,4,0:3:0:0:
279,103,229102,1,4,0:3:0:0:
444,86,229274,2,0,P|466:145|464:180,1,66.6666666666667,4|0,0:3|0:0,0:0:0:0:
447,234,229616,1,4,0:3:0:0:
236,256,229788,1,8,0:0:0:0:
381,302,229959,1,4,0:3:0:0:
210,247,230131,1,8,0:0:0:0:
303,343,230302,6,0,L|288:197,1,133.333333333333,4|4,0:3|0:3,0:0:0:0:
224,69,230816,1,8,0:0:0:0:
171,135,230988,1,4,0:3:0:0:
144,139,231159,1,4,0:3:0:0:
78,36,231331,2,0,P|122:45|162:71,2,66.6666666666667,4|0|4,0:3|0:0|0:3,0:0:0:0:
29,205,231845,1,8,0:0:0:0:
171,135,232016,1,4,0:3:0:0:
0,193,232188,1,8,0:0:0:0:
202,321,232359,6,0,P|238:257|217:176,1,133.333333333333,4|4,0:3|0:3,0:0:0:0:
63,117,232874,1,8,0:0:0:0:
145,140,233044,1,4,0:3:0:0:
171,135,233216,1,4,0:3:0:0:
264,28,233388,2,0,P|297:32|333:50,1,66.6666666666667,4|0,0:3|0:0,0:0:0:0:
379,113,233731,1,4,0:3:0:0:
230,199,233902,1,8,0:0:0:0:
305,155,234074,2,0,L|316:230,1,66.6666666666667,4|4,0:3|0:3,0:0:0:0:
144,371,234416,6,0,L|154:227,1,133.333333333333,4|0,0:3|0:3,0:0:0:0:
138,49,234931,1,8,0:0:0:0:
101,147,235102,1,8,0:0:0:0:
113,152,235188,1,8,0:0:0:0:
126,154,235274,1,8,0:0:0:0:
269,80,235445,1,8,0:0:0:0:
255,76,235531,1,8,0:0:0:0:
241,76,235616,1,4,0:3:0:0:
228,81,235702,1,4,0:3:0:0:
217,89,235788,1,4,0:3:0:0:
210,100,235874,1,4,0:3:0:0:
206,112,235959,2,0,L|211:165,5,33.3333333333333,8|8|4|4|4|4,0:0|0:3|0:3|0:3|0:3|0:3,0:0:0:0:
274,202,236474,6,0,B|326:205|326:205|352:187|352:187|421:191,1,133.333333333333,4|4,0:0|0:3,0:0:0:0:
437,358,236988,1,8,0:0:0:0:
373,300,237159,1,4,0:3:0:0:
381,274,237331,1,4,0:3:0:0:
273,367,237502,2,0,P|209:343|193:328,1,66.6666666666667,4|0,0:3|0:0,0:0:0:0:
164,276,237845,1,4,0:3:0:0:
298,127,238016,1,8,0:0:0:0:
277,283,238188,1,4,0:3:0:0:
323,118,238359,1,8,0:0:0:0:
121,199,238531,6,0,P|81:247|101:335,1,133.333333333333,4|0,0:3|0:0,0:0:0:0:
263,255,239045,1,8,0:0:0:0:
164,276,239216,1,4,0:3:0:0:
184,292,239388,1,4,0:3:0:0:
344,221,239559,2,0,L|336:141,1,66.6666666666667,4|0,0:3|0:0,0:0:0:0:
329,71,239902,1,4,0:3:0:0:
139,155,240074,5,8,0:0:0:0:
224,217,240245,1,4,0:3:0:0:
235,112,240416,1,4,0:3:0:0:
60,225,240588,6,8,L|65:267,5,33.3333333333333,10|8|8|8|8|8,0:0|0:0|0:0|0:0|0:0|0:0,0:0:0:0:
146,296,241102,2,8,L|150:263,5,33.3333333333333,10|8|8|8|8|8,0:0|0:0|0:0|0:0|0:0|0:0,0:0:0:0:
224,217,241616,1,8,0:0:0:0:
252,208,241702,1,8,0:0:0:0:
281,212,241788,1,8,0:0:0:0:
303,232,241874,1,8,0:0:0:0:
315,258,241959,1,8,0:0:0:0:
313,288,242045,1,8,0:0:0:0:
297,313,242131,2,8,L|251:317,5,33.3333333333333
394,378,242645,6,8,L|433:384,5,33.3333333333333,8|8|8|8|8|12,0:0|0:0|0:0|0:0|0:3|0:3,0:0:0:0:
417,344,243159,2,4,L|463:339,5,33.3333333333333,8|4|4|4|4|4,0:2|0:3|0:3|0:3|0:3|0:3,0:3:0:0:
436,304,243674,2,4,L|486:286,5,33.3333333333333,8|4|4|4|4|4,0:0|0:3|0:3|0:3|0:3|0:3,0:3:0:0:
436,214,244188,2,4,L|477:185,5,33.3333333333333,4|4|4|4|4|4,1:0|0:3|0:3|0:3|0:3|0:3,0:3:0:0:
391,139,244702,6,0,P|336:94|260:92,1,133.333333333333,4|4,0:0|0:3,0:0:0:0:
185,135,245131,1,4,0:3:0:0:
201,159,245216,2,0,L|187:8,1,133.333333333333,8|4,0:0|0:3,0:0:0:0:
42,41,245645,1,4,0:3:0:0:
14,27,245731,2,0,P|81:37|110:110,1,133.333333333333,4|4,0:1|0:3,0:0:0:0:
79,173,246159,1,4,0:3:0:0:
60,193,246245,2,0,L|54:160,5,33.3333333333333,8|0|0|0|0|0,0:0|0:0|0:0|0:0|0:0|0:0,0:0:0:0:
85,280,246759,6,0,P|155:315|210:296,1,133.333333333333,4|4,0:0|0:3,0:0:0:0:
273,205,247188,1,4,0:3:0:0:
247,220,247274,2,0,L|254:78,1,133.333333333333,8|4,0:0|0:3,0:0:0:0:
363,131,247702,1,4,0:3:0:0:
337,147,247788,2,0,P|430:139|457:105,1,133.333333333333,4|4,0:1|0:3,0:0:0:0:
489,208,248216,1,4,0:3:0:0:
474,234,248302,2,0,L|507:236,5,33.3333333333333,8|0|0|0|0|0,0:0|0:0|0:0|0:0|0:0|0:0,0:0:0:0:
385,257,248816,6,0,B|335:262|335:262|310:283|310:283|241:289,1,133.333333333333,4|4,0:0|0:3,0:0:0:0:
246,186,249245,1,4,0:3:0:0:
270,202,249331,2,0,P|312:124|292:62,1,133.333333333333,8|4,0:0|0:3,0:0:0:0:
249,1,249759,1,4,0:3:0:0:
236,28,249845,2,0,L|95:16,1,133.333333333333,4|4,0:1|0:3,0:0:0:0:
0,71,250274,1,4,0:3:0:0:
21,92,250359,2,0,L|77:86,5,33.3333333333333,8|0|0|0|0|0,0:0|0:0|0:0|0:0|0:0|0:0,0:0:0:0:
138,126,250874,6,0,B|144:174|144:174|131:207|131:207|140:264,1,133.333333333333,4|4,0:0|0:3,0:0:0:0:
189,329,251302,1,4,0:3:0:0:
215,343,251388,2,0,L|221:292,5,33.3333333333333,8|0|0|0|0|0,0:0|0:0|0:0|0:0|0:0|0:0,0:0:0:0:
294,224,251902,2,0,L|298:259,5,33.3333333333333,4|0|0|0|0|0,0:0|0:0|0:0|0:0|0:0|0:0,0:0:0:0:
359,384,252416,2,0,L|370:324,5,33.3333333333333,8|0|0|0|0|0,0:0|0:0|0:0|0:0|0:0|0:0,0:0:0:0:
361,169,252931,6,0,P|328:146|252:151,1,110.000003356934,12|8,0:0|0:3,0:0:0:0:
199,214,253274,1,4,0:3:0:0:
188,223,253359,1,4,0:3:0:0:
177,233,253445,2,0,L|163:100,1,110.000003356934,8|8,0:0|0:3,0:0:0:0:
104,48,253788,1,4,0:3:0:0:
90,54,253873,1,4,0:3:0:0:
76,60,253959,2,0,L|68:183,1,110.000003356934,8|8,0:0|0:3,0:0:0:0:
58,263,254302,1,4,0:3:0:0:
44,256,254388,1,4,0:3:0:0:
31,248,254474,2,0,P|70:220|134:226,1,110.000003356934,8|8,0:0|0:3,0:0:0:0:
80,354,254816,1,4,0:3:0:0:
69,364,254902,1,4,0:3:0:0:
58,374,254988,6,0,P|116:384|167:349,1,110.000003356934,12|8,0:0|0:3,0:0:0:0:
203,282,255331,1,4,0:3:0:0:
215,274,255416,1,4,0:3:0:0:
227,266,255502,2,0,L|353:255,1,110.000003356934,8|8,0:0|0:3,0:0:0:0:
399,325,255845,1,4,0:3:0:0:
413,331,255931,1,4,0:3:0:0:
427,337,256016,2,0,P|454:290|442:208,1,110.000003356934,8|8,0:0|0:3,0:0:0:0:
390,169,256359,1,4,0:3:0:0:
396,156,256445,1,4,0:3:0:0:
403,143,256531,2,0,L|525:135,1,110.000003356934,8|8,0:0|0:3,0:0:0:0:
453,235,256874,1,4,0:3:0:0:
441,243,256959,1,4,0:3:0:0:
429,251,257045,6,0,P|353:248|296:177,1,165.000005035401,12|4,0:0|0:3,0:0:0:0:
80,85,257559,2,0,P|50:125|44:168,1,66.6666666666667,12|4,0:0|0:3,0:0:0:0:
160,67,257929,1,4,0:3:0:0:
89,214,258114,2,0,P|89:263|111:301,2,66.6666666666667,12|4|4,0:0|0:3|0:3,0:0:0:0:
298,80,258649,2,0,P|347:87|381:114,1,66.6666666666667,12|4,0:0|0:3,0:0:0:0:
225,120,259012,1,4,0:3:0:0:
398,175,259194,6,0,L|480:168,2,59.9999981689454,8|4|4,0:0|0:3|0:3,0:0:0:0:
194,219,259846,2,0,L|122:213,2,53.3333333333333,8|4|4,0:0|0:0|0:3,0:0:0:0:
466,252,260596,6,0,L|526:247,2,46.6666652425131,4|4|4,0:3|0:3|0:3,0:0:0:0:
145,300,261406,2,0,L|95:295,2,39.9999987792969,4|4|4,0:3|0:0|0:3,0:0:0:0:
489,336,262288,6,0,L|509:335,1,19.9999993896485,4|4,0:3|0:0,0:0:0:0:
256,192,262876,12,0,275046,0:0:0:0:
404,155,285955,5,4,0:3:0:0:
438,162,286227,1,4,0:3:0:0:
381,128,286500,5,4,0:3:0:0:
432,128,286772,1,4,0:3:0:0:
360,104,287046,5,4,0:3:0:0:
437,91,287318,1,4,0:3:0:0:
329,77,287591,5,4,0:3:0:0:
438,39,287863,1,4,0:3:0:0:
184,314,288136,6,0,L|116:307,1,50,4|0,0:0|0:0,0:0:0:0:
92,233,288682,1,2,0:0:0:0:
99,226,289227,2,0,L|165:218,1,50,8|0,0:0|0:0,0:0:0:0:
220,168,289773,2,0,L|286:160,1,50,2|0,0:0|0:0,0:0:0:0:
370,201,290318,5,4,0:3:0:0:
399,206,290591,1,4,0:3:0:0:
428,211,290864,1,2,0:2:0:0:
134,308,291409,2,0,L|244:298,1,100,8|2,0:0|0:0,0:0:0:0:
36,29,292500,6,0,L|26:93,1,50,4|0,0:0|0:0,0:0:0:0:
125,54,293046,2,0,L|115:118,1,50,2|0,0:0|0:0,0:0:0:0:
214,75,293591,2,0,L|200:196,1,100,8|2,0:0|0:0,0:0:0:0:
194,260,294409,1,0,0:0:0:0:
265,311,294682,5,4,0:3:0:0:
270,340,294955,1,4,0:3:0:0:
274,369,295227,2,0,L|325:374,1,50,2|0,0:2|0:3,0:0:0:0:
502,332,295773,2,0,L|397:341,1,100,8|2,0:0|0:0,0:0:0:0:
17,137,296864,6,0,L|122:146,1,100,4|2,0:0|0:0,0:0:0:0:
185,196,297682,1,0,0:0:0:0:
266,180,297955,2,0,L|270:120,1,50,8|0,0:0|0:0,0:0:0:0:
351,215,298500,2,0,L|355:155,1,50,2|0,0:0|0:0,0:0:0:0:
403,57,299046,5,4,0:3:0:0:
432,53,299318,1,4,0:3:0:0:
461,51,299591,2,0,L|518:62,1,50,2|0,0:2|0:0,0:0:0:0:
444,142,300136,2,0,L|438:256,1,100,8|2,0:0|0:0,0:0:0:0:
74,303,301227,6,0,L|68:203,1,100,4|2,0:0|0:0,0:0:0:0:
31,128,302046,1,0,0:0:0:0:
91,72,302318,2,0,L|150:79,1,50,8|0,0:0|0:0,0:0:0:0:
214,127,302864,2,0,L|263:121,1,50,2|0,0:0|0:0,0:0:0:0:
367,77,303409,5,4,0:3:0:0:
361,106,303682,1,4,0:3:0:0:
356,135,303955,2,0,L|347:192,1,50,2|0,0:3|0:0,0:0:0:0:
333,315,304500,1,8,0:0:0:0:
267,266,304773,1,2,0:0:0:0:
189,293,305046,1,4,0:3:0:0:
122,242,305318,1,4,0:3:0:0:
269,37,305591,6,0,L|275:112,1,55.0000016784668,4|0,0:0|0:0,0:0:0:0:
235,168,306136,1,2,0:0:0:0:
228,176,306682,2,0,L|299:185,1,55.0000016784668,8|0,0:0|0:0,0:0:0:0:
415,216,307227,2,0,L|347:223,1,55.0000016784668,2|0,0:0|0:0,0:0:0:0:
240,264,307773,5,4,0:3:0:0:
234,293,308046,1,4,0:3:0:0:
228,322,308318,1,2,0:0:0:0:
71,96,308864,2,0,L|84:221,1,110.000003356934,8|2,0:0|0:0,0:0:0:0:
91,289,309682,1,0,0:0:0:0:
290,163,309955,6,0,L|219:154,1,55.0000016784668,4|0,0:0|0:0,0:0:0:0:
350,227,310500,2,0,L|421:218,1,55.0000016784668,2|0,0:0|0:0,0:0:0:0:
286,284,311046,2,0,L|159:269,1,110.000003356934,8|2,0:0|0:0,0:0:0:0:
92,261,311864,1,0,0:0:0:0:
150,126,312136,5,4,0:3:0:0:
155,155,312409,1,4,0:3:0:0:
160,184,312682,1,2,0:0:0:0:
303,26,313227,2,0,L|296:87,1,55.0000016784668,8|0,0:0|0:0,0:0:0:0:
452,185,313773,2,0,L|458:248,1,55.0000016784668,2|0,0:0|0:0,0:0:0:0:
261,370,314318,6,0,L|271:260,1,110.000003356934,4|2,0:0|0:0,0:0:0:0:
48,60,315409,2,0,L|58:169,1,110.000003356934,8|2,0:0|0:0,0:0:0:0:
417,80,316500,5,4,0:3:0:0:
387,75,316773,1,4,0:3:0:0:
356,70,317046,1,2,0:0:0:0:
144,219,317591,2,0,L|216:210,1,55.0000016784668,8|0,0:0|0:0,0:0:0:0:
284,201,318136,1,2,0:0:0:0:
30,325,318682,6,0,L|158:341,1,110.000003356934,4|2,0:0|0:0,0:0:0:0:
447,335,319773,1,8,0:0:0:0:
417,342,320046,1,4,0:3:0:0:
387,349,320318,1,8,0:3:0:0:
411,151,320864,1,0,0:0:0:0:
392,175,321137,1,4,0:3:0:0:
374,200,321409,1,8,0:3:0:0:
264,43,321955,1,4,0:3:0:0:
264,73,322228,1,4,0:3:0:0:
267,104,322500,2,0,L|273:169,1,55.0000016784668,4|0,0:3|0:0,0:0:0:0:
66,341,323046,6,0,P|59:288|109:217,1,129.999994049073,4|2,0:0|0:0,0:0:0:0:
181,247,323864,1,2,0:0:0:0:
386,154,324136,2,0,P|393:101|343:30,1,129.999994049073,8|2,0:0|0:0,0:0:0:0:
181,247,324955,1,0,0:3:0:0:
208,94,325227,6,0,L|124:88,1,64.9999970245363,4|0,0:0|0:0,0:0:0:0:
59,84,325773,1,2,0:0:0:0:
327,220,326318,2,0,L|175:233,1,129.999994049073,8|2,0:0|0:0,0:0:0:0:
114,238,327136,1,4,0:3:0:0:
411,243,327409,6,0,P|422:274|426:319,1,64.9999970245363,4|0,0:0|0:0,0:0:0:0:
396,384,327955,1,2,0:0:0:0:
322,343,328227,1,2,0:0:0:0:
191,38,328500,2,0,P|153:111|167:163,1,129.999994049073,8|2,0:0|0:0,0:0:0:0:
322,343,329318,1,4,0:3:0:0:
322,121,329591,6,0,L|399:114,1,64.9999970245363,4|0,0:0|0:0,0:0:0:0:
357,203,330136,2,0,L|434:196,1,64.9999970245363,2|0,0:0|0:0,0:0:0:0:
248,307,330682,2,0,P|161:259|124:270,1,129.999994049073,8|2,0:0|0:0,0:0:0:0:
68,310,331500,1,4,0:3:0:0:
7,82,331773,6,0,L|0:212,1,129.999994049073,4|2,0:0|0:0,0:0:0:0:
85,152,332591,1,2,0:0:0:0:
372,242,332864,2,0,L|365:113,1,129.999994049073,8|2,0:0|0:0,0:0:0:0:
85,152,333682,1,4,0:3:0:0:
233,280,333955,6,0,L|240:201,1,64.9999970245363,4|0,0:0|0:0,0:0:0:0:
248,132,334500,1,2,0:0:0:0:
46,307,335046,2,0,P|99:339|179:327,1,129.999994049073,8|2,0:0|0:0,0:0:0:0:
486,54,336136,6,0,P|458:63|412:64,1,64.9999970245363,4|0,0:0|0:0,0:0:0:0:
339,47,336682,1,2,0:0:0:0:
273,0,336955,1,2,0:0:0:0:
44,128,337227,2,0,P|107:124|163:155,1,129.999994049073,8|2,0:0|0:0,0:0:0:0:
273,0,338046,1,4,0:3:0:0:
152,261,338318,6,0,P|191:272|214:288,1,64.9999970245363,4|0,0:0|0:0,0:0:0:0:
269,348,338864,1,2,0:0:0:0:
349,330,339136,1,4,0:3:0:0:
276,159,339409,1,8,0:0:0:0:
269,348,339682,1,4,0:0:0:0:
456,208,339955,2,0,P|467:183|471:135,1,64.9999970245363,4|0,0:0|0:0,0:0:0:0:
108,39,340500,6,0,P|182:87|254:76,1,139.999995727539,4|2,0:0|0:0,0:0:0:0:
193,2,341318,1,2,0:0:0:0:
49,280,341591,2,0,P|123:232|195:243,1,139.999995727539,8|2,0:0|0:0,0:0:0:0:
415,344,342409,1,4,0:3:0:0:
440,87,342682,6,0,L|352:91,1,69.9999978637696,4|0,0:0|0:0,0:0:0:0:
284,94,343227,1,2,0:0:0:0:
258,174,343500,1,2,0:0:0:0:
402,355,343773,2,0,L|244:343,1,139.999995727539,8|2,0:0|0:0,0:0:0:0:
486,362,344591,1,4,0:3:0:0:
338,187,344864,6,0,P|299:198|263:223,1,69.9999978637696,4|0,0:0|0:0,0:0:0:0:
197,173,345409,2,0,P|175:212|170:264,1,69.9999978637696,2|0,0:0|0:0,0:0:0:0:
62,44,345955,2,0,L|79:190,1,139.999995727539,8|2,0:0|0:0,0:0:0:0:
104,372,346773,1,4,0:3:0:0:
317,259,347046,5,4,0:0:0:0:
236,247,347318,1,0,0:0:0:0:
179,304,347591,1,0,0:0:0:0:
500,105,348136,1,8,0:0:0:0:
435,54,348408,1,2,0:0:0:0:
332,89,348681,1,2,0:0:0:0:
216,43,348955,1,2,0:0:0:0:
177,303,349227,6,0,P|178:234|141:176,1,139.999995727539,4|2,0:0|0:0,0:0:0:0:
78,263,350046,1,2,0:0:0:0:
339,242,350318,2,0,L|417:235,1,69.9999978637696,8|0,0:0|0:0,0:0:0:0:
102,348,350864,2,0,L|8:333,1,69.9999978637696,2|0,0:0|0:0,0:0:0:0:
477,384,351409,5,4,0:0:0:0:
385,146,351682,1,4,0:3:0:0:
222,347,351955,2,0,P|202:322|197:281,1,69.9999978637696,4|0,0:3|0:0,0:0:0:0:
477,384,352500,2,0,L|333:365,1,139.999995727539,8|2,0:0|0:0,0:0:0:0:
83,330,353318,1,8,0:3:0:0:
304,189,353591,6,0,P|269:193|238:209,1,69.9999978637696,8|0,0:3|0:0,0:0:0:0:
198,284,354136,1,0,3:0:0:0:
208,69,354409,1,4,0:3:0:0:
166,154,354682,1,0,3:3:0:0:
115,74,354955,1,4,0:3:0:0:
341,0,355227,1,4,0:0:0:0:
42,172,355773,5,0,0:0:0:0:
195,158,356046,1,8,0:3:0:0:
115,133,356318,1,4,0:0:0:0:
229,231,356591,1,4,0:3:0:0:
21,252,356864,5,8,0:3:0:0:
208,311,357137,1,4,0:3:0:0:
55,325,357409,1,8,0:3:0:0:
135,350,357682,1,4,0:3:0:0:
180,73,357955,5,4,0:0:0:0:
256,192,358091,12,0,362318,0:0:0:0:
