osu file format v14

[General]
AudioFilename: manala.mp3
AudioLeadIn: 0
PreviewTime: 283701
Countdown: 0
SampleSet: Soft
StackLeniency: 0.7
Mode: 0
LetterboxInBreaks: 0
WidescreenStoryboard: 1

[Editor]
Bookmarks: 161370,161734,161916,195331,201245,201416,206902,207074,215559,215645,215731,215816,216159,216331,216502,216674,216845,217016,217188,217359,218388,218645,218731,218816,219074,219416,219759,219931,226445,226702,235102,235188,235274,235445,240845,241016,241359,241531,241874,242045,242302,242474,242559,242645,245131,245645,246159,246674,247188,362455
DistanceSpacing: 1
BeatDivisor: 4
GridSize: 32
TimelineZoom: 1.6

[Metadata]
Title:At the Gates of Manala
TitleUnicode:At the Gates of Manala
Artist:Apocalyptica
ArtistUnicode:Apocalyptica
Creator:pishifat
Version:Extra
Source:
Tags:7th seventh symphony cello thrash metal
BeatmapID:1059323
BeatmapSetID:469908

[Difficulty]
HPDrainRate:5
CircleSize:5
OverallDifficulty:8.6
ApproachRate:8.6
SliderMultiplier:1.85
SliderTickRate:1

[Events]
//Background and Video events
0,0,"x.jpg",0,0
//Break Periods
2,106392,123530
2,162570,169148
2,174977,177189
2,275246,285296
//Storyboard Layer 0 (Background)
//Storyboard Layer 1 (Fail)
//Storyboard Layer 2 (Pass)
//Storyboard Layer 3 (Foreground)
//Storyboard Sound Samples

[TimingPoints]
6926,363.636363636364,5,3,5,75,1,0
8744,363.636363636364,4,3,5,75,1,0
11653,-90.9090909090909,4,3,5,75,0,0
13107,363.636363636364,5,3,5,75,1,0
14925,363.636363636364,4,3,5,75,1,0
17834,-90.9090909090909,4,3,5,75,0,0
19288,363.636363636364,5,3,5,75,1,0
19288,-111.111111111111,5,3,5,75,0,0
21106,363.636363636364,4,3,5,75,1,0
21106,-111.111111111111,4,3,5,75,0,0
23651,-100,4,3,5,75,0,0
24015,-90.9090909090909,4,3,5,75,0,0
25469,363.636363636364,5,3,5,75,1,0
27287,363.636363636364,4,3,5,75,1,0
30196,-90.9090909090909,4,3,5,75,0,0
31650,363.636363636364,3,2,1,70,1,0
31650,-125,3,2,1,70,0,0
35922,-125,3,2,1,21,0,0
36013,-125,3,2,1,70,0,0
40013,363.636363636364,3,2,1,45,1,0
40194,-114.942528735632,3,2,1,70,0,0
43285,363.636363636364,4,2,1,70,1,0
43285,-114.942528735632,4,2,1,70,0,0
44557,-114.942528735632,4,2,1,70,0,0
44740,363.636363636364,3,2,1,45,1,0
44921,-114.942528735632,3,2,1,70,0,0
50194,363.636363636364,4,2,1,65,1,0
50194,-133.333333333333,4,2,1,65,0,0
67648,-133.333333333333,4,2,1,65,0,0
70557,-125,4,2,1,72,0,0
71284,-125,4,2,1,72,0,0
71648,-125,4,2,1,72,0,0
72012,-125,4,2,1,80,0,0
72739,-111.111111111111,4,2,1,80,0,0
73466,-111.111111111111,4,3,5,75,0,0
73830,-111.111111111111,4,3,5,75,0,0
74921,-125,4,3,5,75,0,0
76375,-125,4,3,5,75,0,0
77466,-114.942528735632,4,3,5,75,0,0
78557,-108.695652173913,4,3,5,75,0,0
78739,-108.695652173913,4,3,5,65,0,0
79284,-108.695652173913,4,3,5,75,0,0
80739,-125,4,3,5,75,0,0
83284,-114.942528735632,4,3,5,75,0,0
84012,-114.942528735632,4,3,5,65,0,0
84375,-114.942528735632,4,3,5,65,0,0
84739,-114.942528735632,4,3,5,75,0,0
84921,-114.942528735632,4,3,5,80,0,0
85012,-114.942528735632,4,3,5,85,0,0
85103,-108.695652173913,4,3,5,90,0,0
85194,-108.695652173913,4,3,5,75,0,0
86557,-125,4,3,5,75,0,0
88012,-125,4,3,5,75,0,0
89103,-114.942528735632,4,3,5,75,0,0
90921,-108.695652173913,4,3,5,75,0,0
92375,-125,4,3,5,75,0,0
93830,363.636363636364,5,3,5,75,1,0
95648,363.636363636364,4,3,5,75,1,0
98557,-90.9090909090909,4,3,5,75,0,0
100011,363.636363636364,5,3,5,75,1,0
101829,363.636363636364,4,3,5,75,1,0
104738,-90.9090909090909,4,3,5,75,0,0
106192,363.636363636364,3,3,5,75,1,0
114737,363.636363636364,3,2,1,70,1,0
118009,363.636363636364,4,2,1,70,1,0
119463,363.636363636364,3,2,1,70,1,0
122735,363.636363636364,4,2,1,70,1,0
124189,363.636363636364,4,2,1,70,1,0
124189,-125,4,2,1,70,0,0
128279,-125,4,2,1,21,0,0
128370,-125,4,2,1,70,0,0
133643,363.636363636364,4,2,1,70,1,0
133643,-125,4,2,1,70,0,0
137143,-125,4,2,1,5,0,0
137233,-125,4,2,1,70,0,0
138733,363.636363636364,4,2,1,70,1,0
138733,-125,4,2,1,70,0,0
140914,363.636363636364,3,2,1,70,1,0
140914,-125,3,2,1,70,0,0
141277,-133.333333333333,3,2,1,60,0,0
141459,-133.333333333333,3,2,1,65,0,0
141641,-133.333333333333,3,2,1,70,0,0
141823,-133.333333333333,3,2,1,76,0,0
142007,363.636363636364,4,3,5,75,1,0
142007,-108.695652173913,4,3,5,75,0,0
143461,-125,4,3,5,75,0,0
146007,-114.942528735632,4,3,5,75,0,0
147097,-108.695652173913,4,3,5,75,0,0
149279,-125,4,3,5,75,0,0
151825,-114.942528735632,4,3,5,75,0,0
152916,-108.695652173913,4,3,5,75,0,0
155097,-125,4,3,5,75,0,0
157643,-114.942528735632,4,3,5,75,0,0
158734,-108.695652173913,4,3,5,75,0,0
160916,-125,4,3,5,75,0,0
161279,-125,4,3,5,65,0,0
162370,514.285714286008,4,3,5,75,1,0
169636,514.284244902157,4,2,1,65,1,0
169636,-151.515151515152,4,2,1,65,0,0
170664,514.285714286008,4,2,1,65,1,0
174521,-151.515151515152,4,2,1,65,0,0
174606,-151.515151515152,4,2,1,45,0,0
174778,-151.515151515152,4,2,1,65,0,0
177848,514.285714315102,4,2,1,65,1,0
177848,-76.9230769230769,4,2,1,65,0,0
178019,-76.9230769230769,4,2,1,55,0,0
178190,-76.9230769230769,4,2,1,45,0,0
178362,-76.9230769230769,4,2,1,65,0,0
178533,-76.9230769230769,4,2,1,55,0,0
178705,-76.9230769230769,4,2,1,45,0,0
178874,514.285714285715,4,2,1,65,1,0
178874,-100,4,2,4,65,0,0
193359,-100,4,2,1,65,0,0
193874,-100,4,2,1,45,0,0
194302,-100,4,2,1,65,0,0
194388,-100,4,2,1,45,0,0
194816,-100,4,2,1,65,0,0
194902,-100,4,2,1,45,0,0
195331,-83.3333333333333,4,2,1,70,0,0
211788,-76.9230769230769,4,2,1,70,0,0
215559,-76.9230769230769,4,2,1,55,0,0
215902,-76.9230769230769,4,2,1,70,0,0
226359,-76.9230769230769,4,2,1,55,0,0
228245,-83.3333333333333,4,2,1,70,0,0
235102,-83.3333333333333,4,2,1,55,0,0
235445,-76.9230769230769,4,2,1,55,0,0
236474,-83.3333333333333,4,2,1,70,0,0
240588,-100,4,2,1,70,0,0
240674,-100,4,2,1,45,0,0
241102,-100,4,2,1,70,0,0
241188,-100,4,2,1,45,0,0
241616,-100,4,2,1,70,0,0
241702,-100,4,2,1,45,0,0
242131,-100,4,2,1,70,0,0
242216,-100,4,2,1,45,0,0
242645,-100,4,2,1,70,0,0
242731,-100,4,2,1,55,0,0
242816,-100,4,2,1,45,0,0
242902,-100,4,2,1,35,0,0
242988,-100,4,2,1,55,0,0
243159,-100,4,2,1,70,0,0
243245,-100,4,2,1,55,0,0
243674,-100,4,2,1,70,0,0
243759,-100,4,2,1,55,0,0
244188,-100,4,2,1,70,0,0
244274,-100,4,2,1,55,0,0
244702,-83.3333333333333,4,2,1,70,0,0
252931,-76.9230769230769,4,2,1,70,0,0
257559,555.555555555556,4,2,1,70,1,0
258114,535.714285714286,4,2,1,70,1,0
258649,545.454545454546,4,2,1,70,1,0
259194,652.173913043478,4,2,1,70,1,0
259194,-111.111111111111,4,2,1,70,0,0
259846,750,4,2,1,70,1,0
259846,-125,4,2,1,70,0,0
260096,-125,4,2,1,50,0,0
260346,-125,4,2,1,70,0,0
260596,810.810810810811,5,2,1,70,1,0
260596,-142.857142857143,5,2,1,70,0,0
261406,882.352941176471,5,2,1,70,1,0
261406,-166.666666666667,5,2,1,70,0,0
261700,-166.666666666667,5,2,1,50,0,0
261994,-166.666666666667,5,2,1,70,0,0
262435,-166.666666666667,5,2,1,50,0,0
275046,1090.90909090909,4,2,1,70,1,0
285955,-200,4,2,1,70,0,0
287046,-166.666666666667,4,2,1,70,0,0
288136,-133.333333333333,4,2,1,70,0,0
295773,-111.111111111111,4,2,1,70,0,0
296864,-133.333333333333,4,2,1,70,0,0
305591,-117.64705882353,4,2,1,70,0,0
323045,-100,4,2,1,70,0,0
340500,-83.3333333333333,4,2,1,70,0,0
357955,-142.857142857143,4,2,1,70,0,0
358091,-142.857142857143,4,2,1,40,0,0

[Colours]
Combo1 : 151,153,176
Combo2 : 124,154,145
Combo3 : 138,173,176
Combo4 : 126,142,156

[HitObjects]
243,0,6926,6,0,P|192:-10|94:58,1,138.75,4|0,1:0|2:0,0:0:0:0:
115,25,7289,1,8,0:1:0:0:
208,173,7471,2,0,L|196:74,1,92.5,4|4,0:0|0:0,0:0:0:0:
0,121,7835,1,8,0:0:0:0:
38,204,8016,2,0,P|81:227|138:222,1,92.5,4|4,0:0|0:0,0:0:0:0:
289,113,8380,1,8,0:1:0:0:
289,113,8562,1,4,0:0:0:0:
231,368,8744,5,4,1:0:0:0:
351,175,8925,1,8,0:1:0:0:
436,213,9107,1,4,0:0:0:0:
202,262,9289,1,8,0:0:0:0:
176,177,9471,2,0,P|220:175|280:208,1,92.5,4|4,0:0|0:0,0:0:0:0:
440,376,9834,1,8,0:1:0:0:
440,376,10016,1,4,0:0:0:0:
500,148,10198,5,4,1:0:0:0:
320,256,10380,1,8,0:1:0:0:
405,290,10562,1,4,0:0:0:0:
354,89,10744,1,8,0:0:0:0:
263,107,10925,2,0,P|240:176|253:219,1,92.5,4|4,0:0|0:0,0:0:0:0:
335,350,11289,1,8,0:1:0:0:
335,350,11471,1,4,0:0:0:0:
99,271,11653,6,0,L|83:128,1,101.750003105164,4|4,1:0|0:3,0:0:0:0:
87,169,11925,1,4,0:3:0:0:
87,169,12016,1,4,0:3:0:0:
251,285,12198,2,0,L|240:178,1,101.750003105164,8|4,0:1|0:0,0:0:0:0:
232,82,12562,1,4,0:0:0:0:
396,290,12744,1,8,0:1:0:0:
385,187,12925,1,4,0:0:0:0:
172,335,13107,6,0,P|229:371|297:366,1,138.75,4|0,1:0|2:0,0:0:0:0:
297,366,13470,1,8,0:1:0:0:
95,292,13652,2,0,L|84:407,1,92.5,4|4,0:0|0:0,0:0:0:0:
358,300,14016,1,8,0:0:0:0:
315,218,14197,2,0,P|277:196|202:204,1,92.5,4|4,0:0|0:0,0:0:0:0:
390,384,14561,1,8,0:1:0:0:
390,384,14743,1,4,0:0:0:0:
425,137,14925,5,4,1:0:0:0:
449,315,15106,1,8,0:1:0:0:
358,300,15288,1,4,0:0:0:0:
510,103,15470,1,8,0:0:0:0:
499,194,15652,2,0,P|438:226|398:226,1,92.5,4|4,0:0|0:0,0:0:0:0:
213,158,16015,1,8,0:1:0:0:
213,158,16197,1,4,0:0:0:0:
358,300,16379,5,4,1:0:0:0:
129,204,16561,1,8,0:1:0:0:
151,294,16743,1,4,0:0:0:0:
348,209,16924,1,8,0:0:0:0:
274,264,17106,2,0,L|264:367,1,92.5,4|4,0:0|0:0,0:0:0:0:
425,162,17470,1,8,0:1:0:0:
425,162,17652,1,4,0:0:0:0:
69,133,17834,6,0,P|43:178|57:259,1,101.750003105164,4|4,1:0|0:3,0:0:0:0:
42,226,18106,1,4,0:3:0:0:
42,226,18197,1,4,0:3:0:0:
250,104,18379,2,0,P|208:85|137:94,1,101.750003105164,8|4,0:1|0:0,0:0:0:0:
69,133,18743,1,4,0:0:0:0:
296,281,18925,2,0,P|313:231|287:153,1,101.750003105164,8|4,0:1|0:0,0:0:0:0:
76,320,19288,6,0,L|217:305,1,124.874996189118,4|0,1:0|2:0,0:0:0:0:
200,306,19651,1,8,0:1:0:0:
317,377,19833,2,0,L|409:384,1,83.2499974594117,4|4,0:0|0:0,0:0:0:0:
329,228,20197,1,8,0:0:0:0:
287,299,20378,2,0,L|390:306,1,83.2499974594117,4|4,0:0|0:0,0:0:0:0:
459,153,20742,2,0,L|363:162,1,83.2499974594117,8|4,0:1|0:0,0:0:0:0:
150,255,21106,5,4,1:0:0:0:
226,156,21287,1,8,0:1:0:0:
236,238,21469,1,4,0:0:0:0:
88,148,21651,1,8,0:0:0:0:
123,72,21833,2,0,L|241:80,1,83.2499974594117,4|4,0:0|0:0,0:0:0:0:
71,231,22196,2,0,L|-39:240,1,83.2499974594117,8|4,0:1|0:0,0:0:0:0:
307,282,22560,5,4,1:0:0:0:
197,186,22742,1,8,0:1:0:0:
150,255,22924,1,4,0:0:0:0:
367,185,23106,1,8,0:0:0:0:
313,121,23287,2,0,P|287:164|295:228,1,83.2499974594117,4|4,0:0|0:0,0:0:0:0:
424,251,23651,2,0,P|447:216|450:164,1,92.5,8|0,0:1|0:0,0:0:0:0:
245,49,24015,6,0,L|142:60,1,101.750003105164,4|4,1:0|0:3,0:0:0:0:
143,59,24287,1,4,0:3:0:0:
143,59,24378,1,4,0:3:0:0:
284,196,24560,2,0,L|182:206,1,101.750003105164,8|4,0:1|0:0,0:0:0:0:
81,219,24924,1,4,0:0:0:0:
313,341,25106,1,8,0:1:0:0:
211,351,25287,1,4,0:0:0:0:
394,186,25469,6,0,P|435:226|439:315,1,138.75,4|0,1:0|2:2,0:0:0:0:
443,304,25832,1,8,0:1:0:0:
333,123,26014,2,0,P|346:86|391:53,1,92.5,4|4,0:0|0:0,0:0:0:0:
357,273,26378,1,8,0:0:0:0:
268,239,26559,2,0,P|243:199|238:140,1,92.5,4|4,0:0|0:0,0:0:0:0:
304,2,26923,1,8,0:1:0:0:
304,2,27105,1,4,0:0:0:0:
67,131,27287,5,4,1:0:0:0:
312,94,27468,1,8,0:1:0:0:
227,55,27650,1,4,0:0:0:0:
76,221,27832,1,8,0:0:0:0:
153,169,28014,2,0,L|145:72,1,92.5,4|4,0:0|0:0,0:0:0:0:
0,276,28377,1,8,0:1:0:0:
0,276,28559,1,4,0:0:0:0:
284,249,28741,5,4,1:0:0:0:
151,384,28923,1,8,0:1:0:0:
75,332,29105,1,4,0:0:0:0:
222,317,29287,1,8,0:0:0:0:
143,278,29468,2,0,L|134:180,1,92.5,4|4,0:0|0:0,0:0:0:0:
247,22,29832,1,8,0:1:0:0:
247,22,30014,1,4,0:0:0:0:
352,300,30196,6,0,P|402:298|445:272,1,101.750003105164,4|4,1:0|0:3,0:0:0:0:
445,272,30468,1,4,0:3:0:0:
445,272,30559,1,4,0:3:0:0:
304,134,30741,2,0,P|330:176|374:201,1,101.750003105164,8|4,0:1|0:0,0:0:0:0:
475,172,31105,1,4,0:0:0:0:
424,9,31287,2,0,P|400:53|401:103,1,101.750003105164,8|4,0:1|0:0,0:0:0:0:
451,278,31650,5,4,1:2:0:0:
451,278,31831,1,0,0:0:0:0:
379,258,32013,2,0,P|339:260|283:275,1,74,0|4,0:0|0:3,0:0:0:0:
150,349,32377,1,8,0:0:0:0:
77,336,32559,1,0,0:0:0:0:
36,274,32740,1,4,0:3:0:0:
180,169,32922,5,4,0:3:0:0:
109,192,33104,2,0,P|103:160|100:115,1,74,0|4,0:0|0:3,0:0:0:0:
299,70,33468,2,0,P|294:119|290:145,1,74,8|0,0:0|0:0,0:0:0:0:
262,212,33831,1,4,0:3:0:0:
455,223,34013,5,4,0:3:0:0:
400,172,34195,1,0,0:0:0:0:
390,98,34377,1,4,0:3:0:0:
289,291,34559,2,0,P|249:288|205:279,1,74,8|0,0:0|0:0,0:0:0:0:
158,235,34922,1,4,0:3:0:0:
290,143,35104,5,0,0:0:0:0:
341,359,35286,1,8,0:0:0:0:
380,228,35468,1,4,0:3:0:0:
230,384,35650,2,0,P|177:374|88:375,1,111,8|0,0:0|0:0,0:0:0:0:
119,372,36013,5,4,1:2:0:0:
72,321,36195,1,0,0:0:0:0:
84,247,36377,1,0,0:0:0:0:
271,266,36559,1,4,0:3:0:0:
201,289,36740,2,0,P|194:233|194:202,1,74,8|0,0:0|0:0,0:0:0:0:
305,46,37104,5,4,0:3:0:0:
363,91,37286,1,4,0:3:0:0:
436,81,37468,1,0,0:0:0:0:
299,166,37650,1,4,0:3:0:0:
340,226,37831,2,0,P|394:204|423:182,1,74,8|0,0:0|0:0,0:0:0:0:
220,88,38195,5,4,0:3:0:0:
154,122,38377,1,4,0:3:0:0:
125,190,38559,1,0,0:0:0:0:
246,343,38740,1,4,0:3:0:0:
259,270,38922,2,0,P|186:254|170:254,1,74,8|0,0:0|0:0,0:0:0:0:
60,292,39286,5,4,0:3:0:0:
187,254,39468,1,4,0:3:0:0:
98,163,39650,1,8,0:0:0:0:
187,254,39831,1,4,0:3:0:0:
117,236,40013,5,4,0:0:0:0:
320,325,40194,5,4,0:3:0:0:
320,325,40376,2,0,P|317:293|304:230,1,80.4750006753731,0|4,0:3|0:3,0:0:0:0:
154,43,40740,1,8,0:0:0:0:
224,82,40922,1,0,0:0:0:0:
302,66,41103,1,4,0:3:0:0:
115,142,41285,5,4,0:3:0:0:
180,258,41467,2,0,P|188:188|197:159,1,80.4750006753731,0|4,0:0|0:3,0:0:0:0:
382,78,41831,1,8,0:0:0:0:
374,158,42013,1,0,0:0:0:0:
416,225,42194,1,4,0:3:0:0:
183,94,42376,5,4,0:3:0:0:
183,94,42558,2,0,P|258:109|280:118,1,80.4750006753731,0|4,0:0|0:3,0:0:0:0:
470,286,42922,1,8,0:0:0:0:
416,345,43103,1,0,0:0:0:0:
336,335,43285,1,4,0:3:0:0:
475,154,43466,5,4,0:3:0:0:
386,269,43648,2,0,P|401:211|404:170,1,80.4750006753731,8|0,0:0|0:3,0:0:0:0:
343,62,44012,1,4,0:3:0:0:
260,173,44194,1,0,0:0:0:0:
343,62,44375,1,8,0:0:0:0:
403,190,44557,1,0,0:0:0:0:
336,138,44739,5,4,0:0:0:0:
351,305,44921,5,4,0:3:0:0:
351,305,45103,2,0,P|312:317|272:322,1,80.4750006753731,0|4,0:0|0:3,0:0:0:0:
53,221,45467,1,8,0:0:0:0:
36,142,45649,1,0,0:0:0:0:
95,88,45830,1,4,0:3:0:0:
175,236,46012,5,4,0:3:0:0:
35,314,46194,2,0,P|71:297|122:286,1,80.4750006753731,0|4,0:0|0:3,0:0:0:0:
312,348,46558,1,8,0:0:0:0:
391,359,46740,1,0,0:0:0:0:
448,303,46921,1,4,0:3:0:0:
283,250,47103,5,4,0:3:0:0:
283,250,47285,2,0,P|274:204|270:148,1,80.4750006753731,0|4,0:0|0:3,0:0:0:0:
490,9,47649,1,8,0:0:0:0:
454,81,47830,1,0,0:0:0:0:
486,154,48012,1,4,0:3:0:0:
328,52,48194,5,4,0:3:0:0:
353,203,48376,2,0,P|363:155|363:105,1,80.4750006753731,8|0,0:0|0:0,0:0:0:0:
116,142,48740,5,4,0:3:0:0:
163,261,48921,1,4,0:3:0:0:
244,163,49103,1,8,0:0:0:0:
196,44,49285,1,0,0:0:0:0:
116,142,49467,5,4,0:3:0:0:
244,163,49649,1,0,0:0:0:0:
65,83,49830,5,8,0:0:0:0:
281,237,50012,1,8,0:0:0:0:
16,337,50194,6,0,L|-2:218,1,104.06250396967,4|0,0:2|0:0,0:0:0:0:
0,234,50557,2,0,P|44:219|70:223,1,69.3750026464463,4|0,0:3|0:0,0:0:0:0:
160,277,50921,2,0,P|258:263|282:233,1,138.750005292893,8|0,0:0|0:0,0:0:0:0:
306,172,51466,1,0,0:0:0:0:
306,172,51557,1,0,0:0:0:0:
306,172,51648,5,4,0:3:0:0:
371,194,51830,1,4,0:3:0:0:
431,160,52012,2,0,L|436:72,1,69.3750026464463,0|0,0:0|0:0,0:0:0:0:
279,4,52375,1,8,0:0:0:0:
279,4,52557,2,0,P|315:14|348:46,1,69.3750026464463,0|0,0:0|0:0,0:0:0:0:
285,77,52921,1,0,0:0:0:0:
285,77,53012,1,0,0:0:0:0:
285,77,53103,5,4,0:3:0:0:
217,93,53284,1,4,0:3:0:0:
150,111,53466,2,0,L|143:206,1,69.3750026464463,0|0,0:0|0:0,0:0:0:0:
301,268,53830,2,0,L|296:194,2,69.3750026464463,8|0|0,0:0|0:0|0:0,0:0:0:0:
278,336,54375,1,0,0:0:0:0:
278,336,54466,1,0,0:0:0:0:
278,336,54557,5,4,0:3:0:0:
331,380,54739,1,4,0:3:0:0:
392,348,54921,2,0,P|405:300|397:265,1,69.3750026464463,0|0,0:0|0:0,0:0:0:0:
367,179,55284,1,8,0:0:0:0:
367,179,55466,2,0,L|442:186,1,69.3750026464463,4|0,0:3|0:0,0:0:0:0:
495,149,55830,1,0,0:0:0:0:
495,149,55921,1,0,0:0:0:0:
495,149,56012,5,4,0:3:0:0:
505,77,56194,1,0,0:0:0:0:
444,44,56375,2,0,P|382:62|367:80,1,69.3750026464463,0|0,0:0|0:0,0:0:0:0:
299,134,56739,2,0,L|153:121,1,138.750005292893,8|0,0:0|0:0,0:0:0:0:
91,113,57284,1,0,0:0:0:0:
91,113,57375,1,0,0:0:0:0:
91,113,57466,5,4,0:3:0:0:
46,166,57648,1,4,0:3:0:0:
78,227,57830,2,0,L|167:216,1,69.3750026464463,0|0,0:0|0:0,0:0:0:0:
253,210,58194,1,8,0:0:0:0:
253,210,58375,2,0,P|239:245|239:285,1,69.3750026464463,4|0,0:3|0:0,0:0:0:0:
280,349,58739,1,0,0:0:0:0:
280,349,58830,1,0,0:0:0:0:
280,349,58921,6,0,L|396:356,1,104.06250396967,4|0,0:3|0:0,0:0:0:0:
383,355,59284,2,0,P|405:293|403:264,1,69.3750026464463,0|0,0:0|0:0,0:0:0:0:
361,182,59648,1,8,0:0:0:0:
398,123,59830,1,0,0:0:0:0:
378,56,60012,2,0,P|325:38|294:45,1,69.3750026464463,0|0,0:0|0:0,0:0:0:0:
207,109,60375,5,4,0:3:0:0:
138,120,60557,1,4,0:3:0:0:
70,134,60739,2,0,L|-14:121,1,69.3750026464463,0|0,0:0|0:0,0:0:0:0:
144,223,61103,1,8,0:0:0:0:
144,223,61284,2,0,P|67:223|25:269,1,138.750005292893,4|0,0:3|0:0,0:0:0:0:
26,264,61739,1,0,0:0:0:0:
26,264,61830,5,4,0:3:0:0:
100,285,62012,1,0,0:0:0:0:
131,348,62194,2,0,P|162:358|203:355,1,69.3750026464463,0|0,0:0|0:0,0:0:0:0:
286,288,62557,2,0,L|272:142,1,138.750005292893,8|0,0:0|0:0,0:0:0:0:
294,83,63103,1,0,0:0:0:0:
294,83,63194,1,0,0:0:0:0:
294,83,63284,5,4,0:3:0:0:
356,113,63466,1,4,0:3:0:0:
396,56,63648,2,0,P|439:41|476:46,1,69.3750026464463,0|0,0:0|0:0,0:0:0:0:
512,185,64012,1,8,0:0:0:0:
512,185,64194,2,0,L|423:177,1,69.3750026464463,4|0,0:3|0:1,0:0:0:0:
377,203,64557,1,0,0:0:0:0:
377,203,64648,1,0,0:0:0:0:
377,203,64739,5,4,0:3:0:0:
428,250,64921,1,0,0:0:0:0:
414,318,65103,2,0,P|355:333|325:325,1,69.3750026464463,0|0,0:0|0:0,0:0:0:0:
231,239,65466,2,0,P|285:241|316:255,2,69.3750026464463,8|0|0,0:0|0:0|0:0,0:0:0:0:
167,267,66012,1,0,0:0:0:0:
167,267,66103,1,0,0:0:0:0:
167,267,66194,5,4,0:3:0:0:
185,333,66375,1,4,0:3:0:0:
133,379,66557,2,0,L|56:369,1,69.3750026464463,0|0,0:0|0:0,0:0:0:0:
28,230,66921,1,8,0:0:0:0:
101,302,67103,2,0,P|97:236|157:184,1,138.750005292893,4|0,0:3|0:0,0:0:0:0:
145,187,67557,1,0,0:0:0:0:
145,187,67648,5,4,0:3:0:0:
217,217,67830,1,0,0:0:0:0:
262,164,68012,2,0,L|269:89,1,69.3750026464463,0|0,0:0|0:0,0:0:0:0:
355,27,68375,2,0,L|363:102,1,69.3750026464463,8|0,0:0|0:0,0:0:0:0:
395,159,68739,1,0,0:0:0:0:
378,230,68921,1,0,0:0:0:0:
378,230,69012,1,0,0:0:0:0:
378,230,69103,5,4,0:3:0:0:
432,272,69284,1,4,0:3:0:0:
412,338,69466,2,0,P|352:355|321:346,1,69.3750026464463,0|0,0:0|0:0,0:0:0:0:
227,258,69830,1,8,0:0:0:0:
273,380,70012,2,0,P|244:341|154:344,1,138.750005292893,4|0,0:3|0:0,0:0:0:0:
159,339,70466,1,0,0:0:0:0:
159,339,70557,5,4,0:3:0:0:
94,368,70739,1,8,0:3:0:0:
41,316,70921,2,0,L|32:230,1,74,0|4,0:0|0:3,0:0:0:0:
80,116,71284,1,8,0:0:0:0:
33,242,71466,1,0,0:0:0:0:
80,116,71648,2,0,P|131:96|164:100,1,74,8|0,0:0|0:0,0:0:0:0:
273,172,72012,5,4,0:3:0:0:
145,250,72194,2,0,L|134:155,1,74,8|0,0:0|0:0,0:0:0:0:
218,50,72557,1,0,3:0:0:0:
218,50,72648,1,0,3:0:0:0:
218,50,72739,1,8,3:2:0:0:
349,98,72921,1,8,0:3:0:0:
349,98,73012,1,4,0:3:0:0:
349,98,73103,2,0,P|408:87|430:67,1,83.2499974594117,4|4,0:3|0:3,0:0:0:0:
237,145,73466,6,0,L|226:300,1,124.874996189118,4|0,1:0|2:0,0:0:0:0:
228,269,73830,2,0,P|288:289|328:278,1,83.2499974594117,0|0,0:3|0:3,0:0:0:0:
237,62,74194,1,8,0:1:0:0:
164,101,74375,1,0,0:0:0:0:
369,173,74557,1,8,0:1:0:0:
342,94,74739,1,8,0:3:0:0:
228,269,74921,5,6,0:0:0:0:
369,173,75103,1,8,0:1:0:0:
164,101,75284,2,0,L|78:108,1,74,8|0,0:1|0:0,0:0:0:0:
312,231,75648,5,8,0:1:0:0:
286,91,75830,1,4,0:0:0:0:
181,186,76012,1,8,0:1:0:0:
181,186,76375,5,4,1:0:0:0:
264,158,76557,1,4,0:3:0:0:
312,231,76739,1,0,0:0:0:0:
171,175,76921,5,4,0:3:0:0:
286,91,77103,1,8,0:1:0:0:
325,225,77284,1,0,0:0:0:0:
123,230,77466,5,8,0:1:0:0:
261,171,77648,1,4,0:0:0:0:
345,294,77830,1,4,0:3:0:0:
92,304,78012,5,8,0:1:0:0:
264,158,78194,1,4,0:0:0:0:
335,368,78375,1,0,0:0:0:0:
286,91,78557,5,8,0:1:0:0:
145,227,78739,1,8,0:0:0:0:
166,253,78829,1,8,0:0:0:0:
192,274,78920,1,4,0:0:0:0:
223,288,79011,1,4,0:0:0:0:
257,295,79102,1,4,0:0:0:0:
291,293,79193,1,4,0:0:0:0:
323,284,79284,6,0,L|337:141,1,127.649995714874,4|0,1:0|0:0,0:0:0:0:
335,156,79648,2,0,P|375:138|425:141,1,85.0999971432496,0|0,0:0|0:0,0:0:0:0:
212,213,80012,1,8,0:1:0:0:
198,128,80194,1,0,0:0:0:0:
120,291,80375,1,8,0:1:0:0:
86,212,80557,1,8,0:0:0:0:
326,338,80739,5,6,0:3:0:0:
120,291,80921,1,8,0:1:0:0:
326,338,81103,2,0,P|397:321|415:302,1,74,8|0,0:1|0:0,0:0:0:0:
368,136,81466,5,4,0:3:0:0:
341,262,81648,1,8,0:1:0:0:
465,232,81830,1,8,0:1:0:0:
465,232,82194,5,4,1:0:0:0:
353,248,82375,1,4,0:3:0:0:
396,142,82557,1,0,0:0:0:0:
477,234,82739,5,4,0:3:0:0:
317,325,82921,1,8,0:1:0:0:
326,171,83103,1,0,0:0:0:0:
457,357,83284,5,8,0:1:0:0:
247,279,83466,1,4,0:3:0:0:
389,217,83648,1,0,0:0:0:0:
227,357,83830,5,8,0:1:0:0:
166,196,84012,1,8,0:0:0:0:
166,196,84103,1,8,0:0:0:0:
166,196,84194,1,8,0:0:0:0:
330,131,84375,1,4,0:3:0:0:
330,131,84466,1,4,0:3:0:0:
330,131,84557,1,4,0:3:0:0:
330,131,84648,1,4,0:3:0:0:
330,131,84739,2,0,P|353:130|371:123,1,40.2375003376865,8|8,0:3|0:3,0:0:0:0:
189,23,84921,2,0,P|166:24|148:31,1,40.2375003376865,8|8,0:3|0:3,0:0:0:0:
218,269,85103,6,0,P|248:228|223:132,1,127.649995714874,4|0,1:0|2:0,0:0:0:0:
241,154,85466,2,0,L|150:144,1,85.0999971432496,4|4,0:3|0:3,0:0:0:0:
0,270,85830,1,8,0:1:0:0:
78,237,86012,1,0,0:0:0:0:
166,336,86194,1,8,0:1:0:0:
218,269,86375,1,8,0:0:0:0:
337,368,86557,5,6,0:0:0:0:
75,327,86739,1,8,0:1:0:0:
337,368,86921,2,0,L|248:378,1,74,8|8,0:1|0:0,0:0:0:0:
269,182,87284,5,6,0:0:0:0:
294,293,87466,1,4,0:0:0:0:
384,227,87648,1,8,0:1:0:0:
384,227,88012,5,4,1:0:0:0:
291,191,88194,1,4,0:0:0:0:
296,95,88375,1,0,0:0:0:0:
391,238,88557,5,4,0:0:0:0:
286,84,88739,1,8,0:1:0:0:
404,118,88921,1,0,0:0:0:0:
204,256,89103,5,8,0:1:0:0:
194,98,89284,1,4,0:0:0:0:
332,169,89466,1,4,0:0:0:0:
193,273,89648,5,8,0:1:0:0:
181,86,89830,1,0,0:0:0:0:
348,165,90012,1,4,0:0:0:0:
118,191,90194,5,8,0:1:0:0:
363,162,90375,1,0,0:0:0:0:
87,87,90557,1,8,0:0:0:0:
151,352,90739,1,4,0:0:0:0:
297,99,90921,6,0,P|247:60|184:63,1,127.649995714874,4|0,1:0|0:2,0:0:0:0:
184,63,91284,2,0,L|176:166,1,85.0999971432496,4|4,0:0|0:0,0:0:0:0:
342,280,91648,1,8,0:1:0:0:
303,204,91830,1,0,0:0:0:0:
154,322,92012,1,8,0:1:0:0:
166,237,92194,1,8,0:0:0:0:
376,358,92375,5,6,0:0:0:0:
262,309,92557,1,8,0:1:0:0:
416,237,92739,2,0,P|455:245|497:279,1,74,8|0,0:1|0:0,0:0:0:0:
303,204,93103,5,8,0:1:0:0:
364,109,93284,1,4,0:0:0:0:
473,135,93466,1,8,0:1:0:0:
473,135,93830,6,0,P|460:40|414:3,1,138.75,4|0,1:0|0:2,0:0:0:0:
432,12,94193,1,8,0:1:0:0:
282,126,94375,2,0,L|168:136,1,92.5,8|4,0:0|0:0,0:0:0:0:
60,6,94739,1,8,0:0:0:0:
7,79,94920,2,0,L|99:88,1,92.5,4|4,0:0|0:0,0:0:0:0:
357,70,95284,1,8,0:1:0:0:
357,70,95466,1,4,0:0:0:0:
250,219,95648,5,4,1:0:0:0:
281,14,95829,1,8,0:1:0:0:
194,48,96011,1,4,0:0:0:0:
341,193,96193,1,8,0:0:0:0:
273,129,96375,2,0,P|225:128|172:167,1,92.5,4|4,0:0|0:0,0:0:0:0:
101,303,96738,1,8,0:1:0:0:
101,303,96920,1,4,0:0:0:0:
250,219,97102,5,4,1:1:0:0:
29,243,97284,1,8,0:1:0:0:
101,303,97466,1,4,0:0:0:0:
237,133,97648,1,8,0:0:0:0:
163,77,97829,2,0,L|153:184,1,92.5,4|4,0:0|0:0,0:0:0:0:
235,350,98193,1,8,0:1:0:0:
235,350,98375,1,4,0:0:0:0:
361,189,98557,6,0,P|403:165|469:173,1,101.750003105164,4|4,1:0|0:3,0:0:0:0:
455,167,98829,1,4,0:3:0:0:
455,167,98920,1,4,0:3:0:0:
256,211,99102,2,0,P|214:186|184:124,1,101.750003105164,8|4,0:1|0:0,0:0:0:0:
289,118,99465,1,4,0:0:0:0:
324,290,99648,2,0,P|323:338|284:395,1,101.750003105164,8|4,0:1|0:0,0:0:0:0:
27,239,100011,6,0,L|36:95,1,138.75,4|0,1:0|0:2,0:0:0:0:
35,100,100374,1,8,0:1:0:0:
87,297,100556,2,0,P|138:316|190:301,1,92.5,8|4,0:0|0:0,0:0:0:0:
225,87,100920,1,8,0:0:0:0:
147,134,101101,2,0,L|138:248,1,92.5,4|4,0:0|0:0,0:0:0:0:
343,351,101465,1,8,0:1:0:0:
343,351,101647,1,4,0:0:0:0:
406,161,101829,5,4,1:0:0:0:
236,180,102010,1,8,0:1:0:0:
310,234,102192,1,4,0:0:0:0:
375,77,102374,1,8,0:0:0:0:
291,36,102556,2,0,P|224:71|207:117,1,92.5,4|4,0:0|0:0,0:0:0:0:
221,270,102919,1,8,0:1:0:0:
221,270,103101,1,4,0:0:0:0:
79,234,103283,5,4,1:1:0:0:
290,332,103465,1,8,0:1:0:0:
309,241,103647,1,4,0:0:0:0:
89,324,103829,1,8,0:0:0:0:
174,378,104010,2,0,P|188:330|174:273,1,92.5,4|4,0:0|0:0,0:0:0:0:
137,138,104374,1,8,0:1:0:0:
137,138,104556,1,4,0:0:0:0:
290,332,104738,6,0,L|434:318,1,101.750003105164,4|4,1:1|0:3,0:0:0:0:
391,322,105010,1,4,0:3:0:0:
391,322,105101,1,4,0:3:0:0:
233,191,105283,2,0,L|377:177,1,101.750003105164,8|0,0:1|0:0,0:0:0:0:
446,169,105647,1,4,0:0:0:0:
171,44,105829,1,8,0:1:0:0:
281,28,106010,1,4,0:0:0:0:
290,332,106192,5,4,0:2:0:0:
302,57,124189,5,4,0:0:0:0:
237,22,124370,1,0,0:0:0:0:
163,34,124552,1,0,0:0:0:0:
259,208,124734,1,0,0:0:0:0:
207,154,124916,2,0,P|154:143|121:142,1,74,8|0,0:0|0:0,0:0:0:0:
24,329,125279,5,0,0:0:0:0:
84,285,125461,1,0,0:0:0:0:
157,294,125643,1,6,0:3:0:0:
320,381,125825,2,0,P|331:315|331:286,1,74,0|0,0:0|0:0,0:0:0:0:
309,236,126189,1,0,0:0:0:0:
503,254,126370,5,8,0:0:0:0:
454,199,126552,1,0,0:0:0:0:
382,184,126734,1,0,0:0:0:0:
475,55,126916,1,0,0:0:0:0:
408,21,127098,2,0,P|357:35|330:51,1,74,6|4,0:3|0:3,0:0:0:0:
188,115,127461,5,0,0:0:0:0:
244,67,127643,1,0,0:0:0:0:
201,188,127825,1,8,0:0:0:0:
116,90,128007,2,0,P|46:76|3:73,1,111,0|0,3:0|0:0,0:0:0:0:
6,73,128370,1,0,0:0:0:0:
122,167,128552,1,6,0:3:0:0:
70,306,128734,5,0,0:0:0:0:
133,267,128916,1,0,0:0:0:0:
207,269,129098,1,0,0:0:0:0:
338,351,129279,2,0,P|405:335|431:325,1,74,8|0,0:0|0:0,0:0:0:0:
453,273,129643,1,0,0:0:0:0:
267,197,129825,5,0,0:0:0:0:
320,248,130007,1,6,0:3:0:0:
391,227,130189,1,0,0:0:0:0:
305,56,130370,2,0,P|248:71|211:88,1,74,0|0,0:0|0:0,0:0:0:0:
178,126,130734,1,8,0:0:0:0:
50,25,130916,1,0,0:0:0:0:
79,92,131098,1,0,0:0:0:0:
50,159,131279,1,0,0:0:0:0:
143,258,131461,5,6,0:3:0:0:
178,126,131643,1,0,0:0:0:0:
143,258,131825,1,0,0:0:0:0:
50,159,132007,1,0,0:0:0:0:
143,258,132189,2,0,P|237:244|270:243,1,111,8|0,0:0|0:0,0:0:0:0:
252,243,132552,1,0,0:0:0:0:
214,346,132734,1,0,0:0:0:0:
353,298,132916,6,0,P|366:235|368:202,1,74,8|0,0:0|0:0,0:0:0:0:
281,92,133279,2,0,P|285:128|294:164,1,74,4|0,0:3|0:0,0:0:0:0:
501,49,133643,5,4,0:2:0:0:
435,15,133824,1,0,0:0:0:0:
364,38,134006,1,0,0:0:0:0:
477,197,134188,1,0,0:0:0:0:
434,136,134370,2,0,P|379:120|354:120,1,74,8|0,0:0|0:0,0:0:0:0:
214,228,134733,5,0,0:0:0:0:
140,217,134915,1,0,0:0:0:0:
98,155,135097,1,6,0:3:0:0:
303,69,135279,1,0,0:0:0:0:
262,131,135461,2,0,P|214:139|176:141,1,74,0|0,0:0|0:0,0:0:0:0:
16,257,135824,5,8,0:0:0:0:
88,272,136006,1,0,0:0:0:0:
129,333,136188,1,0,0:0:0:0:
221,236,136370,5,0,0:0:0:0:
206,369,136552,1,6,0:3:0:0:
294,243,136733,1,4,0:3:0:0:
283,380,136915,2,0,P|355:361|407:355,1,111,0|0,3:0|0:0,0:0:0:0:
391,356,137279,6,0,P|428:362|472:363,1,74,8|0,0:0|0:0,0:0:0:0:
388,214,137643,1,0,0:0:0:0:
362,283,137824,1,0,0:0:0:0:
488,153,138006,2,0,P|451:147|406:145,1,74,8|0,0:0|0:0,0:0:0:0:
215,199,138370,5,4,0:3:0:0:
262,142,138552,1,0,0:0:0:0:
332,165,138733,1,6,0:3:0:0:
267,291,138914,1,0,0:0:0:0:
193,300,139096,1,0,0:0:0:0:
162,368,139278,1,0,0:0:0:0:
115,92,139460,6,0,P|109:130|110:175,1,74,12|0,0:0|0:0,0:0:0:0:
145,236,139823,1,0,0:0:0:0:
261,49,140005,1,0,0:0:0:0:
237,123,140187,1,6,0:3:0:0:
301,165,140369,1,4,0:3:0:0:
425,133,140551,2,0,P|435:68|436:52,1,74,0|0,0:3|0:0,0:0:0:0:
234,199,140914,6,0,P|237:235|244:272,1,74,8|0,0:0|0:0,0:0:0:0:
512,246,141277,1,8,0:0:0:0:
361,171,141459,1,8,0:0:0:0:
460,299,141641,1,8,0:0:0:0:
425,133,141823,1,8,0:0:0:0:
308,322,142007,6,0,L|162:312,1,127.649995714874,4|0,1:0|2:2,0:0:0:0:
180,313,142370,2,0,P|160:257|170:219,1,85.0999971432496,4|0,0:0|0:0,0:0:0:0:
295,101,142734,1,8,0:1:0:0:
235,161,142916,1,0,0:0:0:0:
398,87,143097,1,8,0:1:0:0:
368,166,143279,1,4,0:0:0:0:
503,73,143461,5,6,0:0:0:0:
486,230,143643,1,8,0:1:0:0:
503,73,143825,2,0,L|495:-4,1,74,8|0,0:1|0:0,0:0:0:0:
368,166,144188,5,8,0:3:0:0:
481,148,144370,1,4,0:3:0:0:
408,56,144552,1,8,0:3:0:0:
408,56,144916,5,4,1:0:0:0:
324,101,145097,1,4,0:0:0:0:
230,77,145279,1,0,0:0:0:0:
417,49,145461,5,4,0:0:0:0:
339,175,145643,1,8,0:1:0:0:
218,72,145825,1,0,0:0:0:0:
414,138,146007,5,8,0:1:0:0:
264,166,146188,1,4,0:0:0:0:
312,12,146370,1,4,0:0:0:0:
475,184,146552,5,8,0:1:0:0:
210,221,146734,1,8,0:1:0:0:
324,101,146916,1,8,0:0:0:0:
349,312,147097,5,4,0:0:0:0:
320,89,147279,1,4,0:0:0:0:
216,329,147461,1,8,0:0:0:0:
482,294,147643,1,8,0:0:0:0:
236,128,147825,6,0,P|193:181|204:269,1,127.649995714874,4|0,1:0|2:1,0:0:0:0:
190,238,148188,2,0,L|283:227,1,85.0999971432496,4|4,0:0|0:0,0:0:0:0:
140,24,148552,1,8,0:1:0:0:
117,106,148734,1,0,0:0:0:0:
0,71,148916,1,8,0:1:0:0:
21,160,149097,1,0,0:0:0:0:
21,160,149188,1,0,1:0:0:0:
21,160,149279,6,0,P|67:193|74:206,2,49.3333333333333,0|0|0,1:0|1:0|1:0,0:0:0:0:
6,226,149643,1,8,1:0:0:0:
66,253,149764,1,0,0:0:0:0:
126,281,149885,1,0,0:0:0:0:
189,259,150007,6,0,P|201:215|200:182,1,49.3333333333333,0|0,1:0|1:0,0:0:0:0:
176,79,150249,1,0,1:0:0:0:
191,146,150370,1,8,1:0:0:0:
191,146,150734,5,4,1:0:0:0:
307,166,150916,1,4,0:0:0:0:
267,47,151097,1,0,0:0:0:0:
178,148,151279,5,4,0:0:0:0:
371,96,151461,1,8,0:1:0:0:
254,38,151643,1,0,0:0:0:0:
240,221,151825,5,8,0:1:0:0:
334,30,152007,1,0,0:0:0:0:
177,70,152188,1,4,0:0:0:0:
389,183,152370,5,8,0:1:0:0:
331,18,152552,1,8,0:1:0:0:
230,228,152734,1,0,0:0:0:0:
409,79,152916,5,8,0:0:0:0:
151,164,153097,1,8,0:0:0:0:
326,251,153279,1,4,0:0:0:0:
239,0,153461,1,4,0:0:0:0:
256,300,153643,6,0,P|327:333|394:314,1,127.649995714874,4|0,1:0|2:1,0:0:0:0:
373,325,154007,2,0,P|403:282|406:231,1,85.0999971432496,4|4,0:0|0:0,0:0:0:0:
291,92,154370,1,8,0:1:0:0:
257,170,154552,1,0,0:0:0:0:
203,103,154734,2,0,L|105:96,1,85.0999971432496,2|8,0:0|0:0,0:0:0:0:
64,289,155097,5,6,0:0:0:0:
174,182,155279,1,8,0:1:0:0:
26,142,155461,2,0,P|3:199|11:239,1,74,8|8,0:1|0:0,0:0:0:0:
178,354,155825,5,4,0:0:0:0:
264,286,156007,1,4,0:0:0:0:
368,328,156188,1,8,0:1:0:0:
368,328,156552,5,4,1:0:0:0:
251,281,156734,1,4,0:0:0:0:
344,203,156916,1,0,0:0:0:0:
376,340,157097,5,4,0:0:0:0:
269,207,157279,1,8,0:1:0:0:
414,218,157461,1,0,0:0:0:0:
297,358,157643,5,8,0:1:0:0:
257,200,157825,1,8,0:0:0:0:
429,221,158007,1,4,0:0:0:0:
190,282,158188,5,8,0:1:0:0:
353,143,158370,1,8,0:1:0:0:
466,310,158552,1,8,0:3:0:0:
219,182,158734,5,4,0:3:0:0:
470,209,158916,1,8,0:1:0:0:
326,365,159097,1,8,0:1:0:0:
362,64,159279,1,4,0:0:0:0:
466,310,159461,6,0,P|415:315|364:289,1,85.0999971432496,4|0,1:0|0:0,0:0:0:0:
219,182,159825,2,0,P|177:175|136:188,1,85.0999971432496,4|4,0:0|0:0,0:0:0:0:
39,357,160188,1,8,0:1:0:0:
67,276,160370,1,0,0:0:0:0:
232,376,160552,1,8,0:1:0:0:
221,291,160734,1,8,0:0:0:0:
396,337,160916,5,4,0:0:0:0:
329,195,161097,1,8,0:1:0:0:
451,227,161279,1,8,0:0:0:0:
451,227,161370,1,8,0:0:0:0:
451,227,161461,1,8,0:0:0:0:
503,117,161643,1,4,0:0:0:0:
503,117,161734,1,4,0:0:0:0:
503,117,161825,1,4,0:0:0:0:
503,117,161916,1,4,0:0:0:0:
503,117,162007,2,0,L|400:126,1,74,8|4,0:0|0:0,0:0:0:0:
134,145,162370,5,4,0:2:0:0:
285,195,169807,6,0,L|282:154,1,40.6999998757935,8|4,0:0|0:3,0:0:0:0:
292,275,170150,2,0,L|294:315,2,40.6999998757935,8|8|4,0:3|0:3|0:3,0:0:0:0:
277,77,170664,1,4,0:0:0:0:
231,122,174585,6,0,L|259:124,2,22.8937499301338,8|8|8,0:3|0:3|0:3,0:0:0:0:
364,371,177848,5,8,0:0:0:0:
364,371,177933,1,8,0:0:0:0:
364,371,178019,1,8,0:0:0:0:
441,359,178190,1,8,0:0:0:0:
423,221,178362,5,8,0:0:0:0:
343,231,178533,1,8,0:0:0:0:
391,294,178705,1,8,0:0:0:0:
440,104,178874,5,4,0:0:0:0:
437,96,178959,1,8,0:0:0:0:
433,89,179045,1,2,0:0:0:0:
428,82,179131,1,8,0:0:0:0:
422,77,179216,1,2,0:0:0:0:
416,73,179302,1,8,0:0:0:0:
408,70,179388,1,2,0:0:0:0:
400,68,179474,1,8,0:0:0:0:
392,68,179559,1,2,0:0:0:0:
384,69,179645,1,8,0:0:0:0:
377,71,179731,1,2,0:0:0:0:
370,75,179816,1,8,0:0:0:0:
363,80,179902,1,2,0:0:0:0:
358,86,179988,1,8,0:0:0:0:
354,92,180074,1,2,0:0:0:0:
351,100,180159,1,8,0:0:0:0:
349,108,180245,1,2,0:0:0:0:
349,116,180331,1,8,0:0:0:0:
350,124,180416,1,2,0:0:0:0:
352,131,180502,1,8,0:0:0:0:
356,138,180588,1,2,0:0:0:0:
361,145,180674,1,8,0:0:0:0:
367,150,180759,1,2,0:0:0:0:
373,154,180845,1,8,0:0:0:0:
377,159,180931,5,4,0:0:0:0:
383,163,181017,1,8,0:0:0:0:
389,168,181102,1,2,0:0:0:0:
394,175,181188,1,8,0:0:0:0:
398,182,181274,1,2,0:0:0:0:
400,189,181360,1,8,0:0:0:0:
401,197,181445,1,2,0:0:0:0:
401,205,181531,1,8,0:0:0:0:
399,213,181617,1,2,0:0:0:0:
396,221,181702,1,8,0:0:0:0:
392,227,181788,1,2,0:0:0:0:
387,233,181874,1,8,0:0:0:0:
380,238,181960,1,2,0:0:0:0:
373,242,182045,1,8,0:0:0:0:
366,244,182131,1,2,0:0:0:0:
358,245,182217,1,8,0:0:0:0:
350,245,182302,1,2,0:0:0:0:
342,243,182388,1,8,0:0:0:0:
334,240,182474,1,2,0:0:0:0:
328,236,182560,1,8,0:0:0:0:
322,231,182645,1,2,0:0:0:0:
317,224,182731,1,8,0:0:0:0:
313,217,182817,1,2,0:0:0:0:
310,209,182902,1,8,0:0:0:0:
309,200,182988,5,4,0:0:0:0:
306,192,183073,1,8,0:0:0:0:
302,185,183159,1,2,0:0:0:0:
297,178,183245,1,8,0:0:0:0:
291,173,183330,1,2,0:0:0:0:
285,169,183416,1,8,0:0:0:0:
277,166,183502,1,2,0:0:0:0:
269,164,183588,1,8,0:0:0:0:
261,164,183673,1,2,0:0:0:0:
253,165,183759,1,8,0:0:0:0:
246,167,183845,1,2,0:0:0:0:
239,171,183930,1,8,0:0:0:0:
232,176,184016,1,2,0:0:0:0:
227,182,184102,1,8,0:0:0:0:
223,188,184188,1,2,0:0:0:0:
220,196,184273,1,8,0:0:0:0:
218,204,184359,1,2,0:0:0:0:
218,212,184445,1,8,0:0:0:0:
219,220,184530,1,2,0:0:0:0:
221,227,184616,1,8,0:0:0:0:
225,234,184702,1,2,0:0:0:0:
230,241,184788,1,8,0:0:0:0:
236,246,184873,1,2,0:0:0:0:
242,250,184959,1,8,0:0:0:0:
249,254,185045,5,4,0:0:0:0:
256,258,185130,1,8,0:0:0:0:
262,264,185216,1,2,0:0:0:0:
267,270,185302,1,8,0:0:0:0:
272,277,185387,1,2,0:0:0:0:
275,285,185473,1,8,0:0:0:0:
277,293,185559,1,2,0:0:0:0:
277,302,185645,1,8,0:0:0:0:
276,310,185730,1,2,0:0:0:0:
274,318,185816,1,8,0:0:0:0:
271,326,185902,1,2,0:0:0:0:
267,333,185987,1,8,0:0:0:0:
262,339,186074,5,4,0:0:0:0:
259,331,186159,1,8,0:0:0:0:
255,322,186245,1,2,0:0:0:0:
249,315,186331,1,8,0:0:0:0:
242,309,186416,1,2,0:0:0:0:
234,304,186502,1,8,0:0:0:0:
226,303,186588,5,4,0:0:0:0:
218,300,186673,1,8,0:0:0:0:
209,296,186759,1,2,0:0:0:0:
202,290,186845,1,8,0:0:0:0:
196,283,186930,1,2,0:0:0:0:
191,275,187016,1,8,0:0:0:0:
189,266,187102,5,4,0:0:0:0:
194,270,187188,1,8,0:0:0:0:
201,274,187273,1,2,0:0:0:0:
209,276,187359,1,8,0:0:0:0:
217,277,187445,1,2,0:0:0:0:
224,277,187531,1,8,0:0:0:0:
232,275,187616,1,2,0:0:0:0:
240,272,187702,1,8,0:0:0:0:
247,268,187788,1,2,0:0:0:0:
253,263,187873,1,8,0:0:0:0:
257,257,187959,1,2,0:0:0:0:
261,249,188045,1,8,0:0:0:0:
264,240,188131,5,4,0:0:0:0:
268,232,188217,1,8,0:0:0:0:
272,226,188303,1,2,0:0:0:0:
278,221,188388,1,8,0:0:0:0:
285,217,188474,1,2,0:0:0:0:
293,214,188560,1,8,0:0:0:0:
301,212,188645,1,2,0:0:0:0:
308,212,188731,1,8,0:0:0:0:
316,213,188817,1,2,0:0:0:0:
324,215,188903,1,8,0:0:0:0:
331,219,188988,1,2,0:0:0:0:
337,224,189074,1,8,0:0:0:0:
343,230,189159,5,4,0:0:0:0:
349,235,189245,1,8,0:0:0:0:
356,239,189330,1,2,0:0:0:0:
364,241,189416,1,8,0:0:0:0:
372,242,189502,1,2,0:0:0:0:
379,242,189588,1,8,0:0:0:0:
387,240,189673,1,2,0:0:0:0:
395,237,189759,1,8,0:0:0:0:
402,233,189845,1,2,0:0:0:0:
408,228,189930,1,8,0:0:0:0:
412,222,190016,1,2,0:0:0:0:
416,215,190102,1,8,0:0:0:0:
420,208,190188,5,4,0:0:0:0:
412,205,190273,1,8,0:0:0:0:
403,201,190359,1,2,0:0:0:0:
396,194,190445,1,8,0:0:0:0:
390,188,190531,1,2,0:0:0:0:
385,180,190616,1,8,0:0:0:0:
384,172,190702,5,4,0:0:0:0:
381,164,190787,1,8,0:0:0:0:
377,155,190873,1,2,0:0:0:0:
371,148,190959,1,8,0:0:0:0:
364,142,191044,1,2,0:0:0:0:
356,137,191130,1,8,0:0:0:0:
347,134,191216,5,4,0:0:0:0:
350,142,191302,1,8,0:0:0:0:
352,151,191388,1,2,0:0:0:0:
352,162,191474,1,8,0:0:0:0:
351,173,191559,1,2,0:0:0:0:
347,185,191645,1,8,0:0:0:0:
339,197,191731,1,2,0:0:0:0:
329,208,191816,1,8,0:0:0:0:
315,216,191902,1,2,0:0:0:0:
299,222,191988,1,8,0:0:0:0:
281,223,192074,1,2,0:0:0:0:
262,219,192159,1,8,0:0:0:0:
244,211,192245,5,4,0:0:0:0:
224,206,192331,1,8,0:0:0:0:
202,204,192416,1,2,0:0:0:0:
180,207,192502,1,8,0:0:0:0:
158,215,192588,1,2,0:0:0:0:
137,227,192674,1,8,0:0:0:0:
122,246,192759,1,2,0:0:0:0:
110,269,192845,1,8,0:0:0:0:
107,295,192931,1,2,0:0:0:0:
113,321,193016,1,8,0:0:0:0:
128,345,193102,1,2,0:0:0:0:
153,359,193188,1,8,0:0:0:0:
183,362,193274,6,0,L|190:302,1,30.8333333333333,0|0,1:0|1:0,1:0:0:0:
286,202,193445,1,0,1:0:0:0:
273,182,193530,1,0,1:0:0:0:
256,166,193616,1,0,1:0:0:0:
236,156,193702,1,0,1:0:0:0:
214,153,193788,6,0,L|205:207,5,30.8333333333333,4|4|4|4|4|4,0:3|0:3|0:3|0:3|0:3|0:3,0:0:0:0:
124,161,194302,2,0,L|129:192,5,30.8333333333333,8|4|4|4|4|4,0:0|0:3|0:3|0:3|0:3|0:3,0:0:0:0:
39,190,194816,2,0,L|58:222,5,30.8333333333333,8|4|4|4|4|4,0:0|0:3|0:3|0:3|0:3|0:3,0:0:0:0:
90,317,195331,6,0,P|161:337|213:271,1,147.999995483399,4|0,0:0|0:0,0:0:0:0:
254,127,195845,1,8,0:0:0:0:
235,198,196016,2,0,L|324:207,1,73.9999977416993,0|4,0:0|0:3,0:0:0:0:
308,205,196274,1,4,0:3:0:0:
308,205,196359,1,4,0:3:0:0:
373,254,196531,2,0,L|467:243,1,73.9999977416993,4|0,0:3|0:0,0:0:0:0:
431,46,196874,1,8,0:0:0:0:
378,97,197045,1,0,0:0:0:0:
447,119,197216,1,4,0:3:0:0:
353,23,197388,5,4,0:3:0:0:
293,111,197559,1,0,0:0:0:0:
189,84,197731,1,0,0:0:0:0:
318,183,197902,5,8,0:0:0:0:
199,263,198074,1,4,0:3:0:0:
128,135,198245,1,4,0:3:0:0:
182,338,198416,6,0,P|147:353|81:340,1,73.9999977416993,4|0,0:3|0:0,0:0:0:0:
45,318,198759,1,0,0:0:0:0:
128,135,198931,2,0,L|137:242,1,73.9999977416993,8|0,0:0|0:0,0:0:0:0:
213,171,199274,1,4,0:3:0:0:
213,171,199359,1,4,0:3:0:0:
213,171,199445,5,4,0:3:0:0:
55,183,199616,2,0,P|18:173|-16:144,1,73.9999977416993,0|4,0:0|0:3,0:0:0:0:
244,96,199959,2,0,P|281:126|276:239,1,147.999995483399,8|4,0:0|0:3,0:0:0:0:
391,376,200474,6,0,L|384:302,1,73.9999977416993,4|0,0:3|0:0,0:0:0:0:
442,255,200816,1,4,0:3:0:0:
442,255,200902,1,4,0:3:0:0:
442,255,200988,1,8,0:0:0:0:
501,213,201159,1,4,0:3:0:0:
501,213,201245,1,4,0:3:0:0:
501,213,201331,1,4,0:3:0:0:
501,213,201416,1,4,0:3:0:0:
501,213,201502,6,0,P|517:175|508:112,1,73.9999977416993,4|0,0:3|0:0,0:0:0:0:
488,74,201845,1,0,0:0:0:0:
293,189,202016,5,8,0:0:0:0:
360,219,202188,1,4,0:3:0:0:
346,68,202359,1,8,0:0:0:0:
397,121,202531,1,4,0:3:0:0:
456,8,202702,1,8,0:0:0:0:
488,74,202874,1,4,0:3:0:0:
360,219,203045,5,8,0:3:0:0:
397,121,203216,1,8,0:3:0:0:
488,74,203388,1,4,0:3:0:0:
300,275,203559,6,0,L|131:259,1,147.999995483399,4|0,0:0|0:0,0:0:0:0:
0,138,204074,1,8,0:0:0:0:
57,190,204245,2,0,L|158:183,1,73.9999977416993,0|4,0:0|0:3,0:0:0:0:
137,190,204502,1,4,0:3:0:0:
137,190,204588,2,0,P|153:257|147:279,1,73.9999977416993,4|0,0:3|0:0,0:0:0:0:
117,325,204931,1,0,0:0:0:0:
145,108,205102,1,8,0:0:0:0:
207,148,205274,1,4,0:3:0:0:
231,217,205445,1,4,0:3:0:0:
348,135,205616,5,4,0:3:0:0:
364,62,205788,1,0,0:0:0:0:
292,81,205959,1,4,0:3:0:0:
461,241,206131,1,8,0:0:0:0:
413,184,206302,1,4,0:3:0:0:
347,219,206474,1,4,0:3:0:0:
347,219,206559,1,4,0:3:0:0:
347,219,206645,5,4,0:3:0:0:
405,295,206816,1,4,0:3:0:0:
405,295,206902,1,4,0:3:0:0:
405,295,206988,1,4,0:3:0:0:
405,295,207074,1,4,0:3:0:0:
405,295,207159,1,8,0:0:0:0:
347,342,207331,1,4,0:3:0:0:
275,324,207502,1,4,0:3:0:0:
275,324,207588,1,4,0:3:0:0:
275,324,207674,6,0,P|219:266|237:197,1,147.999995483399,4|4,0:3|0:3,0:0:0:0:
322,76,208188,1,8,0:0:0:0:
276,133,208359,2,0,L|186:126,1,73.9999977416993,0|4,0:0|0:3,0:0:0:0:
202,127,208616,1,4,0:3:0:0:
202,127,208702,2,0,L|104:120,1,73.9999977416993,4|0,0:3|0:0,0:0:0:0:
59,93,209045,1,4,0:3:0:0:
26,226,209216,1,8,0:0:0:0:
95,199,209388,1,0,0:0:0:0:
144,253,209559,1,4,0:3:0:0:
304,186,209731,5,8,0:0:0:0:
258,244,209902,1,4,0:3:0:0:
397,360,210074,2,0,P|394:327|416:269,1,73.9999977416993,8|4,0:0|0:3,0:0:0:0:
405,287,210331,1,4,0:3:0:0:
405,287,210416,1,4,0:3:0:0:
476,335,210588,1,0,0:0:0:0:
320,314,210759,2,0,L|236:306,1,73.9999977416993,8|4,0:0|0:3,0:0:0:0:
435,224,211102,1,8,0:0:0:0:
216,205,211274,1,4,0:3:0:0:
333,126,211445,1,8,0:0:0:0:
320,314,211616,1,8,0:0:0:0:
152,256,211788,6,0,P|138:179|212:125,1,160.333325993856,4|4,0:0|0:3,0:0:0:0:
389,52,212302,2,0,L|298:41,1,80.1666629969281,8|4,0:0|0:3,0:0:0:0:
229,34,212645,1,4,0:3:0:0:
477,95,212816,2,0,P|420:77|350:160,1,160.333325993856,4|4,0:3|0:3,0:0:0:0:
411,296,213331,1,8,0:0:0:0:
460,231,213502,1,4,0:3:0:0:
429,158,213674,1,4,0:3:0:0:
266,277,213845,5,4,0:3:0:0:
378,221,214016,1,0,0:0:0:0:
227,153,214188,1,4,0:3:0:0:
231,348,214359,5,8,0:0:0:0:
331,135,214531,1,4,0:3:0:0:
331,135,214616,1,4,0:3:0:0:
331,135,214702,1,4,0:3:0:0:
95,147,214874,6,0,P|19:123|3:102,1,80.1666629969281,4|4,0:3|0:3,0:0:0:0:
20,124,215131,1,4,0:3:0:0:
20,124,215216,1,4,0:3:0:0:
205,61,215388,1,8,0:0:0:0:
156,215,215559,1,8,0:3:0:0:
133,225,215644,1,8,0:3:0:0:
109,231,215730,1,4,0:3:0:0:
84,234,215816,1,4,0:3:0:0:
59,232,215901,5,4,0:3:0:0:
248,151,216074,1,12,0:3:0:0:
249,161,216159,1,4,0:3:0:0:
250,172,216245,2,0,L|255:231,1,40.083331498464,4|0,0:3|0:0,0:0:0:0:
330,333,216416,1,8,0:2:0:0:
331,321,216502,1,4,0:3:0:0:
332,309,216588,1,4,0:3:0:0:
333,297,216674,1,4,0:3:0:0:
334,286,216759,2,0,L|337:240,1,40.083331498464,4|0,0:3|0:0,0:0:0:0:
177,296,216931,5,4,0:3:0:0:
184,303,217016,1,4,0:3:0:0:
193,310,217102,1,4,0:3:0:0:
203,316,217188,1,4,0:3:0:0:
213,320,217274,2,0,L|261:315,1,40.083331498464,4|0,0:3|0:3,0:0:0:0:
412,243,217445,5,8,0:0:0:0:
422,244,217531,1,4,0:3:0:0:
432,245,217616,2,0,L|485:251,1,40.083331498464,4|0,0:3|0:0,0:0:0:0:
413,163,217788,2,0,L|463:169,1,40.083331498464,4|0,0:3|0:0,0:0:0:0:
359,80,217959,1,4,0:3:0:0:
369,81,218045,1,4,0:3:0:0:
379,82,218131,1,4,0:3:0:0:
389,83,218216,1,4,0:3:0:0:
399,84,218302,2,0,L|462:91,1,40.083331498464,4|0,0:3|0:3,0:0:0:0:
388,6,218474,5,8,3:2:0:0:
286,104,218645,1,0,1:2:0:0:
274,129,218731,1,8,3:2:0:0:
277,156,218816,1,8,3:2:0:0:
392,235,218988,6,0,P|356:215|331:213,1,40.083331498464,4|4,3:0|3:0,0:0:0:0:
382,257,219159,2,0,P|350:232|326:225,1,40.083331498464,8|4,3:0|0:3,0:0:0:0:
369,278,219331,2,0,P|342:247|319:237,1,40.083331498464,8|8,3:0|3:3,0:0:0:0:
352,297,219502,2,0,P|331:261|310:247,1,40.083331498464,4|4,3:0|0:3,0:0:0:0:
332,312,219674,2,0,P|317:273|299:256,1,40.083331498464,4|4,3:0|3:0,0:0:0:0:
310,323,219845,2,0,P|302:283|288:262,1,40.083331498464,4|4,3:0|3:0,0:0:0:0:
276,201,220016,6,0,P|237:161|120:197,1,160.333325993856,4|4,0:0|0:3,0:0:0:0:
53,328,220531,1,8,0:2:0:0:
45,248,220702,1,4,0:3:0:0:
35,168,220874,1,4,0:3:0:0:
232,47,221045,2,0,L|221:140,1,80.1666629969281,4|0,0:3|0:0,0:0:0:0:
222,126,221302,1,0,0:0:0:0:
222,126,221388,1,4,0:3:0:0:
379,0,221559,1,8,0:2:0:0:
358,77,221731,1,4,0:3:0:0:
435,58,221902,1,4,0:3:0:0:
337,171,222074,5,4,0:3:0:0:
501,126,222245,1,0,0:0:0:0:
441,217,222416,1,4,0:3:0:0:
396,69,222588,5,8,0:0:0:0:
488,130,222759,1,4,0:3:0:0:
349,168,222931,1,4,0:3:0:0:
465,312,223102,5,8,0:0:0:0:
335,269,223274,1,4,3:0:0:0:
335,269,223359,1,4,3:3:0:0:
335,269,223445,1,4,3:0:0:0:
235,363,223616,2,0,P|182:366|107:290,1,160.333325993856,8|4,0:0|0:3,0:0:0:0:
174,88,224131,5,4,0:0:0:0:
221,162,224302,1,4,0:3:0:0:
221,162,224388,1,4,0:3:0:0:
221,162,224474,1,4,0:3:0:0:
74,100,224645,1,8,0:0:0:0:
115,31,224816,2,0,P|168:7|212:13,1,80.1666629969281,4|4,0:3|0:3,0:0:0:0:
317,138,225159,2,0,P|390:151|450:77,1,160.333325993856,4|4,0:3|0:3,0:0:0:0:
257,192,225674,1,8,0:0:0:0:
269,270,225845,1,4,0:3:0:0:
331,219,226016,1,4,0:3:0:0:
234,61,226188,5,8,0:0:0:0:
130,144,226359,1,8,0:0:0:0:
102,147,226445,1,8,0:0:0:0:
74,150,226531,1,8,0:0:0:0:
234,61,226702,1,8,0:0:0:0:
262,60,226787,1,8,0:0:0:0:
289,66,226873,1,8,0:0:0:0:
314,78,226959,1,8,0:0:0:0:
337,95,227044,1,8,0:0:0:0:
355,116,227130,1,8,0:0:0:0:
368,141,227216,1,8,0:0:0:0:
375,168,227302,1,8,0:0:0:0:
377,196,227387,1,8,0:0:0:0:
372,224,227473,1,8,0:0:0:0:
362,250,227559,1,8,0:0:0:0:
346,273,227644,1,8,0:0:0:0:
325,292,227730,1,8,0:0:0:0:
301,306,227816,1,8,0:0:0:0:
275,315,227902,1,8,0:0:0:0:
247,318,227987,1,8,0:0:0:0:
219,315,228073,1,8,0:0:0:0:
193,306,228159,1,8,0:0:0:0:
169,291,228245,6,0,L|152:127,1,147.999995483399,4|4,0:0|0:3,0:0:0:0:
330,8,228759,1,8,0:0:0:0:
259,31,228931,2,0,P|242:84|254:126,1,73.9999977416993,4|4,0:3|0:3,0:0:0:0:
244,101,229188,1,4,0:3:0:0:
244,101,229274,2,0,P|328:91|369:161,1,147.999995483399,4|4,0:3|0:3,0:0:0:0:
212,234,229788,1,8,0:0:0:0:
196,161,229959,1,4,0:3:0:0:
228,315,230131,1,8,0:0:0:0:
228,315,230216,1,0,0:0:0:0:
228,315,230302,6,0,L|290:321,1,36.9999988708496,4|0,0:3|0:0,0:0:0:0:
293,246,230474,2,0,L|349:272,1,36.9999988708496,4|0,0:3|0:0,0:0:0:0:
383,206,230645,2,0,L|426:250,1,36.9999988708496,4|0,0:3|0:0,0:0:0:0:
487,302,230816,5,8,0:0:0:0:
505,204,230988,1,4,0:3:0:0:
505,192,231074,1,4,0:3:0:0:
505,181,231159,1,4,0:3:0:0:
506,169,231245,1,4,0:3:0:0:
506,157,231331,2,0,P|491:108|455:78,1,73.9999977416993,4|0,0:3|0:0,0:0:0:0:
407,65,231674,1,4,0:3:0:0:
284,139,231845,1,8,0:0:0:0:
228,90,232016,1,4,0:3:0:0:
366,135,232188,1,8,0:0:0:0:
366,135,232274,1,8,0:0:0:0:
366,135,232359,5,4,0:3:0:0:
333,201,232531,1,0,0:0:0:0:
343,274,232702,1,4,0:3:0:0:
209,163,232874,1,8,0:0:0:0:
148,205,233045,2,0,P|115:204|66:179,1,73.9999977416993,4|4,0:3|0:3,0:0:0:0:
258,336,233388,2,0,P|203:284|108:312,1,147.999995483399,4|4,0:3|0:3,0:0:0:0:
343,274,233902,1,8,0:0:0:0:
408,238,234074,2,0,L|416:153,1,73.9999977416993,4|4,0:3|0:3,0:0:0:0:
414,164,234331,1,4,0:3:0:0:
414,164,234416,6,0,P|398:94|312:69,1,147.999995483399,4|0,0:3|0:3,0:0:0:0:
162,92,234931,1,8,0:0:0:0:
273,155,235102,1,8,0:0:0:0:
303,150,235188,1,8,0:0:0:0:
333,145,235274,1,8,0:0:0:0:
107,25,235445,6,0,P|91:12|72:4,1,40.083331498464,8|8,0:0|0:0,0:0:0:0:
95,39,235616,2,0,P|77:29|58:24,1,40.083331498464,4|4,0:3|0:3,0:0:0:0:
86,53,235788,2,0,P|66:46|47:45,1,40.083331498464,4|4,0:3|0:3,0:0:0:0:
78,70,235959,2,0,P|58:67|38:70,1,40.083331498464,8|8,0:0|0:3,0:0:0:0:
75,89,236131,2,0,P|55:89|35:95,1,40.083331498464,4|4,0:3|0:3,0:0:0:0:
74,107,236302,2,0,P|54:111|36:119,1,40.083331498464,4|4,0:3|0:3,0:0:0:0:
77,191,236474,6,0,L|168:177,1,73.9999977416993,4|4,0:0|0:3,0:0:0:0:
150,179,236731,1,4,0:3:0:0:
150,179,236816,1,4,0:3:0:0:
32,265,236988,1,8,0:0:0:0:
42,267,237074,1,4,0:3:0:0:
52,269,237159,1,4,0:3:0:0:
62,271,237245,1,4,0:3:0:0:
72,273,237331,2,0,L|124:267,1,36.9999988708496,4|0,0:3|0:0,0:0:0:0:
233,162,237502,6,0,P|280:163|323:189,1,73.9999977416993,4|4,0:3|0:3,0:0:0:0:
304,173,237759,1,4,0:3:0:0:
304,173,237845,1,4,0:3:0:0:
351,74,238016,1,8,0:0:0:0:
359,81,238101,1,4,0:3:0:0:
368,88,238188,2,0,L|375:143,1,36.9999988708496,4|0,0:3|0:0,0:0:0:0:
390,242,238359,2,0,L|384:202,1,36.9999988708496,8|0,0:0|0:0,0:0:0:0:
490,130,238531,5,4,0:3:0:0:
489,140,238616,1,4,0:3:0:0:
488,151,238702,1,4,0:3:0:0:
487,162,238788,1,4,0:3:0:0:
486,173,238874,2,0,L|481:227,1,36.9999988708496,0|0,0:0|0:0,0:0:0:0:
470,351,239045,1,8,0:0:0:0:
461,343,239130,1,4,0:3:0:0:
452,337,239216,1,4,0:3:0:0:
442,332,239302,1,4,0:3:0:0:
432,327,239388,2,0,P|402:321|367:325,1,36.9999988708496,4|0,0:3|0:0,0:0:0:0:
257,365,239559,5,4,0:3:0:0:
246,367,239645,1,4,0:3:0:0:
235,369,239731,1,4,0:3:0:0:
224,371,239816,1,4,0:3:0:0:
213,373,239902,2,0,L|171:380,1,36.9999988708496,4|0,0:3|0:0,0:0:0:0:
150,202,240074,1,8,0:0:0:0:
161,201,240160,1,4,0:3:0:0:
172,199,240245,1,4,0:3:0:0:
183,197,240331,1,4,0:3:0:0:
194,195,240417,2,0,L|230:188,1,36.9999988708496,4|0,0:3|0:0,0:0:0:0:
70,293,240588,5,10,0:0:0:0:
47,267,240673,1,8,0:0:0:0:
32,237,240759,1,8,0:0:0:0:
26,204,240845,1,8,0:0:0:0:
29,170,240930,1,8,0:0:0:0:
41,138,241016,1,8,0:0:0:0:
70,165,241102,5,10,0:0:0:0:
96,142,241187,1,8,0:0:0:0:
126,127,241273,1,8,0:0:0:0:
159,121,241359,1,8,0:0:0:0:
193,124,241444,1,8,0:0:0:0:
225,136,241530,1,8,0:0:0:0:
198,167,241616,5,8,0:0:0:0:
221,193,241701,1,8,0:0:0:0:
236,223,241787,1,8,0:0:0:0:
242,256,241873,1,8,0:0:0:0:
239,290,241958,1,8,0:0:0:0:
227,322,242044,1,8,0:0:0:0:
197,293,242131,5,8,0:0:0:0:
171,316,242216,1,8,0:0:0:0:
141,331,242302,1,8,0:0:0:0:
108,337,242388,1,8,0:0:0:0:
74,334,242473,1,8,0:0:0:0:
42,322,242559,1,8,0:0:0:0:
70,293,242645,5,8,0:0:0:0:
88,308,242731,1,8,0:0:0:0:
111,318,242816,1,8,0:0:0:0:
135,323,242902,1,8,0:0:0:0:
160,320,242988,1,8,0:3:0:0:
183,311,243073,1,12,0:3:0:0:
195,338,243160,5,8,0:2:0:0:
212,319,243246,1,4,0:3:0:0:
222,297,243331,1,4,0:3:0:0:
227,273,243417,1,4,0:3:0:0:
224,249,243503,1,4,0:3:0:0:
214,225,243588,1,4,0:3:0:0:
241,211,243674,5,8,0:0:0:0:
222,195,243760,1,4,0:3:0:0:
199,184,243845,1,4,0:3:0:0:
175,180,243931,1,4,0:3:0:0:
151,183,244017,1,4,0:3:0:0:
128,193,244102,1,4,0:3:0:0:
114,166,244188,5,4,1:0:0:0:
99,185,244274,1,4,0:3:0:0:
89,208,244359,1,4,0:3:0:0:
84,232,244445,1,4,0:3:0:0:
87,256,244531,1,4,0:3:0:0:
96,280,244616,1,4,0:3:0:0:
120,255,244702,6,0,P|161:226|251:237,1,110.999996612549,4|8,0:0|0:3,0:0:0:0:
221,234,245045,1,4,0:3:0:0:
214,242,245131,1,4,0:3:0:0:
203,245,245216,2,0,P|238:209|314:207,1,110.999996612549,8|8,0:0|0:3,0:0:0:0:
301,210,245559,1,4,0:3:0:0:
294,219,245645,1,4,0:3:0:0:
282,220,245731,2,0,P|298:168|363:133,1,110.999996612549,4|8,0:1|0:3,0:0:0:0:
353,139,246074,1,4,0:3:0:0:
363,141,246159,1,4,0:3:0:0:
373,143,246245,2,0,L|418:132,1,36.9999988708496,8|0,0:0|0:0,0:0:0:0:
309,69,246416,2,0,L|358:66,1,36.9999988708496,0|0,0:0|0:0,0:0:0:0:
252,0,246588,2,0,L|301:7,1,36.9999988708496,0|0,0:0|0:0,0:0:0:0:
185,188,246759,6,0,P|235:183|297:124,1,110.999996612549,4|8,0:0|0:3,0:0:0:0:
276,139,247102,1,4,0:3:0:0:
265,138,247188,1,4,0:3:0:0:
257,144,247274,2,0,L|276:284,1,110.999996612549,8|8,0:0|0:3,0:0:0:0:
279,262,247616,1,4,0:3:0:0:
290,264,247702,1,4,0:3:0:0:
301,260,247788,2,0,P|222:223|187:233,1,110.999996612549,4|8,0:1|0:3,0:0:0:0:
193,231,248131,1,4,0:3:0:0:
184,237,248216,1,4,0:3:0:0:
176,244,248302,2,0,L|179:280,1,36.9999988708496,8|0,0:0|0:0,0:0:0:0:
115,175,248474,2,0,L|109:211,1,36.9999988708496,0|0,3:0|0:0,0:0:0:0:
73,77,248645,2,0,L|58:111,1,36.9999988708496,0|0,3:0|0:0,0:0:0:0:
62,305,248816,6,0,P|10:241|16:192,1,110.999996612549,4|8,0:0|0:3,0:0:0:0:
16,206,249159,1,4,0:3:0:0:
27,203,249245,1,4,0:3:0:0:
36,209,249331,2,0,P|23:317|8:328,1,110.999996612549,8|8,0:0|0:3,0:0:0:0:
18,315,249674,1,4,0:3:0:0:
8,311,249759,1,4,0:3:0:0:
2,302,249845,2,0,L|124:290,1,110.999996612549,4|8,0:1|0:3,0:0:0:0:
124,293,250188,1,4,0:3:0:0:
132,300,250274,1,4,0:3:0:0:
139,309,250359,2,0,L|152:358,1,36.9999988708496,8|0,0:0|0:0,0:0:0:0:
211,234,250531,2,0,L|204:297,1,36.9999988708496,0|0,3:0|0:0,0:0:0:0:
296,185,250702,2,0,L|283:234,1,36.9999988708496,0|0,3:0|0:0,0:0:0:0:
126,169,250874,6,0,L|113:51,1,110.999996612549,4|8,0:0|0:3,0:0:0:0:
118,48,251216,1,4,0:3:0:0:
127,42,251302,1,4,0:3:0:0:
137,46,251388,2,0,P|99:96|30:90,1,110.999996612549,8|8,0:0|0:3,0:0:0:0:
43,97,251731,1,4,0:3:0:0:
38,86,251816,1,4,0:3:0:0:
42,75,251902,2,0,P|97:104|100:108,1,36.9999988708496,4|0,0:0|0:0,0:0:0:0:
167,184,252074,2,0,P|159:167|148:152,3,36.9999988708496,0|0|0|0,0:0|0:0|0:0|0:0,0:0:0:0:
262,78,252416,2,0,P|264:140|262:144,1,36.9999988708496,8|0,0:0|0:0,0:0:0:0:
230,240,252588,2,0,P|240:225|247:207,3,36.9999988708496,0|0|0|0,0:0|0:0|0:0|0:0,0:0:0:0:
354,85,252931,6,0,L|480:97,1,120.249994495392,12|8,0:0|0:3,0:0:0:0:
486,93,253274,1,4,0:3:0:0:
489,83,253359,1,4,0:3:0:0:
484,74,253445,2,0,P|434:135|447:200,1,120.249994495392,8|8,0:0|0:3,0:0:0:0:
442,182,253788,1,4,0:3:0:0:
451,184,253874,1,4,0:3:0:0:
461,181,253959,2,0,P|413:153|339:156,1,120.249994495392,8|8,0:0|0:3,0:0:0:0:
342,160,254302,1,4,0:3:0:0:
335,168,254388,1,4,0:3:0:0:
329,177,254474,2,0,L|336:239,1,40.083331498464,8|0,0:0|0:0,0:0:0:0:
239,133,254645,2,0,L|249:202,1,40.083331498464,0|8,0:0|0:3,0:0:0:0:
143,103,254816,2,0,L|162:169,1,40.083331498464,4|4,0:3|0:3,0:0:0:0:
142,308,254988,6,0,P|89:341|20:328,1,120.249994495392,12|8,0:0|0:3,0:0:0:0:
26,327,255331,1,4,0:3:0:0:
24,316,255416,1,4,0:3:0:0:
30,307,255502,2,0,P|102:334|119:378,1,120.249994495392,8|8,0:0|0:3,0:0:0:0:
108,373,255845,1,4,0:3:0:0:
97,370,255931,1,4,0:3:0:0:
88,363,256016,2,0,L|98:236,1,120.249994495392,8|8,0:0|0:3,0:0:0:0:
101,233,256359,1,4,0:3:0:0:
108,225,256445,1,4,0:3:0:0:
117,220,256531,2,0,L|179:226,1,40.083331498464,8|0,0:0|0:0,0:0:0:0:
104,122,256702,2,0,L|157:146,1,40.083331498464,0|8,0:0|0:3,0:0:0:0:
121,26,256874,2,0,L|158:63,1,40.083331498464,4|4,0:3|0:3,0:0:0:0:
280,97,257045,6,0,P|346:109|399:221,1,180.374991743088,12|4,0:0|0:3,0:0:0:0:
391,359,257559,5,12,0:0:0:0:
391,359,257744,2,0,L|327:311,1,61.6666666666667,4|4,0:3|0:3,0:0:0:0:
316,185,258114,1,12,0:0:0:0:
316,185,258292,2,0,L|307:270,1,61.6666666666667,4|4,0:3|0:3,0:0:0:0:
201,337,258649,1,12,0:0:0:0:
201,337,258830,2,0,L|273:305,1,61.6666666666667,4|4,0:3|0:3,0:0:0:0:
442,247,259194,5,8,0:0:0:0:
442,247,259411,2,0,P|495:260|516:255,1,55.4999983062745,4|4,0:3|0:3,0:0:0:0:
375,143,259846,1,8,0:0:0:0:
375,143,260096,2,0,P|382:192|392:206,1,49.3333333333333,4|4,0:0|0:3,0:0:0:0:
399,30,260596,1,4,0:3:0:0:
399,30,260866,2,0,P|375:67|376:85,1,43.1666653493246,4|4,0:3|0:3,0:0:0:0:
512,0,261406,1,4,0:3:0:0:
512,0,261700,2,0,P|490:0|466:6,1,36.9999988708496,4|4,0:0|0:3,0:0:0:0:
256,192,262288,6,0,L|256:168,1,18.4999994354248,4|4,0:3|0:0,0:0:0:0:
256,192,262876,12,0,275046,0:0:0:0:
128,52,285955,5,4,0:3:0:0:
150,49,286227,1,4,0:3:0:0:
173,47,286500,2,0,L|209:43,1,23.125,4|4,0:3|0:3,0:0:0:0:
386,124,287046,5,4,0:3:0:0:
359,120,287318,1,4,0:3:0:0:
330,117,287591,2,0,L|288:112,1,27.7499991531372,4|4,0:3|0:3,0:0:0:0:
46,335,288136,6,0,P|77:333|116:308,1,69.3750026464463,4|2,0:0|0:0,0:0:0:0:
153,266,288955,1,0,0:0:0:0:
239,372,289227,1,8,0:0:0:0:
245,306,289500,2,0,L|251:262,2,34.6875013232232,0|2|0,0:0|0:0|0:0,0:0:0:0:
387,379,290318,1,4,0:3:0:0:
362,319,290591,2,0,L|335:255,1,69.3750026464463,4|0,0:3|0:0,0:0:0:0:
512,290,291409,2,0,P|487:285|447:257,1,69.3750026464463,8|2,0:0|0:0,0:0:0:0:
35,53,292500,6,0,L|29:104,1,34.6875013232232,4|0,0:0|0:0,0:0:0:0:
103,170,293046,2,0,L|109:219,1,34.6875013232232,2|0,0:0|0:0,0:0:0:0:
132,17,293591,1,8,0:0:0:0:
171,69,293864,1,0,0:0:0:0:
235,83,294136,2,0,P|259:77|291:54,1,34.6875013232232,2|0,0:0|0:0,0:0:0:0:
416,58,294682,1,4,0:3:0:0:
416,58,294955,2,0,L|427:128,1,69.3750026464463,4|0,0:3|0:0,0:0:0:0:
235,83,295773,2,0,P|293:85|333:113,1,83.2499974594117,8|2,0:0|0:0,0:0:0:0:
39,216,296864,6,0,P|25:239|24:286,1,69.3750026464463,4|2,0:0|0:0,0:0:0:0:
61,336,297682,1,0,0:0:0:0:
131,191,297955,1,8,0:0:0:0:
175,242,298227,2,0,P|206:259|225:262,2,34.6875013232232,0|2|0,0:0|0:0|0:0,0:0:0:0:
172,104,299046,1,4,0:3:0:0:
172,104,299319,1,4,0:3:0:0:
236,118,299591,1,2,0:0:0:0:
27,34,300137,2,0,P|66:36|107:60,1,69.3750026464463,8|2,0:0|0:0,0:0:0:0:
393,333,301228,6,0,L|402:260,1,69.3750026464463,4|2,0:0|0:0,0:0:0:0:
443,211,302046,1,0,0:0:0:0:
325,149,302318,1,8,0:0:0:0:
342,212,302591,1,0,0:0:0:0:
261,204,302864,1,2,0:0:0:0:
216,154,303136,1,0,0:0:0:0:
16,203,303410,1,4,0:3:0:0:
110,242,303682,1,4,0:3:0:0:
204,280,303955,1,2,0:3:0:0:
269,29,304501,1,8,0:0:0:0:
216,154,304773,1,8,0:3:0:0:
277,270,305046,1,4,0:3:0:0:
253,361,305318,1,4,0:3:0:0:
253,361,305591,6,0,P|292:340|342:341,1,78.6250014996529,4|2,0:0|0:0,0:0:0:0:
389,364,306409,1,0,0:0:0:0:
478,230,306682,2,0,L|472:291,1,39.3125007498264,8|0,0:0|0:0,0:0:0:0:
389,364,307227,2,0,L|392:324,1,39.3125007498264,2|0,0:0|0:0,0:0:0:0:
409,161,307773,1,4,0:3:0:0:
374,220,308046,2,0,L|325:232,1,39.3125007498264,4|2,0:3|0:0,0:0:0:0:
335,229,308591,1,0,0:0:0:0:
467,90,308864,2,0,P|435:91|382:58,1,78.6250014996529,8|2,0:0|0:0,0:0:0:0:
112,148,309955,6,0,L|178:132,1,39.3125007498264,4|0,0:0|0:0,0:0:0:0:
44,218,310500,2,0,L|109:232,1,39.3125007498264,2|0,0:0|0:0,0:0:0:0:
158,315,311046,1,8,0:0:0:0:
119,367,311318,1,0,0:0:0:0:
54,361,311591,2,0,P|22:323|18:301,1,39.3125007498264,2|0,0:0|0:0,0:0:0:0:
263,266,312136,1,4,0:3:0:0:
290,328,312409,2,0,P|275:370|264:382,1,39.3125007498264,4|2,0:3|0:0,0:0:0:0:
263,266,312955,1,0,0:0:0:0:
469,315,313227,1,8,0:0:0:0:
445,231,313500,1,2,0:0:0:0:
395,160,313773,1,2,0:0:0:0:
317,121,314046,1,2,0:0:0:0:
201,183,314318,6,0,L|105:170,1,78.6250014996529,4|2,0:0|0:0,0:0:0:0:
469,315,315409,2,0,L|391:325,1,78.6250014996529,8|2,0:0|0:0,0:0:0:0:
419,64,316500,1,0,0:0:0:0:
419,64,316773,2,0,P|387:74|368:93,1,39.3125007498264,4|2,0:3|0:0,0:0:0:0:
382,77,317318,1,0,0:0:0:0:
443,208,317591,2,0,L|433:117,1,78.6250014996529,8|2,0:0|0:0,0:0:0:0:
108,342,318682,6,0,P|138:355|198:351,1,78.6250014996529,4|2,0:0|0:0,0:0:0:0:
183,355,319500,1,0,0:0:0:0:
122,204,319773,1,8,0:0:0:0:
222,256,320045,1,4,0:3:0:0:
323,223,320318,1,8,0:3:0:0:
323,223,320864,1,2,0:0:0:0:
241,179,321136,1,4,0:3:0:0:
241,89,321409,1,8,0:3:0:0:
241,89,321955,1,4,0:3:0:0:
304,124,322227,1,4,0:3:0:0:
374,103,322500,1,4,0:3:0:0:
66,131,323045,6,0,P|55:154|57:192,1,46.25,4|0,0:0|0:0,0:0:0:0:
179,228,323591,2,0,P|190:251|188:289,1,46.25,2|0,0:0|0:0,0:0:0:0:
119,170,324136,2,0,L|101:304,1,92.5,8|0,0:0|0:0,0:0:0:0:
94,374,324955,1,4,0:3:0:0:
119,170,325227,1,4,0:0:0:0:
94,374,325773,2,0,P|135:352|144:337,1,46.25,2|0,0:0|0:0,0:0:0:0:
11,259,326318,2,0,P|44:295|103:305,1,92.5,8|2,0:0|0:0,0:0:0:0:
359,49,327409,6,0,P|400:15|459:18,1,92.5,4|2,0:0|0:0,0:0:0:0:
496,40,328227,1,0,0:0:0:0:
386,142,328500,2,0,P|431:183|437:206,2,46.25,8|0|2,0:0|0:0|0:0,0:0:0:0:
327,116,329319,1,4,0:3:0:0:
362,298,329591,1,4,0:0:0:0:
327,116,330136,2,0,L|339:177,1,46.25,2|0,0:0|0:0,0:0:0:0:
376,362,330682,1,8,0:0:0:0:
309,9,331227,1,2,0:0:0:0:
22,356,331773,6,0,P|53:350|91:316,1,46.25,4|0,0:0|0:0,0:0:0:0:
181,238,332318,2,0,P|212:244|250:278,1,46.25,2|0,0:0|0:0,0:0:0:0:
134,341,332864,2,0,L|112:219,1,92.5,8|2,0:0|0:0,0:0:0:0:
213,184,333682,1,4,0:3:0:0:
0,231,333955,1,4,0:0:0:0:
213,184,334500,2,0,P|164:161|146:163,1,46.25,2|0,0:0|0:0,0:0:0:0:
207,367,335045,2,0,P|259:361|313:321,1,92.5,8|2,0:0|0:0,0:0:0:0:
47,56,336136,6,0,P|79:81|164:87,1,92.5,4|2,0:0|0:0,0:0:0:0:
192,71,336955,1,0,0:0:0:0:
267,151,337227,1,8,0:0:0:0:
209,183,337500,1,0,0:0:0:0:
200,248,337773,1,2,0:0:0:0:
387,151,338045,1,4,0:3:0:0:
404,238,338318,2,0,L|425:343,1,92.5,4|2,0:0|0:0,0:0:0:0:
422,328,339136,1,4,0:3:0:0:
387,151,339409,1,8,0:0:0:0:
252,351,339682,1,4,0:0:0:0:
17,310,339955,1,4,0:0:0:0:
17,310,340500,5,4,0:0:0:0:
387,151,341045,1,2,0:0:0:0:
24,243,341591,1,8,0:0:0:0:
420,217,342136,1,2,0:0:0:0:
62,181,342682,1,12,0:0:0:0:
106,245,342955,1,2,0:0:0:0:
165,194,343227,1,2,0:0:0:0:
455,297,343773,2,0,L|328:280,1,110.999996612549,8|2,0:0|0:0,0:0:0:0:
344,282,344591,1,4,0:3:0:0:
186,9,344864,5,4,0:0:0:0:
249,349,345409,1,2,0:0:0:0:
259,26,345955,1,8,0:0:0:0:
181,373,346500,1,2,0:0:0:0:
322,65,347045,1,4,0:0:0:0:
346,157,347318,1,4,0:3:0:0:
431,124,347591,1,2,0:0:0:0:
267,281,348136,1,8,0:0:0:0:
220,201,348409,1,4,0:3:0:0:
138,228,348682,1,2,0:0:0:0:
43,51,349227,5,4,0:0:0:0:
442,317,349773,1,2,0:0:0:0:
23,118,350318,1,8,0:0:0:0:
431,248,350864,1,2,0:0:0:0:
96,208,351409,1,4,0:0:0:0:
178,274,351682,1,4,0:3:0:0:
142,369,351955,1,8,0:3:0:0:
350,119,352500,1,8,0:0:0:0:
297,170,352773,1,2,0:0:0:0:
225,164,353045,1,2,0:0:0:0:
350,119,353318,1,4,0:3:0:0:
417,224,353591,6,0,L|483:239,1,55.4999983062745,4|0,0:0|0:0,0:0:0:0:
297,170,354136,1,8,0:3:0:0:
237,276,354409,1,4,0:3:0:0:
417,224,354682,1,2,0:0:0:0:
237,276,354955,1,4,0:3:0:0:
69,384,355227,1,4,0:0:0:0:
417,224,355773,5,2,0:0:0:0:
237,276,356046,1,8,0:3:0:0:
94,150,356319,1,4,0:0:0:0:
198,175,356592,1,4,0:3:0:0:
237,276,356864,1,8,0:3:0:0:
94,150,357136,1,4,0:3:0:0:
274,110,357409,1,8,0:3:0:0:
417,224,357682,1,4,0:3:0:0:
256,192,357955,5,4,0:0:0:0:
256,192,358091,12,0,362318,0:0:0:0:
