osu file format v14

[General]
AudioFilename: 2010 better.mp3
AudioLeadIn: 0
PreviewTime: 71576
Countdown: 0
SampleSet: Soft
StackLeniency: 0.7
Mode: 0
LetterboxInBreaks: 0
WidescreenStoryboard: 0

[Editor]
Bookmarks: 82035,117701,120368,121951,123035
DistanceSpacing: 0.9
BeatDivisor: 4
GridSize: 4
TimelineZoom: 2.2

[Metadata]
Title:2010 (feat. Dave Lombardo)
TitleUnicode:2010 (feat. Dave Lombardo)
Artist:Apocalyptica
ArtistUnicode:Apocalyptica
Creator:pishifat
Version:Extra
Source:
Tags:ringating cello thrash alternative metal worlds collide seventh 7th symphony slayer
BeatmapID:724512
BeatmapSetID:324990

[Difficulty]
HPDrainRate:6.1
CircleSize:4.5
OverallDifficulty:8.6
ApproachRate:9.1
SliderMultiplier:1.7
SliderTickRate:1

[Events]
//Background and Video events
0,0,"amagipostapoc.jpg",0,0
//Break Periods
//Storyboard Layer 0 (Background)
//Storyboard Layer 1 (Fail)
//Storyboard Layer 2 (Pass)
//Storyboard Layer 3 (Foreground)
//Storyboard Sound Samples

[TimingPoints]
5365,309.278350515464,4,1,1,70,1,0
40004,-142.857142857143,4,1,1,50,0,0
40622,-142.857142857143,4,1,1,53,0,0
41241,-142.857142857143,4,1,1,55,0,0
41859,-142.857142857143,4,1,1,57,0,0
42478,-142.857142857143,4,1,1,60,0,0
42787,-142.857142857143,4,1,1,50,0,0
43096,-142.857142857143,4,1,1,55,0,0
43715,-142.857142857143,4,1,1,60,0,0
44334,-142.857142857143,4,1,1,65,0,0
44952,333.333333333333,4,1,1,70,1,0
60451,-100,4,1,1,50,0,0
60951,-100,4,1,1,70,0,0
66951,-100,4,1,1,50,0,0
67618,-100,4,1,1,70,0,0
68118,-100,4,1,1,60,0,0
68951,-128.205128205128,4,1,1,60,0,0
72951,-90.9090909090909,4,1,1,70,0,1
80618,-90.9090909090909,4,1,1,50,0,1
80951,-90.9090909090909,4,1,1,70,0,1
81618,-90.9090909090909,4,1,1,50,0,1
83535,-90.9090909090909,4,1,1,70,0,0
83618,-100,4,1,1,70,0,1
83951,-90.9090909090909,4,1,1,70,0,1
87618,-90.9090909090909,4,1,1,55,0,1
88951,-90.9090909090909,4,1,1,70,0,1
91618,-90.9090909090909,4,1,1,55,0,1
94285,-90.9090909090909,4,1,1,70,0,0
102285,-90.9090909090909,4,1,1,55,0,0
104951,-100,4,1,1,70,0,0
109785,-100,4,1,1,50,0,0
110285,-100,4,1,1,70,0,0
114451,-100,4,1,1,55,0,0
115618,-90.9090909090909,4,1,1,60,0,1
118285,-90.9090909090909,4,1,1,60,0,1
120701,-111.111111111111,4,1,1,60,0,1
120951,-90.9090909090909,4,1,1,60,0,1
126201,-90.9090909090909,4,1,1,70,0,0
126285,-100,4,1,1,70,0,1
136868,-90.9090909090909,4,1,1,70,0,0
136951,-90.9090909090909,4,1,1,70,0,1
140785,-90.9090909090909,4,1,1,55,0,1
142285,-90.9090909090909,4,1,1,70,0,1
147618,-133.333333333333,4,1,1,55,0,0
172618,-133.333333333333,4,1,1,45,0,0
172951,-133.333333333333,4,1,1,50,0,0
173285,-133.333333333333,4,1,1,55,0,0
176951,-166.666666666667,4,2,1,44,0,0
178174,-166.666666666667,4,2,1,22,0,0

[Colours]
Combo1 : 142,173,141
Combo2 : 141,163,184
Combo3 : 201,196,160

[HitObjects]
46,147,40004,5,2,0:0:0:0:
66,145,40313,1,2,0:0:0:0:
87,144,40622,1,2,0:0:0:0:
108,143,40932,1,2,0:0:0:0:
159,226,41241,5,2,0:0:0:0:
179,224,41550,1,2,0:0:0:0:
200,223,41859,1,2,0:0:0:0:
221,222,42169,1,2,0:0:0:0:
278,304,42478,5,2,0:0:0:0:
295,300,42787,1,8,0:0:0:0:
374,248,42942,1,8,0:0:0:0:
368,376,43096,5,8,0:0:0:0:
327,178,43251,1,8,0:0:0:0:
185,307,43406,1,8,0:0:0:0:
295,300,43560,1,2,0:0:0:0:
209,140,43715,5,2,0:0:0:0:
209,140,43870,1,2,0:0:0:0:
388,262,44024,1,8,0:0:0:0:
433,166,44179,1,2,0:0:0:0:
327,178,44334,1,2,0:0:0:0:
472,140,44488,5,8,0:0:0:0:
286,156,44643,1,8,0:0:0:0:
394,309,44797,1,8,0:0:0:0:
368,68,44952,6,0,B|330:53|330:53|248:46,1,85,6|0,0:0|0:0,0:0:0:0:
105,180,45285,2,0,L|-18:191,1,85,8|0,0:0|0:0,0:0:0:0:
20,187,45535,1,0,0:0:0:0:
20,187,45618,1,2,0:0:0:0:
91,94,45785,1,0,0:0:0:0:
175,284,45952,1,8,0:0:0:0:
308,129,46118,6,0,P|396:126|425:140,1,85,0|2,0:0|0:0,0:0:0:0:
431,256,46452,1,0,0:0:0:0:
233,184,46618,2,0,L|223:73,1,85,8|0,0:0|0:0,0:0:0:0:
224,67,46868,1,0,0:0:0:0:
220,33,46952,2,0,P|149:13|105:10,1,85,2|0,0:0|0:0,0:0:0:0:
337,38,47285,1,8,0:0:0:0:
149,125,47452,6,0,B|136:160|136:160|132:237,1,85,0|2,0:0|0:0,0:0:0:0:
215,346,47785,1,0,0:0:0:0:
372,222,47952,2,0,P|417:220|482:236,1,85,8|0,0:0|0:0,0:0:0:0:
492,242,48202,1,0,0:0:0:0:
492,242,48285,1,2,0:0:0:0:
355,130,48452,1,0,0:0:0:0:
330,313,48618,1,8,0:0:0:0:
463,134,48785,6,0,L|471:34,1,85,0|2,0:0|0:0,0:0:0:0:
419,295,49118,1,0,0:0:0:0:
252,122,49285,1,8,0:0:0:0:
239,134,49618,5,2,0:0:0:0:
182,342,49785,1,2,0:0:0:0:
136,146,49952,1,8,0:0:0:0:
325,197,50118,1,8,0:0:0:0:
99,254,50285,6,0,L|-14:259,1,85,2|0,0:0|0:0,0:0:0:0:
298,310,50618,2,0,L|416:303,1,85,8|0,0:0|0:0,0:0:0:0:
401,300,50868,1,0,0:0:0:0:
419,295,50951,1,2,0:0:0:0:
325,197,51118,1,0,0:0:0:0:
259,384,51285,1,8,0:0:0:0:
238,134,51451,6,0,L|232:25,1,85,0|2,0:0|0:0,0:0:0:0:
325,197,51785,1,0,0:0:0:0:
143,117,51951,2,0,P|66:124|27:138,1,85,8|0,0:0|0:0,0:0:0:0:
27,157,52201,1,0,0:0:0:0:
27,157,52285,2,0,L|19:252,1,85,2|0,0:0|0:0,0:0:0:0:
51,26,52618,1,8,0:0:0:0:
128,219,52785,6,0,P|194:234|239:231,1,85,0|2,0:0|0:0,0:0:0:0:
336,182,53118,1,0,0:0:0:0:
252,345,53285,2,0,L|140:355,1,85,8|0,0:0|0:0,0:0:0:0:
150,356,53535,1,0,0:0:0:0:
132,358,53618,2,0,P|80:349|38:319,1,85,2|0,0:0|0:0,0:0:0:0:
65,142,53951,1,8,0:0:0:0:
218,264,54118,6,0,L|317:255,1,85,0|2,0:0|0:0,0:0:0:0:
443,116,54451,1,0,0:0:0:0:
248,168,54618,1,8,0:0:0:0:
396,224,54785,1,0,0:0:0:0:
276,80,54951,5,2,0:0:0:0:
218,264,55118,1,2,0:0:0:0:
360,140,55285,5,8,0:0:0:0:
408,236,55451,1,8,0:0:0:0:
156,304,55618,6,0,B|143:267|143:267|138:185,1,85,6|0,0:0|0:0,0:0:0:0:
255,3,55951,2,0,L|264:109,1,85,8|0,0:0|0:0,0:0:0:0:
265,108,56201,1,0,0:0:0:0:
267,130,56285,1,2,0:0:0:0:
389,41,56451,1,0,0:0:0:0:
162,20,56618,1,8,0:0:0:0:
265,232,56785,6,0,P|303:242|376:242,1,85,0|2,0:0|0:0,0:0:0:0:
489,180,57118,1,0,0:0:0:0:
410,345,57285,2,0,L|297:351,1,85,8|0,0:0|0:0,0:0:0:0:
325,349,57535,1,0,0:0:0:0:
325,349,57618,1,2,0:0:0:0:
344,152,57785,1,0,0:0:0:0:
499,264,57951,1,8,0:0:0:0:
228,329,58118,6,0,B|108:316,1,85,0|2,0:0|0:0,0:0:0:0:
352,266,58451,1,0,0:0:0:0:
189,145,58618,2,0,L|72:150,1,85,8|0,0:0|0:0,0:0:0:0:
84,156,58868,1,0,0:0:0:0:
64,164,58951,1,2,0:0:0:0:
190,249,59118,1,0,0:0:0:0:
232,56,59285,1,8,0:0:0:0:
374,177,59451,6,0,B|412:182|412:182|488:173,1,85,0|2,0:0|0:0,0:0:0:0:
247,49,59785,1,0,0:0:0:0:
316,290,59951,1,8,0:0:0:0:
304,303,60285,5,6,0:0:0:0:
267,165,60451,1,8,0:0:0:0:
223,147,60535,1,8,0:0:0:0:
176,143,60618,1,8,0:0:0:0:
132,158,60701,1,8,0:0:0:0:
86,171,60785,1,8,0:0:0:0:
40,162,60868,1,8,0:0:0:0:
3,132,60951,6,0,L|-3:44,1,85,2|0,0:0|0:0,0:0:0:0:
192,241,61285,2,0,L|187:352,1,85,8|0,0:0|0:0,0:0:0:0:
188,325,61535,1,0,0:0:0:0:
188,325,61618,1,2,0:0:0:0:
294,271,61785,1,0,0:0:0:0:
83,295,61951,1,8,0:0:0:0:
174,98,62118,6,0,P|233:84|294:84,1,85,0|2,0:0|0:0,0:0:0:0:
385,153,62451,1,0,0:0:0:0:
229,292,62618,2,0,L|216:180,1,85,8|0,0:0|0:0,0:0:0:0:
227,187,62868,1,0,0:0:0:0:
235,167,62951,1,2,0:0:0:0:
344,271,63118,1,0,0:0:0:0:
135,191,63285,1,8,0:0:0:0:
321,36,63451,6,0,L|425:23,1,85,0|2,0:0|0:0,0:0:0:0:
502,126,63785,1,0,0:0:0:0:
302,28,63951,2,0,L|208:41,1,85,8|0,0:0|0:0,0:0:0:0:
199,50,64201,1,0,0:0:0:0:
180,61,64285,1,2,0:0:0:0:
328,179,64451,1,0,0:0:0:0:
159,250,64618,1,8,0:0:0:0:
220,154,64785,1,0,0:0:0:0:
270,377,64951,5,12,0:0:0:0:
333,195,65118,1,0,0:0:0:0:
148,234,65285,1,0,0:0:0:0:
342,303,65451,5,2,0:3:0:0:
270,80,65618,1,8,0:0:0:0:
254,261,65785,1,0,0:0:0:0:
388,113,65951,2,0,P|460:98|505:100,1,85,8|0,0:0|0:0,0:0:0:0:
342,303,66285,5,6,0:0:0:0:
220,154,66451,1,0,0:0:0:0:
447,260,66618,1,8,0:0:0:0:
373,102,66785,1,8,0:0:0:0:
254,261,66951,5,8,0:0:0:0:
215,279,67035,1,8,0:0:0:0:
172,283,67118,1,8,0:0:0:0:
130,272,67201,1,8,0:0:0:0:
100,264,67285,5,8,0:0:0:0:
71,270,67368,1,8,0:0:0:0:
50,291,67451,1,8,0:0:0:0:
42,320,67535,1,8,0:0:0:0:
49,348,67618,5,6,0:0:0:0:
181,198,67785,1,0,0:0:0:0:
1,156,67951,1,8,0:0:0:0:
153,313,68118,5,2,0:0:0:0:
192,326,68201,1,2,0:0:0:0:
234,325,68285,1,8,0:0:0:0:
274,312,68368,1,8,0:0:0:0:
306,284,68451,1,2,0:0:0:0:
332,250,68535,1,2,0:0:0:0:
372,236,68618,1,8,0:0:0:0:
414,236,68701,1,8,0:3:0:0:
452,254,68785,1,8,0:3:0:0:
346,127,68951,6,0,L|197:117,1,132.600004451294,6|2,0:0|0:0,0:0:0:0:
48,206,69451,2,0,L|197:196,1,132.600004451294,8|2,0:0|0:0,0:0:0:0:
349,292,69951,2,0,L|271:288,1,66.300002225647,8|8,0:0|0:0,0:0:0:0:
282,288,70201,1,8,0:0:0:0:
282,288,70285,5,8,0:0:0:0:
333,384,70451,1,8,0:0:0:0:
269,186,70618,1,8,0:0:0:0:
215,354,70785,1,8,0:0:0:0:
180,119,70951,1,8,0:0:0:0:
163,275,71118,1,8,0:0:0:0:
83,62,71285,1,8,0:0:0:0:
91,223,71451,1,8,0:0:0:0:
296,92,71618,5,6,0:0:0:0:
296,92,71951,1,6,0:0:0:0:
180,119,72285,1,6,0:0:0:0:
180,119,72618,1,6,0:0:0:0:
398,153,72951,6,0,L|412:256,1,93.5000028533936,6|8,0:2|0:0,0:0:0:0:
400,40,73285,1,2,0:0:0:0:
400,40,73368,1,0,0:0:0:0:
400,40,73451,1,8,0:0:0:0:
288,220,73618,2,0,P|236:236|168:224,1,93.5000028533936,2|8,0:0|0:0,0:0:0:0:
72,144,73951,2,0,L|64:96,2,46.7500014266968,2|0|8,0:0|0:0|0:0,0:0:0:0:
128,348,74285,6,0,L|256:356,1,93.5000028533936,2|8,0:0|0:0,0:0:0:0:
376,308,74618,1,2,0:0:0:0:
376,308,74701,1,0,0:0:0:0:
376,308,74785,1,8,0:0:0:0:
197,233,74951,2,0,B|184:192|184:192|192:116,1,93.5000028533936,2|8,0:0|0:0,0:0:0:0:
280,36,75285,1,2,0:0:0:0:
280,36,75368,1,0,0:0:0:0:
280,36,75451,1,8,0:0:0:0:
372,200,75618,5,6,0:0:0:0:
444,80,75785,1,8,0:0:0:0:
444,80,75868,1,8,0:0:0:0:
444,80,75951,1,8,0:0:0:0:
428,268,76118,1,6,0:0:0:0:
368,120,76285,1,8,0:0:0:0:
368,120,76368,1,8,0:0:0:0:
368,120,76451,1,8,0:0:0:0:
240,282,76618,2,0,B|204:294|204:294|132:290,1,93.5000028533936,6|8,0:0|0:0,0:0:0:0:
110,287,76868,1,8,0:0:0:0:
72,283,76951,5,8,0:0:0:0:
208,187,77118,1,8,0:3:0:0:
312,358,77285,1,8,0:0:0:0:
295,172,77451,1,8,0:3:0:0:
195,350,77618,5,8,0:0:0:0:
80,269,77785,1,4,0:3:0:0:
209,361,77951,1,8,0:0:0:0:
237,104,78118,1,8,0:0:0:0:
381,295,78285,6,0,P|422:307|495:295,1,93.5000028533936,6|8,0:0|0:0,0:0:0:0:
432,192,78618,1,2,0:0:0:0:
432,192,78701,1,0,0:0:0:0:
432,192,78785,1,8,0:0:0:0:
312,358,78951,1,2,0:0:0:0:
295,172,79118,1,8,0:0:0:0:
381,295,79285,2,0,P|408:295|441:291,2,46.7500014266968,2|0|8,0:0|0:0|0:0,0:0:0:0:
215,243,79618,6,0,B|179:239|179:239|84:251,1,93.5000028533936,2|8,0:0|0:0,0:0:0:0:
65,368,79951,1,2,0:0:0:0:
65,368,80035,1,0,0:0:0:0:
65,368,80118,1,8,0:0:0:0:
230,233,80285,2,0,L|237:127,1,93.5000028533936,2|8,0:0|0:0,0:0:0:0:
93,0,80618,1,8,0:0:0:0:
95,46,80701,1,8,0:0:0:0:
98,93,80785,1,8,0:0:0:0:
100,139,80868,1,8,0:0:0:0:
103,187,80951,5,6,0:0:0:0:
245,121,81118,1,8,0:0:0:0:
245,121,81201,1,8,0:0:0:0:
245,121,81285,1,8,0:0:0:0:
111,288,81451,5,6,0:0:0:0:
243,224,81618,1,8,0:0:0:0:
288,216,81701,1,8,0:0:0:0:
331,234,81785,1,8,0:0:0:0:
354,274,81868,1,8,0:0:0:0:
346,319,81951,2,0,L|287:327,3,46.7500014266968,8|8|2|8,0:3|0:3|0:0|0:3,0:0:0:0:
449,358,82285,5,8,0:0:0:0:
480,324,82368,1,8,0:0:0:0:
490,278,82451,1,8,0:3:0:0:
481,231,82535,1,2,0:0:0:0:
454,192,82618,1,8,0:0:0:0:
429,152,82701,1,8,0:0:0:0:
419,105,82785,1,8,0:0:0:0:
427,59,82868,1,8,0:0:0:0:
455,21,82951,2,0,L|512:14,3,46.7500014266968,2|2|2|2,0:0|0:0|0:0|0:0,0:0:0:0:
346,38,83285,5,8,0:3:0:0:
308,39,83368,1,8,0:3:0:0:
270,40,83451,1,8,0:3:0:0:
232,43,83535,1,4,0:3:0:0:
193,46,83618,6,0,P|183:76|183:146,1,85,6|0,0:0|0:0,0:0:0:0:
372,347,83951,2,0,P|383:295|381:241,1,93.5000028533936,8|0,0:0|0:0,0:0:0:0:
281,114,84285,1,2,0:0:0:0:
281,114,84451,1,0,0:0:0:0:
190,326,84618,2,0,B|136:330|136:330|78:312,1,93.5000028533936,8|0,0:0|0:0,0:0:0:0:
257,192,84951,5,2,0:0:0:0:
257,192,85118,1,0,0:0:0:0:
418,328,85285,2,0,L|526:333,1,93.5000028533936,8|0,0:0|0:0,0:0:0:0:
417,90,85618,1,2,0:0:0:0:
388,193,85785,1,0,0:0:0:0:
339,41,85951,1,8,0:0:0:0:
467,237,86118,1,0,0:0:0:0:
253,75,86285,6,0,L|117:64,1,93.5000028533936,12|2,0:0|0:0,0:0:0:0:
0,54,86618,1,2,0:0:0:0:
213,178,86785,2,0,B|254:184|254:184|337:171,1,93.5000028533936,8|2,0:0|0:0,0:0:0:0:
478,135,87118,1,2,0:0:0:0:
249,286,87285,2,0,P|230:344|229:378,1,93.5000028533936,8|0,0:0|0:0,0:0:0:0:
475,313,87618,5,8,0:0:0:0:
471,275,87701,1,8,0:0:0:0:
467,237,87785,1,8,0:0:0:0:
305,175,87951,1,8,0:0:0:0:
308,137,88035,1,8,0:0:0:0:
312,99,88118,1,8,0:0:0:0:
378,257,88285,5,8,0:0:0:0:
335,276,88368,1,8,0:0:0:0:
288,281,88451,1,8,0:0:0:0:
243,265,88535,1,2,0:0:0:0:
213,229,88618,2,0,L|207:166,3,46.7500014266968,8|8|8|8,0:3|0:0|0:0|0:3,0:0:0:0:
177,322,88951,6,0,B|138:335|138:335|54:328,1,93.5000028533936,6|0,0:0|0:0,0:0:0:0:
14,125,89285,2,0,L|115:131,1,93.5000028533936,8|0,0:0|0:0,0:0:0:0:
309,148,89618,1,2,0:0:0:0:
214,60,89785,1,2,0:0:0:0:
243,265,89951,2,0,B|284:276|284:276|374:271,1,93.5000028533936,8|0,0:0|0:0,0:0:0:0:
484,217,90285,5,2,0:0:0:0:
484,217,90451,1,0,0:0:0:0:
309,148,90618,2,0,P|304:96|332:44,1,93.5000028533936,8|0,0:0|0:0,0:0:0:0:
512,104,90951,1,2,0:0:0:0:
386,113,91118,1,2,0:0:0:0:
484,217,91285,1,8,0:0:0:0:
416,7,91451,1,0,0:0:0:0:
370,270,91618,5,8,0:0:0:0:
345,282,91701,1,2,0:0:0:0:
319,293,91785,1,2,0:0:0:0:
291,292,91868,1,2,0:0:0:0:
263,288,91951,1,2,0:0:0:0:
309,147,92118,5,8,0:0:0:0:
285,131,92201,1,2,0:0:0:0:
259,119,92285,1,2,0:0:0:0:
231,119,92368,1,2,0:0:0:0:
203,122,92451,1,2,0:0:0:0:
112,273,92618,5,8,0:0:0:0:
84,277,92701,1,2,0:0:0:0:
56,281,92785,1,2,0:0:0:0:
28,274,92868,1,2,0:0:0:0:
1,264,92951,1,2,0:0:0:0:
197,324,93118,5,8,0:0:0:0:
203,296,93201,1,2,0:0:0:0:
209,268,93285,1,2,0:0:0:0:
200,241,93368,1,2,0:0:0:0:
191,214,93451,1,2,0:0:0:0:
333,366,93618,5,8,0:0:0:0:
374,372,93701,1,8,0:0:0:0:
415,363,93785,1,8,0:0:0:0:
445,334,93868,1,8,0:0:0:0:
431,294,93951,5,8,0:0:0:0:
456,259,94035,1,8,0:0:0:0:
433,223,94118,1,8,0:0:0:0:
448,184,94201,1,8,0:0:0:0:
425,148,94285,6,0,P|362:129|316:134,1,93.5000028533936,6|0,0:0|0:0,0:0:0:0:
200,241,94618,2,0,L|91:247,1,93.5000028533936,8|0,0:0|0:0,0:0:0:0:
84,255,94868,1,0,0:0:0:0:
63,266,94951,2,0,L|51:338,2,46.7500014266968,2|0|0,0:0|0:0|0:0,0:0:0:0:
48,106,95285,1,8,0:0:0:0:
165,344,95451,6,0,B|204:352|204:352|294:343,1,93.5000028533936,0|2,0:0|0:0,0:0:0:0:
396,291,95785,1,0,0:0:0:0:
206,251,95951,2,0,P|196:214|206:140,1,93.5000028533936,8|0,0:0|0:0,0:0:0:0:
207,137,96201,1,0,0:0:0:0:
217,115,96285,1,2,0:0:0:0:
305,236,96451,1,0,0:0:0:0:
103,152,96618,1,8,0:0:0:0:
283,24,96785,6,0,B|323:20|323:20|399:36,1,93.5000028533936,0|2,0:0|0:0,0:0:0:0:
489,201,97118,1,0,0:0:0:0:
489,201,97201,1,0,0:0:0:0:
489,201,97285,2,0,L|366:209,1,93.5000028533936,8|0,0:0|0:0,0:0:0:0:
373,215,97535,1,0,0:0:0:0:
350,222,97618,1,2,0:0:0:0:
422,108,97785,1,0,0:0:0:0:
441,309,97951,1,8,0:0:0:0:
328,124,98118,6,0,P|257:104|196:110,1,93.5000028533936,0|2,0:0|0:0,0:0:0:0:
373,215,98451,1,0,0:0:0:0:
276,15,98618,2,0,L|151:8,1,93.5000028533936,8|0,0:0|0:0,0:0:0:0:
97,164,98951,1,2,0:0:0:0:
328,124,99118,1,0,0:0:0:0:
216,244,99285,1,8,0:0:0:0:
214,271,99368,1,2,0:0:0:0:
212,298,99451,1,2,0:0:0:0:
211,326,99535,1,2,0:0:0:0:
224,350,99618,6,0,B|260:357|260:357|337:348,1,93.5000028533936,6|0,0:0|0:0,0:0:0:0:
190,156,99951,2,0,L|84:165,1,93.5000028533936,8|0,0:0|0:0,0:0:0:0:
76,176,100201,1,0,0:0:0:0:
56,188,100285,1,2,0:0:0:0:
141,51,100451,1,0,0:0:0:0:
216,244,100618,1,8,0:0:0:0:
348,78,100785,6,0,P|421:58|471:62,1,93.5000028533936,0|2,0:0|0:0,0:0:0:0:
455,235,101118,1,0,0:0:0:0:
433,225,101201,1,0,0:0:0:0:
411,214,101285,2,0,L|304:219,1,93.5000028533936,8|0,0:0|0:0,0:0:0:0:
317,218,101535,1,0,0:0:0:0:
317,218,101618,1,2,0:0:0:0:
420,319,101785,1,0,0:0:0:0:
396,106,101951,1,8,0:0:0:0:
232,234,102118,1,0,0:0:0:0:
474,166,102285,5,8,0:0:0:0:
490,127,102368,1,8,0:0:0:0:
490,85,102451,1,2,0:0:0:0:
471,46,102535,1,8,0:3:0:0:
437,20,102618,1,4,0:3:0:0:
395,12,102701,1,8,0:0:0:0:
359,23,102785,5,8,0:0:0:0:
321,26,102868,1,8,0:0:0:0:
283,29,102951,1,8,0:3:0:0:
245,32,103035,1,8,0:3:0:0:
207,35,103118,1,8,0:3:0:0:
169,38,103201,1,8,0:3:0:0:
132,30,103285,2,0,P|110:24|78:17,3,46.7500014266968,4|8|8|8,0:3|0:0|0:0|0:0,0:0:0:0:
208,133,103618,5,2,0:0:0:0:
215,174,103701,1,8,0:0:0:0:
203,214,103785,1,2,0:0:0:0:
171,242,103868,1,8,0:0:0:0:
131,254,103951,1,2,0:0:0:0:
90,242,104035,1,2,0:0:0:0:
77,206,104118,5,8,0:0:0:0:
100,176,104201,1,8,0:0:0:0:
137,170,104285,1,8,0:0:0:0:
166,192,104368,1,8,0:0:0:0:
185,223,104451,1,2,0:0:0:0:
213,247,104535,1,2,0:0:0:0:
246,263,104618,2,0,L|323:255,3,46.7500014266968,8|8|8|8,0:3|0:3|0:3|0:3,0:0:0:0:
174,342,104951,6,0,B|141:347|141:347|66:340,1,85,6|0,0:0|0:0,0:0:0:0:
298,164,105285,2,0,P|361:174|400:196,1,85,8|0,0:0|0:0,0:0:0:0:
394,198,105535,1,0,0:0:0:0:
405,215,105618,1,2,0:0:0:0:
322,276,105785,1,0,0:0:0:0:
355,78,105951,1,8,0:0:0:0:
504,205,106118,6,0,L|510:302,1,85,2|0,0:0|0:0,0:0:0:0:
472,95,106451,1,2,0:0:0:0:
322,276,106618,2,0,B|290:284|290:284|223:279,1,85,8|0,0:0|0:0,0:0:0:0:
216,278,106868,1,0,0:0:0:0:
194,276,106951,1,2,0:0:0:0:
284,374,107118,1,0,0:0:0:0:
244,159,107285,1,8,0:0:0:0:
86,306,107451,6,0,L|-15:314,1,85,2|0,0:0|0:0,0:0:0:0:
170,383,107785,1,2,0:0:0:0:
116,191,107951,2,0,B|113:156|113:156|126:91,1,85,8|0,0:0|0:0,0:0:0:0:
130,87,108201,1,0,0:0:0:0:
138,67,108285,2,0,L|232:62,1,85,2|0,0:0|0:0,0:0:0:0:
0,32,108618,1,8,0:0:0:0:
217,169,108785,6,0,L|320:177,1,85,2|0,0:0|0:0,0:0:0:0:
466,124,109118,1,2,0:0:0:0:
252,273,109285,2,0,P|240:344|250:383,1,85,8|0,0:0|0:0,0:0:0:0:
398,213,109618,1,2,0:0:0:0:
236,267,109785,1,8,0:0:0:0:
194,274,109868,1,8,0:0:0:0:
152,267,109951,1,8,0:0:0:0:
115,244,110035,1,8,0:0:0:0:
72,241,110118,1,8,0:0:0:0:
36,264,110201,1,8,0:0:0:0:
20,303,110285,6,0,L|10:198,1,85,6|0,0:0|0:0,0:0:0:0:
154,25,110618,2,0,L|143:133,1,85,8|0,0:0|0:0,0:0:0:0:
145,109,110868,1,0,0:0:0:0:
145,109,110951,1,2,0:0:0:0:
259,42,111118,1,0,0:0:0:0:
57,84,111285,1,8,0:0:0:0:
297,159,111451,6,0,L|394:167,1,85,2|0,0:0|0:0,0:0:0:0:
243,49,111785,1,2,0:0:0:0:
156,240,111951,2,0,P|102:252|52:248,1,85,8|0,0:0|0:0,0:0:0:0:
51,245,112201,1,0,0:0:0:0:
31,236,112285,1,2,0:0:0:0:
100,350,112451,1,0,0:0:0:0:
192,148,112618,1,8,0:0:0:0:
319,333,112785,6,0,B|357:336|357:336|422:323,1,85,2|0,0:0|0:0,0:0:0:0:
474,220,113118,1,2,0:0:0:0:
304,341,113285,2,0,L|192:328,1,85,8|2,0:0|0:0,0:0:0:0:
109,132,113618,2,0,P|159:135|211:160,1,85,8|8,0:0|0:0,0:0:0:0:
192,148,113868,1,8,0:0:0:0:
192,148,113951,1,8,0:0:0:0:
10,178,114118,1,8,0:0:0:0:
211,46,114285,6,0,L|321:40,1,85,6|8,0:0|0:0,0:0:0:0:
317,39,114535,1,8,0:0:0:0:
338,37,114618,1,8,0:0:0:0:
393,213,114785,1,8,0:0:0:0:
267,142,114951,1,8,0:0:0:0:
238,138,115035,1,8,0:3:0:0:
210,147,115118,1,8,0:3:0:0:
190,168,115201,1,8,0:3:0:0:
183,196,115285,2,0,L|125:201,2,42.5,4|4|4,0:3|0:3|0:3,0:0:0:0:
378,123,115618,5,6,0:2:0:0:
235,43,115785,1,8,0:0:0:0:
211,46,115868,1,8,0:0:0:0:
187,49,115951,2,0,B|148:39|148:39|52:33,1,93.5000028533936,8|2,0:0|0:0,0:0:0:0:
7,223,116285,1,8,0:0:0:0:
210,147,116451,1,8,0:0:0:0:
41,328,116618,1,8,0:0:0:0:
103,137,116785,1,8,0:0:0:0:
218,369,116951,5,6,0:0:0:0:
295,223,117118,1,8,0:0:0:0:
335,211,117201,1,8,0:0:0:0:
377,214,117285,1,8,0:0:0:0:
416,226,117368,1,8,0:0:0:0:
457,219,117451,1,8,0:0:0:0:
493,196,117535,1,8,0:0:0:0:
509,152,117618,2,0,L|502:93,3,46.7500014266968,8|8|8|8,0:3|0:3|0:3|0:3,0:0:0:0:
422,143,117951,2,0,L|415:96,3,46.7500014266968,4|4|4|4,0:3|0:3|0:3|0:3,0:0:0:0:
350,41,118285,6,0,B|313:33|313:33|236:38,1,93.5000028533936,6|8,0:0|0:0,0:0:0:0:
235,44,118535,1,8,0:0:0:0:
213,51,118618,1,8,0:0:0:0:
311,179,118785,1,6,0:0:0:0:
185,157,118951,1,8,0:0:0:0:
161,156,119035,1,8,0:0:0:0:
137,155,119118,1,8,0:0:0:0:
263,300,119285,1,6,0:0:0:0:
376,250,119451,1,8,0:0:0:0:
399,248,119535,1,8,0:0:0:0:
422,245,119618,6,0,B|462:244|462:244|514:256,1,93.5000028533936,8|2,0:0|0:0,0:0:0:0:
376,113,119951,1,8,0:3:0:0:
336,98,120035,1,8,0:0:0:0:
294,97,120118,1,8,0:0:0:0:
254,112,120201,1,8,0:0:0:0:
229,152,120285,2,0,L|147:163,3,46.7500014266968,10|8|8|8,0:0|0:3|0:3|0:3,0:0:0:0:
318,193,120618,2,0,L|380:201,3,46.7500014266968,4|4|4|4,0:3|0:3|0:3|0:3,0:0:0:0:
261,286,120951,6,0,B|228:296|228:296|144:290,1,93.5000028533936,6|8,0:0|0:0,0:0:0:0:
126,287,121201,1,8,0:0:0:0:
84,294,121285,2,0,L|21:304,3,46.7500014266968,8|8|8|8,0:0|0:0|0:0|0:0,0:0:0:0:
109,204,121618,2,0,L|29:200,3,46.7500014266968,8|8|8|8,0:0|0:0|0:0|0:0,0:0:0:0:
165,134,121951,1,8,0:0:0:0:
191,144,122035,1,8,0:3:0:0:
213,160,122118,1,8,0:3:0:0:
230,181,122201,1,8,0:3:0:0:
245,204,122285,6,0,L|360:196,1,93.5000028533936,6|8,0:0|0:0,0:0:0:0:
379,205,122535,1,8,0:0:0:0:
419,213,122618,2,0,L|430:281,3,46.7500014266968,8|8|8|8,0:0|0:0|0:0|0:0,0:0:0:0:
386,99,122951,2,0,B|361:100|361:100|321:111,3,46.7500014266968,8|8|8|8,0:3|0:3|0:0|0:0,0:0:0:0:
499,124,123285,1,8,0:0:0:0:
502,151,123368,1,8,0:0:0:0:
505,178,123451,1,8,0:0:0:0:
508,206,123535,1,8,0:0:0:0:
512,233,123618,5,6,0:0:0:0:
434,346,123785,1,8,0:0:0:0:
434,346,123868,1,8,0:0:0:0:
434,346,123951,1,8,0:0:0:0:
376,178,124118,1,6,0:0:0:0:
298,291,124285,1,8,0:0:0:0:
298,291,124368,1,8,0:0:0:0:
298,291,124451,2,0,L|308:358,1,46.7500014266968,8|8,0:0|0:0,0:0:0:0:
273,185,124618,1,8,0:3:0:0:
237,175,124701,1,8,0:3:0:0:
199,179,124785,1,4,0:3:0:0:
168,200,124868,1,4,0:3:0:0:
152,233,124951,6,0,L|149:293,3,46.7500014266968,8|8|8|4,0:0|0:0|0:3|0:3,0:0:0:0:
51,285,125285,2,0,L|61:360,3,46.7500014266968,8|8|8|8,0:0|0:0|0:3|0:0,0:0:0:0:
4,174,125618,1,8,0:0:0:0:
10,127,125701,1,2,0:0:0:0:
42,92,125785,1,2,0:0:0:0:
84,72,125868,1,2,0:0:0:0:
130,68,125951,1,2,0:0:0:0:
174,82,126035,1,2,0:0:0:0:
216,99,126118,1,2,0:0:0:0:
262,97,126201,1,2,0:0:0:0:
303,75,126285,6,0,B|411:70,1,85,6|0,0:0|0:0,0:0:0:0:
474,243,126618,2,0,L|374:250,1,85,0|2,0:0|0:0,0:0:0:0:
217,176,126951,1,8,0:0:0:0:
264,289,127118,1,0,0:0:0:0:
205,164,127285,2,0,P|116:153|90:156,1,85,0|2,0:0|0:0,0:0:0:0:
1,285,127618,6,0,L|110:276,1,85,0|2,0:0|0:0,0:0:0:0:
217,176,127951,2,0,P|267:167|313:166,1,85,0|2,0:0|0:0,0:0:0:0:
508,202,128285,1,8,0:0:0:0:
453,294,128451,1,2,0:0:0:0:
401,130,128618,1,8,0:0:0:0:
388,382,128785,1,8,0:0:0:0:
388,382,128868,1,8,0:0:0:0:
388,382,128951,6,0,P|325:373|199:362,1,170,6|0,0:0|0:0,0:0:0:0:
48,264,129451,2,0,P|163:249|241:247,1,170,8|2,0:0|0:0,0:0:0:0:
387,264,129951,2,0,P|370:214|370:178,1,85,8|8,0:0|0:0,0:0:0:0:
373,161,130201,1,8,0:0:0:0:
379,140,130285,1,8,0:0:0:0:
500,204,130451,5,8,0:3:0:0:
500,204,130618,1,4,0:3:0:0:
323,63,130785,1,8,0:0:0:0:
260,272,130951,5,8,0:0:0:0:
144,96,131118,1,8,0:3:0:0:
163,208,131285,1,4,0:3:0:0:
216,4,131451,1,8,0:0:0:0:
338,173,131618,6,0,P|380:180|453:182,1,85,6|0,0:0|0:0,0:0:0:0:
512,22,131951,2,0,L|407:31,1,85,8|2,0:0|0:0,0:0:0:0:
237,149,132285,1,8,0:0:0:0:
247,5,132451,1,0,0:0:0:0:
223,163,132618,2,0,P|168:171|112:173,1,85,0|2,0:0|0:0,0:0:0:0:
3,103,132951,5,0,0:0:0:0:
201,266,133118,2,0,L|324:276,2,85,8|2|2,0:0|0:0|0:0,0:0:0:0:
39,335,133618,2,0,P|21:296|16:234,1,85,8|2,0:0|0:0,0:0:0:0:
120,141,133951,1,8,0:0:0:0:
120,141,134035,1,8,0:3:0:0:
120,141,134118,1,8,0:0:0:0:
168,338,134285,5,6,0:0:0:0:
262,171,134451,1,8,0:0:0:0:
283,165,134534,1,8,0:0:0:0:
304,160,134618,1,8,0:0:0:0:
282,279,134785,1,0,0:0:0:0:
197,91,134951,5,6,0:0:0:0:
401,120,135118,1,8,0:0:0:0:
184,188,135285,1,2,0:0:0:0:
284,56,135451,1,2,0:0:0:0:
375,275,135618,6,0,P|418:284|479:287,1,85,8|2,0:0|0:0,0:0:0:0:
380,117,135951,2,0,P|335:124|277:143,1,85,8|2,0:0|0:0,0:0:0:0:
278,345,136285,5,8,0:0:0:0:
278,345,136451,1,8,0:0:0:0:
449,251,136618,1,2,0:0:0:0:
293,160,136785,1,8,0:0:0:0:
171,328,136951,6,0,P|101:337|49:326,1,93.5000028533936,6|0,0:0|0:0,0:0:0:0:
5,124,137285,2,0,L|98:131,1,93.5000028533936,8|0,0:0|0:0,0:0:0:0:
320,234,137618,1,2,0:0:0:0:
235,84,137785,1,2,0:0:0:0:
333,246,137951,2,0,B|374:252|374:252|455:242,1,93.5000028533936,8|2,0:0|0:0,0:0:0:0:
372,52,138285,6,0,L|370:160,1,93.5000028533936,2|0,0:0|0:0,0:0:0:0:
240,360,138618,2,0,L|232:246,1,93.5000028533936,8|0,0:0|0:0,0:0:0:0:
152,75,138951,1,2,0:0:0:0:
287,153,139118,1,2,0:0:0:0:
143,61,139285,2,0,B|104:55|104:55|31:64,1,93.5000028533936,8|2,0:0|0:0,0:0:0:0:
57,295,139618,5,6,0:0:0:0:
198,213,139785,1,8,0:0:0:0:
179,199,139868,1,8,0:0:0:0:
179,222,139951,1,8,0:0:0:0:
301,384,140118,1,6,0:0:0:0:
300,220,140285,1,8,0:0:0:0:
277,229,140368,1,8,0:0:0:0:
298,241,140451,1,8,0:0:0:0:
512,221,140618,1,6,0:0:0:0:
369,139,140785,1,8,0:0:0:0:
365,164,140868,1,8,0:0:0:0:
386,152,140951,5,8,0:0:0:0:
396,115,141035,1,8,0:0:0:0:
381,80,141118,1,8,0:0:0:0:
347,62,141201,1,8,0:3:0:0:
309,64,141285,2,0,L|234:69,3,46.7500014266968,4|8|8|8,0:3|0:0|0:0|0:0,0:0:0:0:
211,148,141618,2,0,L|141:142,1,46.7500014266968,8|8,0:0|0:3,0:0:0:0:
78,78,141785,1,4,0:3:0:0:
66,65,141868,1,8,0:3:0:0:
55,52,141951,2,0,L|61:-21,2,46.7500014266968,4|8|4,0:3|0:3|0:3,0:0:0:0:
75,306,142285,6,0,B|116:311|116:311|176:300,1,93.5000028533936,6|0,0:0|0:0,0:0:0:0:
304,155,142618,2,0,L|166:144,1,93.5000028533936,8|0,0:0|0:0,0:0:0:0:
55,52,142951,1,2,0:0:0:0:
197,28,143118,1,2,0:0:0:0:
44,64,143285,2,0,P|8:134|7:179,1,93.5000028533936,8|2,0:0|0:0,0:0:0:0:
163,355,143618,6,0,L|168:235,1,93.5000028533936,2|0,0:0|0:0,0:0:0:0:
299,61,143951,2,0,L|306:195,1,93.5000028533936,8|0,0:0|0:0,0:0:0:0:
374,373,144285,1,2,0:0:0:0:
482,300,144451,1,2,0:0:0:0:
357,381,144618,2,0,B|317:387|317:387|261:374,1,93.5000028533936,8|2,0:0|0:0,0:0:0:0:
147,106,144951,5,8,0:0:0:0:
173,96,145034,1,2,0:0:0:0:
200,86,145118,1,2,0:0:0:0:
228,89,145201,1,2,0:0:0:0:
255,95,145284,1,2,0:0:0:0:
199,233,145451,5,8,0:0:0:0:
221,248,145534,1,2,0:0:0:0:
244,263,145618,1,2,0:0:0:0:
271,265,145701,1,2,0:0:0:0:
298,266,145784,1,2,0:0:0:0:
403,142,145951,5,8,0:0:0:0:
428,130,146034,1,2,0:0:0:0:
454,119,146118,1,2,0:0:0:0:
480,121,146201,1,2,0:0:0:0:
507,125,146284,1,2,0:0:0:0:
332,76,146451,5,8,0:0:0:0:
324,103,146534,1,2,0:0:0:0:
316,131,146618,1,2,0:0:0:0:
323,159,146701,1,2,0:0:0:0:
330,186,146784,1,2,0:0:0:0:
197,26,146951,5,8,0:0:0:0:
156,17,147034,1,14,0:0:0:0:
115,23,147118,1,8,0:0:0:0:
83,50,147201,1,8,0:0:0:0:
94,91,147284,5,8,0:0:0:0:
66,124,147368,1,8,0:0:0:0:
87,162,147451,1,8,0:0:0:0:
69,199,147534,1,8,0:0:0:0:
83,237,147618,6,0,B|133:254|133:254|220:246,1,127.500004863739,6|2,0:0|0:0,0:0:0:0:
221,259,148285,2,0,L|307:270,1,63.7500024318696,8|0,0:0|0:0,0:0:0:0:
387,337,148618,2,0,P|375:295|415:214,2,127.500004863739,2|2|2,0:0|0:0|0:0,0:0:0:0:
357,140,149618,6,0,L|268:133,1,63.7500024318696,8|0,0:0|0:0,0:0:0:0:
209,175,149951,2,0,P|155:181|90:140,1,127.500004863739,2|2,0:0|0:0,0:0:0:0:
342,230,150618,2,0,L|406:225,1,63.7500024318696,2|0,0:0|0:0,0:0:0:0:
457,79,150951,2,0,P|423:66|378:60,1,63.7500024318696,8|0,0:0|0:0,0:0:0:0:
293,135,151285,1,2,0:0:0:0:
293,135,151618,6,0,P|296:78|308:1,1,127.500004863739,2|2,0:0|0:0,0:0:0:0:
201,264,152285,2,0,P|197:191|188:119,1,127.500004863739,8|2,0:0|0:0,0:0:0:0:
284,335,152951,6,0,B|209:355|209:355|131:343,1,127.500004863739,6|2,0:0|0:0,0:0:0:0:
145,357,153618,2,0,L|68:360,1,63.7500024318696,8|0,0:0|0:0,0:0:0:0:
0,314,153951,2,0,P|-11:258|39:191,1,127.500004863739,2|2,0:0|0:0,0:0:0:0:
284,335,154618,5,2,0:0:0:0:
219,122,154951,2,0,L|131:112,1,63.7500024318696,8|0,0:0|0:0,0:0:0:0:
68,145,155285,1,2,0:0:0:0:
80,160,155618,6,0,L|92:306,1,127.500004863739,2|2,0:0|0:0,0:0:0:0:
104,276,156285,2,0,P|157:258|195:253,1,63.7500024318696,8|0,0:0|0:0,0:0:0:0:
280,272,156618,1,2,0:0:0:0:
292,284,156951,5,2,0:0:0:0:
363,174,157118,2,0,L|353:108,2,63.7500024318696,2|2|0,0:0|0:0|0:0,0:0:0:0:
456,249,157618,2,0,P|461:208|458:176,1,63.7500024318696,8|0,0:0|0:0,0:0:0:0:
269,211,157951,2,0,P|210:200|187:191,1,63.7500024318696,2|0,0:0|0:0,0:0:0:0:
112,60,158285,6,0,L|263:40,1,127.500004863739,6|2,0:0|0:0,0:0:0:0:
250,57,158951,2,0,P|216:81|195:108,1,63.7500024318696,8|0,0:0|0:0,0:0:0:0:
190,208,159285,2,0,P|125:237|57:226,2,127.500004863739,2|2|2,0:0|0:0|0:0,0:0:0:0:
415,87,160285,6,0,L|422:171,1,63.7500024318696,8|0,0:0|0:0,0:0:0:0:
489,236,160618,2,0,P|442:209|357:221,1,127.500004863739,2|2,0:0|0:0,0:0:0:0:
257,378,161285,1,2,0:0:0:0:
243,364,161618,2,0,L|238:293,1,63.7500024318696,8|0,0:0|0:0,0:0:0:0:
228,189,161951,1,2,0:0:0:0:
57,333,162285,5,2,0:0:0:0:
57,333,162368,1,0,0:0:0:0:
57,333,162451,1,2,0:0:0:0:
157,285,162618,1,8,0:0:0:0:
6,248,162785,1,8,0:0:0:0:
139,169,162951,2,0,P|147:117|145:86,1,63.7500024318696,2|0,0:0|0:0,0:0:0:0:
171,275,163285,2,0,L|249:269,1,63.7500024318696,8|0,0:0|0:0,0:0:0:0:
330,180,163618,6,0,P|391:159|474:158,1,127.500004863739,6|2,0:0|0:0,0:0:0:0:
467,168,164285,2,0,L|461:91,1,63.7500024318696,8|0,0:0|0:0,0:0:0:0:
412,248,164618,1,2,0:0:0:0:
315,69,164951,6,0,P|254:63|186:97,1,127.500004863739,2|2,0:0|0:0,0:0:0:0:
257,304,165618,2,0,L|341:296,1,63.7500024318696,8|0,0:0|0:0,0:0:0:0:
412,248,165951,1,2,0:0:0:0:
424,259,166285,5,6,0:0:0:0:
299,150,166451,2,0,L|305:67,2,63.7500024318696,2|2|0,0:0|0:0|0:0,0:0:0:0:
210,233,166951,2,0,P|197:179|194:143,1,63.7500024318696,8|0,0:0|0:0,0:0:0:0:
240,29,167285,1,2,0:0:0:0:
288,168,167451,1,0,0:0:0:0:
142,36,167618,5,2,0:0:0:0:
77,158,167785,2,0,P|25:161|-2:159,2,63.7500024318696,2|2|0,0:0|0:0|0:0,0:0:0:0:
205,111,168285,1,8,0:0:0:0:
205,111,168451,1,0,0:0:0:0:
110,250,168618,1,2,0:0:0:0:
110,250,168785,1,0,0:0:0:0:
259,201,168951,6,0,P|340:201|402:219,1,127.500004863739,6|2,0:0|0:0,0:0:0:0:
399,222,169618,2,0,L|391:148,2,42.5000016212464,8|0|0,0:0|0:0|0:0,0:0:0:0:
418,308,169951,1,2,0:0:0:0:
403,320,170285,5,2,0:0:0:0:
388,332,170618,2,0,L|342:337,2,42.5000016212464,2|0|0,0:0|0:0|0:0,0:0:0:0:
500,342,170951,1,8,0:0:0:0:
259,162,171285,6,0,B|245:116|245:116|250:28,1,127.500004863739,2|0,0:0|0:0,0:0:0:0:
257,315,171951,1,2,0:0:0:0:
271,305,172285,2,0,L|319:299,2,42.5000016212464,8|0|0,0:0|0:0|0:0,0:0:0:0:
219,220,172618,2,0,L|262:195,2,42.5000016212464,2|8|8,0:0|0:0|0:0,0:0:0:0:
118,265,172951,6,0,L|63:270,2,42.5000016212464,8|8|8,0:0|0:0|0:0,0:0:0:0:
96,178,173285,2,0,L|30:168,2,42.5000016212464,8|8|8,0:3|0:3|0:3,0:0:0:0:
129,92,173618,2,0,L|71:70,2,42.5000016212464,8|8|8,0:0|0:0|0:0,0:0:0:0:
193,27,173951,2,0,L|153:-4,2,42.5000016212464,8|8|8,0:3|0:3|0:0,0:0:0:0:
278,121,174285,6,0,P|341:126|404:89,1,127.500004863739,6|2,0:0|0:0,0:0:0:0:
381,87,174951,2,0,L|376:28,2,42.5000016212464,8|0|0,0:0|0:0|0:0,0:0:0:0:
388,210,175285,2,0,B|310:222|310:222|265:250,1,127.500004863739,2|2,0:0|0:0,0:0:0:0:
274,268,175951,6,0,L|330:274,2,42.5000016212464,2|0|0,0:0|0:0|0:0,0:0:0:0:
199,212,176285,2,0,P|155:201|70:245,1,127.500004863739,8|2,0:0|0:0,0:0:0:0:
196,29,176951,5,0,0:0:0:0:
208,42,177285,1,0,0:0:0:0:
220,55,177618,2,0,L|285:48,2,33.9999989624024,0|0|0,0:0|0:0|0:0,0:0:0:0:
147,100,177951,2,0,P|132:149|127:197,1,67.9999979248048
