osu file format v14

[General]
AudioFilename: audio.mp3
AudioLeadIn: 0
PreviewTime: 25233
Countdown: 1
SampleSet: Normal
StackLeniency: 0.7
Mode: 0
LetterboxInBreaks: 0
WidescreenStoryboard: 1

[Editor]
DistanceSpacing: 1.1
BeatDivisor: 4
GridSize: 4
TimelineZoom: 1

[Metadata]
Title:Lovely Day
TitleUnicode:Lovely Day
Artist:Apink
ArtistUnicode:Apink
Creator:SteelRev-14
Version:Lovely Day
Source:
Tags:Apink 3rd Mini Album Secret Garden
BeatmapID:964493
BeatmapSetID:449481

[Difficulty]
HPDrainRate:8
CircleSize:5
OverallDifficulty:8
ApproachRate:8.5
SliderMultiplier:1.4
SliderTickRate:1

[Events]
//Background and Video events
0,0,"08.jpg",0,0
//Break Periods
2,107933,121383
//Storyboard Layer 0 (Background)
//Storyboard Layer 1 (Fail)
//Storyboard Layer 2 (Pass)
//Storyboard Layer 3 (Foreground)
//Storyboard Sound Samples

[TimingPoints]
2133,600,4,1,0,100,1,0
26133,-100,4,1,0,100,0,1
28533,-100,4,1,0,100,0,1
30933,-100,4,1,0,100,0,1
33333,-100,4,1,0,100,0,1
35733,-66.6666666666667,4,1,0,100,0,1
36933,-66.6666666666667,4,1,0,100,0,1
38133,-66.6666666666667,4,1,0,100,0,1
39333,-66.6666666666667,4,1,0,100,0,0
47733,-100,4,1,0,100,0,0
71733,-100,4,1,0,100,0,1
74133,-100,4,1,0,100,0,1
76533,-100,4,1,0,100,0,1
78933,-100,4,1,0,100,0,1
81333,-66.6666666666667,4,1,0,100,0,1
82533,-66.6666666666667,4,1,0,100,0,1
83733,-66.6666666666667,4,1,0,100,0,1
84933,-66.6666666666667,4,1,0,100,0,0
90933,-125,4,1,0,100,0,0
107733,-66.6666666666667,4,1,0,100,0,0
122133,-66.6666666666667,4,1,0,100,0,1
122733,-66.6666666666667,4,1,0,100,0,1
123333,-66.6666666666667,4,1,0,100,0,1
129333,-66.6666666666667,4,1,0,100,0,0
131733,-100,4,1,0,100,0,1
134133,-100,4,1,0,100,0,1
136533,-100,4,1,0,100,0,1
138933,-100,4,1,0,100,0,1
141333,-66.6666666666667,4,1,0,100,0,1
142533,-66.6666666666667,4,1,0,100,0,1
143733,-66.6666666666667,4,1,0,100,0,1
144933,-66.6666666666667,4,1,0,100,0,0
150933,-66.6666666666667,4,1,0,100,0,1
153333,-66.6666666666667,4,1,0,100,0,1
155733,-66.6666666666667,4,1,0,100,0,1
158133,-66.6666666666667,4,1,0,100,0,1
160533,-66.6666666666667,4,1,0,100,0,0
167733,-125,4,1,0,100,0,0

[HitObjects]
96,76,2133,5,0,0:0:0:0:
96,307,3033,1,0,0:0:0:0:
404,76,4533,1,0,0:0:0:0:
384,256,6933,1,0,0:0:0:0:
344,116,8733,2,0,P|272:104|224:148,1,140
208,104,11133,2,0,L|168:164,1,70
144,236,11733,1,0,0:0:0:0:
244,176,12333,5,0,0:0:0:0:
312,144,12633,2,0,L|344:212,2,70
252,100,13533,1,0,0:0:0:0:
252,100,13683,1,0,0:0:0:0:
180,76,13983,1,0,0:0:0:0:
112,108,14133,2,0,P|56:184|88:236,1,140
144,224,15033,2,0,P|240:240|256:212,1,140
328,196,15933,5,0,0:0:0:0:
392,152,16233,1,0,0:0:0:0:
444,96,16533,1,0,0:0:0:0:
296,56,17133,1,0,0:0:0:0:
224,80,17433,1,0,0:0:0:0:
224,80,17583,2,0,P|140:136|152:200,1,175
224,244,18633,5,0,0:0:0:0:
216,256,18933,2,0,P|304:272|368:172,1,210
376,108,20133,1,0,0:0:0:0:
376,108,20283,1,0,0:0:0:0:
268,80,20733,1,0,0:0:0:0:
196,104,21033,1,0,0:0:0:0:
132,148,21333,6,0,P|112:216|176:268,1,140
228,284,22233,1,0,0:0:0:0:
228,284,22533,2,0,P|140:268|124:212,1,140
76,168,23433,1,0,0:0:0:0:
108,100,23733,1,0,0:0:0:0:
184,92,24033,5,0,0:0:0:0:
184,92,24183,1,0,0:0:0:0:
256,116,24483,1,0,0:0:0:0:
256,116,24633,1,0,0:0:0:0:
324,148,24933,2,0,P|356:200|336:276,1,140
260,280,25833,1,0,0:0:0:0:
200,232,26133,5,0,0:0:0:0:
116,104,26733,1,0,0:0:0:0:
188,80,27033,1,0,0:0:0:0:
188,80,27183,1,0,0:0:0:0:
304,60,27633,2,0,P|336:84|328:120,1,70
264,140,28233,1,0,0:0:0:0:
196,172,28533,5,0,0:0:0:0:
136,220,28833,1,0,0:0:0:0:
136,220,28983,2,0,P|200:276|232:272,1,105
292,272,29733,1,0,0:0:0:0:
360,240,30033,1,0,0:0:0:0:
376,204,30183,1,0,0:0:0:0:
388,168,30333,1,0,0:0:0:0:
392,128,30483,1,0,0:0:0:0:
380,92,30633,1,0,0:0:0:0:
304,92,30933,5,0,0:0:0:0:
228,100,31233,1,0,0:0:0:0:
228,100,31383,1,0,0:0:0:0:
124,148,31833,2,0,P|104:224|152:272,1,140
212,288,32733,1,0,0:0:0:0:
288,296,33033,1,0,0:0:0:0:
364,284,33333,2,0,P|444:244|428:176,1,140
444,203,34233,1,0,0:0:0:0:
380,164,34533,1,0,0:0:0:0:
308,132,34833,5,0,0:0:0:0:
344,64,35133,1,0,0:0:0:0:
236,100,35433,1,0,0:0:0:0:
120,104,35733,2,0,P|80:152|100:196,1,105.000004005432
148,288,36333,2,0,P|209:313|245:289,1,105.000004005432
272,184,36933,2,0,P|332:236|324:248,1,105.000004005432
220,252,37533,2,0,P|244:296|300:312,1,105.000004005432
340,152,38133,5,0,0:0:0:0:
440,92,38433,1,0,0:0:0:0:
460,264,38733,1,0,0:0:0:0:
348,300,39033,2,0,P|248:268|256:176,1,210.000008010865
412,108,39933,1,0,0:0:0:0:
296,92,40233,5,0,0:0:0:0:
296,92,40383,1,0,0:0:0:0:
184,112,40533,2,0,P|128:176|216:252,1,210.000008010865
276,164,41433,1,0,0:0:0:0:
276,164,41583,1,0,0:0:0:0:
320,124,41733,5,0,0:0:0:0:
420,248,42333,1,0,0:0:0:0:
388,136,42633,1,0,0:0:0:0:
284,84,42933,1,0,0:0:0:0:
168,68,43233,1,0,0:0:0:0:
168,68,43383,1,0,0:0:0:0:
56,104,43683,1,0,0:0:0:0:
56,104,43833,1,0,0:0:0:0:
64,220,44133,6,0,P|184:272|256:248,1,210.000008010865
432,104,45333,2,0,P|368:176|348:92,1,210.000008010865
296,80,46533,2,0,P|224:100|288:188,1,210.000008010865
404,272,47733,2,0,P|336:320|280:288,1,140
220,268,48633,1,0,0:0:0:0:
220,268,48783,1,0,0:0:0:0:
148,244,49233,5,0,0:0:0:0:
80,208,49533,1,0,0:0:0:0:
80,208,49683,1,0,0:0:0:0:
120,100,50133,2,0,B|196:104|196:104|248:156,1,140
320,148,51033,1,0,0:0:0:0:
320,148,51183,1,0,0:0:0:0:
388,240,51633,1,0,0:0:0:0:
328,288,51933,1,0,0:0:0:0:
328,288,52083,1,0,0:0:0:0:
212,288,52533,6,0,B|128:264|128:264|112:212,1,140
108,136,53433,1,0,0:0:0:0:
108,136,53583,1,0,0:0:0:0:
212,84,54033,1,0,0:0:0:0:
288,64,54333,1,0,0:0:0:0:
288,64,54483,1,0,0:0:0:0:
384,124,54933,5,0,0:0:0:0:
428,188,55233,1,0,0:0:0:0:
428,188,55383,1,0,0:0:0:0:
408,260,55683,1,0,0:0:0:0:
352,312,55983,2,0,P|232:336|192:280,1,175
144,260,57033,5,0,0:0:0:0:
96,200,57333,1,0,0:0:0:0:
196,84,57933,1,0,0:0:0:0:
312,68,58233,1,0,0:0:0:0:
312,68,58383,1,0,0:0:0:0:
420,108,58833,2,0,B|464:208|464:208|388:280,1,210
316,272,60033,5,0,0:0:0:0:
240,276,60333,1,0,0:0:0:0:
168,248,60633,1,0,0:0:0:0:
168,248,60783,1,0,0:0:0:0:
128,180,61233,1,0,0:0:0:0:
164,112,61533,5,0,0:0:0:0:
164,112,61683,1,0,0:0:0:0:
272,68,62133,2,0,B|328:64|328:64|364:156,1,140
432,164,63033,1,0,0:0:0:0:
432,164,63183,1,0,0:0:0:0:
412,240,63633,1,0,0:0:0:0:
348,280,63933,1,0,0:0:0:0:
272,284,64233,1,0,0:0:0:0:
196,280,64533,6,0,B|112:264|112:264|108:192,1,140
164,156,65433,1,0,0:0:0:0:
164,156,65583,1,0,0:0:0:0:
228,112,65883,1,0,0:0:0:0:
296,72,66183,1,0,0:0:0:0:
296,72,66333,1,0,0:0:0:0:
372,88,66633,6,0,B|436:132|448:140|448:144|448:144,1,70
400,200,67233,1,0,0:0:0:0:
400,200,67383,1,0,0:0:0:0:
356,264,67683,1,0,0:0:0:0:
252,316,68133,1,0,0:0:0:0:
156,252,68583,5,0,0:0:0:0:
128,224,68733,1,0,0:0:0:0:
108,192,68883,1,0,0:0:0:0:
100,156,69033,1,0,0:0:0:0:
112,80,69333,1,0,0:0:0:0:
176,40,69633,1,0,0:0:0:0:
288,72,70083,6,0,B|336:96|336:96|312:156,1,105
260,196,70833,1,0,0:0:0:0:
312,256,71133,1,0,0:0:0:0:
384,284,71433,1,0,0:0:0:0:
448,240,71733,2,0,P|464:156|420:116,1,140
356,96,72633,5,0,0:0:0:0:
356,96,72783,1,0,0:0:0:0:
240,92,73233,1,0,0:0:0:0:
204,108,73383,1,0,0:0:0:0:
180,136,73533,1,0,0:0:0:0:
164,172,73683,1,0,0:0:0:0:
152,208,73833,1,0,0:0:0:0:
188,276,74133,5,0,0:0:0:0:
296,240,74733,1,0,0:0:0:0:
368,208,75033,1,0,0:0:0:0:
368,208,75183,1,0,0:0:0:0:
356,132,75633,5,0,0:0:0:0:
344,96,75783,1,0,0:0:0:0:
312,76,75933,1,0,0:0:0:0:
276,88,76083,1,0,0:0:0:0:
252,120,76233,1,0,0:0:0:0:
224,192,76533,2,0,P|172:248|108:240,1,140
76,176,77433,5,0,0:0:0:0:
76,176,77583,1,0,0:0:0:0:
116,108,78033,1,0,0:0:0:0:
180,64,78333,1,0,0:0:0:0:
256,64,78633,2,0,P|324:76|328:96,1,70
360,132,79233,1,0,0:0:0:0:
432,152,79533,1,0,0:0:0:0:
388,244,79833,5,0,0:0:0:0:
316,272,80133,1,0,0:0:0:0:
276,208,80433,1,0,0:0:0:0:
204,300,80733,1,0,0:0:0:0:
140,52,81333,5,0,0:0:0:0:
368,320,81633,1,0,0:0:0:0:
208,36,81933,1,0,0:0:0:0:
300,336,82233,1,0,0:0:0:0:
276,36,82533,1,0,0:0:0:0:
232,336,82833,1,0,0:0:0:0:
336,72,83133,1,0,0:0:0:0:
176,296,83433,1,0,0:0:0:0:
388,196,83733,1,0,0:0:0:0:
112,196,84033,5,0,0:0:0:0:
256,192,84333,1,0,0:0:0:0:
368,168,84633,2,0,P|476:216|496:308,1,210.000008010865
384,312,85533,1,0,0:0:0:0:
268,308,85833,1,0,0:0:0:0:
228,268,85983,1,0,0:0:0:0:
200,216,86133,1,0,0:0:0:0:
184,160,86283,1,0,0:0:0:0:
188,104,86433,1,0,0:0:0:0:
296,64,86733,5,0,0:0:0:0:
416,80,87033,5,0,0:0:0:0:
448,128,87183,1,0,0:0:0:0:
452,184,87333,1,0,0:0:0:0:
436,240,87483,1,0,0:0:0:0:
404,288,87633,1,0,0:0:0:0:
288,300,87933,5,0,0:0:0:0:
188,244,88233,2,0,B|144:176|140:92|140:92|256:92,1,262.500010013581
241,92,89133,1,0,0:0:0:0:
352,120,89433,1,0,0:0:0:0:
420,212,89733,1,0,0:0:0:0:
356,308,90033,2,0,P|188:304|160:248,1,210.000008010865
120,256,90933,6,0,P|120:208|160:136,1,112
248,76,92133,2,0,P|300:92|328:160,1,112
236,220,93333,2,0,P|288:268|336:292,1,112
448,288,94533,2,0,P|520:248|524:208,1,112
448,128,95733,2,0,P|392:100|340:136,1,112
260,108,96783,5,0,0:0:0:0:
260,108,96933,1,0,0:0:0:0:
208,140,97233,1,0,0:0:0:0:
172,188,97533,1,0,0:0:0:0:
156,248,97833,2,0,B|184:320|180:312,1,56
236,304,98433,6,0,L|292:280,1,56
328,236,99033,2,0,L|280:208,1,56
220,196,99633,2,0,L|276:184,1,56
344,96,100233,2,0,L|292:72,1,56
172,80,101133,5,0,0:0:0:0:
296,92,101733,1,0,0:0:0:0:
412,180,102333,1,0,0:0:0:0:
452,296,102933,1,0,0:0:0:0:
328,312,103533,1,0,0:0:0:0:
216,260,104133,5,0,0:0:0:0:
116,188,104733,1,0,0:0:0:0:
184,84,105333,2,0,P|240:112|260:160,1,112
136,140,106533,2,0,P|188:200|240:204,1,112
408,76,107733,5,0,0:0:0:0:
168,116,122133,6,0,P|256:88|352:148,1,210.000008010865
352,128,123333,2,0,P|316:196|192:200,1,210.000008010865
194,201,124533,1,0,0:0:0:0:
292,260,124833,1,0,0:0:0:0:
408,260,125133,1,0,0:0:0:0:
496,184,125433,2,0,B|416:104|416:104|328:160,1,210.000008010865
220,144,126333,5,0,0:0:0:0:
140,228,126633,1,0,0:0:0:0:
180,268,126783,1,0,0:0:0:0:
232,292,126933,1,0,0:0:0:0:
288,292,127083,1,0,0:0:0:0:
344,272,127233,1,0,0:0:0:0:
424,188,127533,5,0,0:0:0:0:
384,80,127833,5,0,0:0:0:0:
336,48,127983,1,0,0:0:0:0:
280,36,128133,1,0,0:0:0:0:
224,36,128283,1,0,0:0:0:0:
168,56,128433,1,0,0:0:0:0:
100,148,128733,1,0,0:0:0:0:
56,256,129033,1,0,0:0:0:0:
164,296,129333,1,0,0:0:0:0:
280,296,129633,6,0,B|368:292|368:292|364:248,1,105.000004005432
366,275,130083,1,0,0:0:0:0:
384,160,130533,1,0,0:0:0:0:
300,80,130833,1,0,0:0:0:0:
184,96,131133,2,0,B|52:128|52:128|76:224,1,210.000008010865
208,264,132333,1,0,0:0:0:0:
284,244,132633,5,0,0:0:0:0:
284,244,132783,1,0,0:0:0:0:
388,192,133233,1,0,0:0:0:0:
388,152,133383,1,0,0:0:0:0:
360,124,133533,1,0,0:0:0:0:
328,104,133683,1,0,0:0:0:0:
292,96,133833,1,0,0:0:0:0:
216,108,134133,6,0,P|128:148|132:184,1,140
72,228,135033,1,0,0:0:0:0:
72,228,135183,1,0,0:0:0:0:
176,276,135633,5,0,0:0:0:0:
212,292,135783,1,0,0:0:0:0:
248,304,135933,1,0,0:0:0:0:
288,300,136083,1,0,0:0:0:0:
328,296,136233,1,0,0:0:0:0:
388,248,136533,6,0,B|428:160|428:160|368:152,1,140
332,100,137433,1,0,0:0:0:0:
332,100,137583,1,0,0:0:0:0:
216,120,138033,2,0,B|176:124|176:124|176:128|180:156,1,70
104,164,138633,1,0,0:0:0:0:
56,224,138933,1,0,0:0:0:0:
124,264,139233,1,0,0:0:0:0:
200,268,139533,5,0,0:0:0:0:
276,252,139833,1,0,0:0:0:0:
276,252,139983,1,0,0:0:0:0:
336,204,140433,2,0,L|404:152,1,70
56,64,141333,5,0,0:0:0:0:
445,62,141633,1,0,0:0:0:0:
132,64,141933,1,0,0:0:0:0:
368,64,142233,1,0,0:0:0:0:
208,64,142533,1,0,0:0:0:0:
296,64,142833,1,0,0:0:0:0:
208,64,143133,1,0,0:0:0:0:
368,64,143433,1,0,0:0:0:0:
136,60,143733,5,0,0:0:0:0:
440,64,144033,1,0,0:0:0:0:
72,60,144333,1,0,0:0:0:0:
256,56,144633,2,0,B|336:144|336:144|256:224,1,210.000008010865
172,268,145533,5,0,0:0:0:0:
284,292,145833,1,0,0:0:0:0:
340,304,145983,1,0,0:0:0:0:
392,284,146133,1,0,0:0:0:0:
436,244,146283,1,0,0:0:0:0:
476,200,146433,1,0,0:0:0:0:
424,96,146733,5,0,0:0:0:0:
312,64,147033,1,0,0:0:0:0:
256,72,147183,1,0,0:0:0:0:
208,104,147333,1,0,0:0:0:0:
168,148,147483,1,0,0:0:0:0:
148,200,147633,1,0,0:0:0:0:
88,296,147933,5,0,0:0:0:0:
204,288,148233,1,0,0:0:0:0:
308,236,148533,2,0,B|396:188|396:188|364:136,1,157.500006008148
365,139,149133,1,0,0:0:0:0:
256,104,149433,1,0,0:0:0:0:
140,96,149733,2,0,P|56:172|72:264,1,210.000008010865
292,316,150933,6,0,B|184:276|168:272|168:272|200:192,1,210.000008010865
197,199,152133,2,0,B|256:112|256:112|348:168,1,210.000008010865
376,184,153333,2,0,B|300:288|300:288|224:240,1,210.000008010865
232,272,154533,2,0,B|120:240|120:240|144:148,1,210.000008010865
148,116,155733,2,0,B|264:48|264:48|316:104,1,210.000008010865
336,80,156933,2,0,B|444:120|444:120|404:216,1,210.000008010865
200,108,158133,5,0,0:0:0:0:
412,204,158733,1,0,0:0:0:0:
180,220,159333,1,0,0:0:0:0:
84,156,159633,1,0,0:0:0:0:
164,72,159933,1,0,0:0:0:0:
396,68,160533,5,0,0:0:0:0:
280,176,160833,1,0,0:0:0:0:
340,120,161133,1,0,0:0:0:0:
176,280,161433,1,0,0:0:0:0:
236,220,161733,1,0,0:0:0:0:
140,68,162033,1,0,0:0:0:0:
256,180,162333,1,0,0:0:0:0:
196,124,162633,5,0,0:0:0:0:
376,284,162933,1,0,0:0:0:0:
316,228,163233,1,0,0:0:0:0:
232,148,163533,2,0,B|164:96|164:96|120:144,1,105.000004005432
4,288,164433,1,0,0:0:0:0:
120,88,165033,5,0,0:0:0:0:
156,132,165183,1,0,0:0:0:0:
208,160,165333,1,0,0:0:0:0:
264,176,165483,1,0,0:0:0:0:
320,164,165633,1,0,0:0:0:0:
424,116,165933,1,0,0:0:0:0:
500,204,166233,5,0,0:0:0:0:
460,244,166383,1,0,0:0:0:0:
412,276,166533,1,0,0:0:0:0:
360,296,166683,1,0,0:0:0:0:
304,296,166833,1,0,0:0:0:0:
192,276,167133,1,0,0:0:0:0:
132,168,167733,6,0,P|200:104|240:104,1,112
336,84,168933,1,0,0:0:0:0:
256,192,169533,12,0,179733,0:0:0:0:
