osu file format v14

[General]
AudioFilename: audio.mp3
AudioLeadIn: 0
PreviewTime: 25233
Countdown: 1
SampleSet: Normal
StackLeniency: 0.7
Mode: 0
LetterboxInBreaks: 0
WidescreenStoryboard: 0

[Editor]
DistanceSpacing: 1.1
BeatDivisor: 4
GridSize: 4
TimelineZoom: 1

[Metadata]
Title:Lovely Day
TitleUnicode:Lovely Day
Artist:Apink
ArtistUnicode:Apink
Creator:SteelRev-14
Version:Hard
Source:
Tags:Apink 3rd Mini Album Secret Garden
BeatmapID:964492
BeatmapSetID:449481

[Difficulty]
HPDrainRate:8
CircleSize:4.2
OverallDifficulty:8
ApproachRate:8
SliderMultiplier:1.4
SliderTickRate:1

[Events]
//Background and Video events
0,0,"08.jpg",0,0
//Break Periods
2,107933,121383
//Storyboard Layer 0 (Background)
//Storyboard Layer 1 (Fail)
//Storyboard Layer 2 (Pass)
//Storyboard Layer 3 (Foreground)
//Storyboard Sound Samples

[TimingPoints]
2133,600,4,1,0,100,1,0
26133,-100,4,1,0,100,0,1
28533,-100,4,1,0,100,0,1
30933,-100,4,1,0,100,0,1
33333,-100,4,1,0,100,0,1
35733,-66.6666666666667,4,1,0,100,0,1
36933,-66.6666666666667,4,1,0,100,0,1
38133,-66.6666666666667,4,1,0,100,0,1
39333,-66.6666666666667,4,1,0,100,0,0
47733,-100,4,1,0,100,0,0
71733,-100,4,1,0,100,0,1
74133,-100,4,1,0,100,0,1
76533,-100,4,1,0,100,0,1
78933,-100,4,1,0,100,0,1
81333,-66.6666666666667,4,1,0,100,0,1
82533,-66.6666666666667,4,1,0,100,0,1
83733,-66.6666666666667,4,1,0,100,0,1
84933,-66.6666666666667,4,1,0,100,0,0
90933,-125,4,1,0,100,0,0
107733,-66.6666666666667,4,1,0,100,0,0
122133,-66.6666666666667,4,1,0,100,0,1
122733,-66.6666666666667,4,1,0,100,0,1
123333,-66.6666666666667,4,1,0,100,0,1
129333,-66.6666666666667,4,1,0,100,0,0
131733,-100,4,1,0,100,0,1
134133,-100,4,1,0,100,0,1
136533,-100,4,1,0,100,0,1
138933,-100,4,1,0,100,0,1
141333,-66.6666666666667,4,1,0,100,0,1
142533,-66.6666666666667,4,1,0,100,0,1
143733,-66.6666666666667,4,1,0,100,0,1
144933,-66.6666666666667,4,1,0,100,0,0
150933,-66.6666666666667,4,1,0,100,0,1
153333,-66.6666666666667,4,1,0,100,0,1
155733,-66.6666666666667,4,1,0,100,0,1
158133,-66.6666666666667,4,1,0,100,0,1
160533,-66.6666666666667,4,1,0,100,0,0
167733,-125,4,1,0,100,0,0

[HitObjects]
72,68,2133,5,0,0:0:0:0:
240,164,3033,1,0,0:0:0:0:
424,60,4533,1,0,0:0:0:0:
136,280,6933,1,0,0:0:0:0:
368,280,9333,1,0,0:0:0:0:
76,148,11733,6,0,P|156:100|176:120,2,140
228,168,13533,1,0,0:0:0:0:
336,60,14133,2,0,P|404:104|408:160,2,140
184,80,15933,1,0,0:0:0:0:
76,192,16533,1,0,0:0:0:0:
192,296,17133,6,0,P|284:316|304:284,2,140
336,240,18933,1,0,0:0:0:0:
196,152,20133,1,0,0:0:0:0:
76,248,20733,2,0,P|156:288|204:272,1,140
88,72,22533,5,0,0:0:0:0:
324,272,23733,2,0,P|388:176|284:68,1,280
228,144,25533,1,0,0:0:0:0:
360,64,26133,1,0,0:0:0:0:
148,120,26733,2,0,P|104:204|112:252,1,140
180,280,27633,1,0,0:0:0:0:
216,292,27783,1,0,0:0:0:0:
252,284,27933,1,0,0:0:0:0:
284,264,28083,1,0,0:0:0:0:
312,236,28233,1,0,0:0:0:0:
352,168,28533,6,0,P|320:92|264:84,1,140
196,104,29433,1,0,0:0:0:0:
108,180,30033,1,0,0:0:0:0:
132,208,30183,1,0,0:0:0:0:
164,228,30333,1,0,0:0:0:0:
200,236,30483,1,0,0:0:0:0:
240,236,30633,1,0,0:0:0:0:
316,220,30933,6,0,P|400:180|400:136,2,140
168,172,32733,1,0,0:0:0:0:
300,92,33333,1,0,0:0:0:0:
376,224,33933,1,0,0:0:0:0:
228,268,34533,2,0,P|152:280|128:232,1,140
120,64,35733,5,0,0:0:0:0:
352,64,36033,1,0,0:0:0:0:
120,136,36333,1,0,0:0:0:0:
352,136,36633,1,0,0:0:0:0:
120,64,36933,1,0,0:0:0:0:
352,64,37233,1,0,0:0:0:0:
120,140,37533,1,0,0:0:0:0:
304,140,37833,1,0,0:0:0:0:
308,76,38133,1,0,0:0:0:0:
308,76,38433,1,0,0:0:0:0:
400,144,38733,1,0,0:0:0:0:
160,68,39033,2,0,P|264:72|288:160,1,210.000008010865
368,244,39933,1,0,0:0:0:0:
168,128,40533,5,0,0:0:0:0:
348,272,41133,1,0,0:0:0:0:
116,284,41733,2,0,P|128:128|160:116,2,210.000008010865
272,116,43533,1,0,0:0:0:0:
108,276,44133,1,0,0:0:0:0:
276,116,44733,2,0,P|360:184|320:264,1,210.000008010865
92,288,45933,5,0,0:0:0:0:
192,80,46533,1,0,0:0:0:0:
412,156,47133,1,0,0:0:0:0:
348,296,47733,2,0,P|248:256|236:228,2,140
220,208,49533,1,0,0:0:0:0:
112,96,50133,1,0,0:0:0:0:
264,76,50733,2,0,P|356:144|356:160,2,140
412,116,52533,5,0,0:0:0:0:
332,248,53133,1,0,0:0:0:0:
180,280,53733,1,0,0:0:0:0:
92,156,54333,2,0,P|184:128|208:152,1,140
320,252,55533,1,0,0:0:0:0:
416,132,56133,1,0,0:0:0:0:
276,64,56733,1,0,0:0:0:0:
132,120,57333,6,0,P|96:208|120:232,1,140
180,276,58233,1,0,0:0:0:0:
148,124,58833,2,0,P|224:100|260:144,1,140
336,140,59733,1,0,0:0:0:0:
368,292,60333,1,0,0:0:0:0:
216,272,60933,1,0,0:0:0:0:
152,132,61533,2,0,P|236:108|272:144,1,140
376,248,62733,5,0,0:0:0:0:
268,136,63333,1,0,0:0:0:0:
372,248,63933,1,0,0:0:0:0:
264,136,64533,2,0,P|148:148|164:288,1,280
312,280,66333,1,0,0:0:0:0:
416,72,66933,5,0,0:0:0:0:
144,288,68133,1,0,0:0:0:0:
360,288,69333,1,0,0:0:0:0:
392,216,69633,2,0,P|340:116|248:128,1,210
100,124,71133,5,0,0:0:0:0:
148,272,71733,1,0,0:0:0:0:
300,304,72333,2,0,P|380:288|384:240,1,140
372,164,73233,1,0,0:0:0:0:
348,132,73383,1,0,0:0:0:0:
316,112,73533,1,0,0:0:0:0:
280,104,73683,1,0,0:0:0:0:
240,100,73833,1,0,0:0:0:0:
176,140,74133,6,0,P|112:200|112:252,1,140
184,268,75033,1,0,0:0:0:0:
336,260,75633,1,0,0:0:0:0:
364,232,75783,1,0,0:0:0:0:
380,196,75933,1,0,0:0:0:0:
384,156,76083,1,0,0:0:0:0:
376,120,76233,1,0,0:0:0:0:
308,84,76533,6,0,P|212:76|192:112,1,140
136,152,77433,1,0,0:0:0:0:
208,288,78033,1,0,0:0:0:0:
280,264,78333,1,0,0:0:0:0:
224,212,78633,1,0,0:0:0:0:
300,192,78933,2,0,P|392:164|392:132,1,140
316,124,79833,5,0,0:0:0:0:
168,88,80433,1,0,0:0:0:0:
112,140,80733,1,0,0:0:0:0:
396,308,81333,1,0,0:0:0:0:
272,328,81633,1,0,0:0:0:0:
152,296,81933,1,0,0:0:0:0:
64,224,82233,1,0,0:0:0:0:
88,108,82533,1,0,0:0:0:0:
200,56,82833,5,0,0:0:0:0:
328,80,83133,1,0,0:0:0:0:
416,136,83433,1,0,0:0:0:0:
496,216,83733,1,0,0:0:0:0:
380,260,84033,1,0,0:0:0:0:
220,160,84333,6,0,P|156:168|152:204,1,105.000004005432
124,304,85233,1,0,0:0:0:0:
220,240,85533,1,0,0:0:0:0:
396,92,86133,1,0,0:0:0:0:
164,92,86733,1,0,0:0:0:0:
395,92,87333,1,0,0:0:0:0:
172,156,87933,6,0,P|152:260|236:304,1,210.000008010865
368,120,89133,1,0,0:0:0:0:
140,92,89733,1,0,0:0:0:0:
296,264,90333,1,0,0:0:0:0:
392,188,90933,6,0,L|312:104,1,112
191,106,92133,2,0,L|116:192,1,112
208,272,93333,2,0,L|328:248,1,112
436,208,94533,2,0,L|316:144,1,112
228,96,95733,1,0,0:0:0:0:
124,164,96333,1,0,0:0:0:0:
208,256,96933,5,0,0:0:0:0:
208,164,97533,1,0,0:0:0:0:
292,72,98133,1,0,0:0:0:0:
404,128,98733,2,0,L|460:240,1,112
352,296,99933,2,0,L|228:296,1,112
128,248,101133,2,0,L|60:144,1,112
148,60,102333,2,0,L|248:120,1,112
252,240,103533,5,0,0:0:0:0:
360,180,104133,1,0,0:0:0:0:
316,64,104733,1,0,0:0:0:0:
192,76,105333,1,0,0:0:0:0:
308,124,105933,6,0,P|368:168|356:180,2,112
80,84,107733,5,0,0:0:0:0:
396,88,122133,5,0,0:0:0:0:
168,64,122733,1,0,0:0:0:0:
8,232,123333,1,0,0:0:0:0:
236,264,123933,2,0,P|368:260|408:200,1,210.000008010865
348,104,124833,1,0,0:0:0:0:
232,88,125133,1,0,0:0:0:0:
144,164,125433,2,0,P|192:280|288:288,1,210.000008010865
200,200,126333,5,0,0:0:0:0:
392,68,126933,1,0,0:0:0:0:
300,280,127533,1,0,0:0:0:0:
388,76,128133,1,0,0:0:0:0:
160,96,128733,2,0,P|120:184|192:260,1,210.000008010865
324,72,129933,5,0,0:0:0:0:
412,120,130533,1,0,0:0:0:0:
472,192,131133,1,0,0:0:0:0:
344,104,131733,2,0,P|252:104|216:160,1,140
104,232,132933,1,0,0:0:0:0:
172,268,133233,5,0,0:0:0:0:
208,284,133383,1,0,0:0:0:0:
244,292,133533,1,0,0:0:0:0:
280,280,133683,1,0,0:0:0:0:
308,252,133833,1,0,0:0:0:0:
320,176,134133,2,0,P|284:96|236:100,1,140
168,100,135033,5,0,0:0:0:0:
72,164,135633,1,0,0:0:0:0:
56,200,135783,1,0,0:0:0:0:
64,240,135933,1,0,0:0:0:0:
88,272,136083,1,0,0:0:0:0:
124,288,136233,1,0,0:0:0:0:
196,256,136533,2,0,P|252:200|328:196,1,140
356,128,137433,5,0,0:0:0:0:
248,88,138033,1,0,0:0:0:0:
172,96,138333,1,0,0:0:0:0:
108,140,138933,2,0,P|56:200|64:260,1,140
136,284,139833,1,0,0:0:0:0:
208,308,140133,1,0,0:0:0:0:
284,304,140433,1,0,0:0:0:0:
340,252,140733,1,0,0:0:0:0:
104,76,141333,5,0,0:0:0:0:
347,77,141633,1,0,0:0:0:0:
105,172,141933,1,0,0:0:0:0:
341,173,142233,1,0,0:0:0:0:
105,261,142533,1,0,0:0:0:0:
340,260,142833,1,0,0:0:0:0:
104,168,143133,1,0,0:0:0:0:
340,168,143433,1,0,0:0:0:0:
104,64,143733,1,0,0:0:0:0:
104,64,144033,1,0,0:0:0:0:
220,56,144333,6,0,P|268:88|284:136,1,105.000004005432
376,140,145233,1,0,0:0:0:0:
436,240,145533,1,0,0:0:0:0:
292,60,146133,2,0,P|188:88|144:176,1,210.000008010865
356,264,147333,2,0,P|416:176|408:76,1,210.000008010865
292,80,148233,1,0,0:0:0:0:
176,80,148533,2,0,P|112:168|156:252,1,210.000008010865
268,264,149433,5,0,0:0:0:0:
376,220,149733,6,0,P|304:112|220:120,1,210.000008010865
168,72,150933,1,0,0:0:0:0:
84,148,151533,1,0,0:0:0:0:
316,144,152133,1,0,0:0:0:0:
132,284,152733,1,0,0:0:0:0:
364,276,153333,1,0,0:0:0:0:
436,212,153933,2,0,P|352:128|260:136,1,210.000008010865
248,116,155133,6,0,P|180:160|168:284,1,210.000008010865
336,124,156333,1,0,0:0:0:0:
108,156,156933,1,0,0:0:0:0:
324,72,157533,1,0,0:0:0:0:
96,112,158133,1,0,0:0:0:0:
324,152,158733,2,0,P|340:256|252:304,1,210.000008010865
156,260,159633,1,0,0:0:0:0:
100,160,159933,1,0,0:0:0:0:
328,112,160533,5,0,0:0:0:0:
228,172,160833,1,0,0:0:0:0:
344,156,161133,1,0,0:0:0:0:
228,140,161433,1,0,0:0:0:0:
336,184,161733,1,0,0:0:0:0:
248,108,162033,1,0,0:0:0:0:
308,208,162333,1,0,0:0:0:0:
280,96,162633,1,0,0:0:0:0:
336,196,162933,1,0,0:0:0:0:
336,196,163233,1,0,0:0:0:0:
232,144,163533,6,0,P|144:124|124:144,1,105.000004005432
104,168,164433,1,0,0:0:0:0:
100,284,164733,1,0,0:0:0:0:
324,336,165333,2,0,P|384:260|336:164,1,210.000008010865
280,92,166533,2,0,P|192:84|116:168,1,210.000008010865
236,200,167733,1,0,0:0:0:0:
332,124,168333,1,0,0:0:0:0:
216,88,168933,1,0,0:0:0:0:
112,152,169533,1,0,0:0:0:0:
256,192,169833,12,0,179733,0:0:0:0:
