osu file format v14

[General]
AudioFilename: audio.mp3
AudioLeadIn: 0
PreviewTime: 33629
Countdown: 0
SampleSet: Soft
StackLeniency: 0.5
Mode: 0
LetterboxInBreaks: 0
WidescreenStoryboard: 1

[Editor]
DistanceSpacing: 1.2
BeatDivisor: 4
GridSize: 4
TimelineZoom: 1

[Metadata]
Title:%%
TitleUnicode:응응
Artist:Apink
ArtistUnicode:에이핑크
Creator:P A N
Version:Hard
Source:
Tags:percent chorong bomi eunji naeun hayoung namjoo p_a_n
BeatmapID:1896527
BeatmapSetID:908066

[Difficulty]
HPDrainRate:5
CircleSize:4
OverallDifficulty:6
ApproachRate:7
SliderMultiplier:1.6
SliderTickRate:1

[Events]
//Background and Video events
0,0,"Apink_Eung_Eung_Naeun_5.jpg",0,0
//Break Periods
2,86708,97394
2,152915,165256
2,194908,196084
2,201528,202705
//Storyboard Layer 0 (Background)
//Storyboard Layer 1 (Fail)
//Storyboard Layer 2 (Pass)
//Storyboard Layer 3 (Foreground)
//Storyboard Sound Samples

[TimingPoints]
5605,413.793103448276,4,2,1,70,1,0
20501,-133.333333333333,4,2,1,50,0,0
32087,-100,4,2,1,70,0,0
46984,-133.333333333333,4,2,1,50,0,0
53605,-100,4,2,1,70,0,0
59191,-266.6666666666,4,2,1,70,0,0
60225,-100,4,2,1,70,0,1
73467,-263.157894736842,4,2,1,70,0,0
73880,-100,4,2,1,70,0,1
80087,-263.157894736842,4,2,1,70,0,0
80501,-100,4,2,1,70,0,1
85053,-100,4,2,1,70,0,0
113191,-133.333333333333,4,2,1,50,0,0
119811,-100,4,2,1,70,0,0
125398,-263.157894736842,4,2,1,70,0,0
126432,-100,4,2,1,70,0,1
139673,-263.157894736842,4,2,1,70,0,0
140087,-100,4,2,1,70,0,1
146294,-263.157894736842,4,2,1,70,0,0
146708,-100,4,2,1,70,0,1
151260,-100,4,2,1,70,0,0
166156,-100,4,2,1,50,0,0
171432,-133.333333333333,4,2,1,50,0,0
172777,-100,4,2,1,70,0,0
179398,-100,4,2,1,30,0,0
180225,-100,4,2,1,40,0,0
181053,-100,4,2,1,70,0,1
181363,-100,4,2,1,5,0,1
181467,-100,4,2,1,70,0,1
183639,-100,4,2,1,5,0,1
183742,-100,4,2,1,70,0,1
184260,-100,4,2,1,5,0,1
184363,-100,4,2,1,70,0,1
184673,-100,4,2,1,5,0,1
184777,-100,4,2,1,70,0,1
186949,-100,4,2,1,5,0,1
187053,-100,4,2,1,70,0,1
187570,-100,4,2,1,5,0,1
187673,-100,4,2,1,70,0,1
187984,-100,4,2,1,5,0,1
188087,-100,4,2,1,70,0,1
190260,-100,4,2,1,5,0,1
190363,-100,4,2,1,70,0,1
190880,-100,4,2,1,5,0,1
190984,-100,4,2,1,70,0,1
193467,-100,4,2,1,70,0,0
194294,-133.333333333333,4,2,1,70,0,0

[Colours]
Combo1 : 255,0,128
Combo2 : 255,187,255
Combo3 : 128,0,255

[HitObjects]
385,66,5605,5,8,2:0:0:0:
418,147,5811,1,8,2:0:0:0:
330,137,6018,1,8,2:0:0:0:
318,224,6225,1,8,2:0:0:0:
245,173,6432,2,0,L|194:185,2,53.3333333333333,8|8|8,2:0|2:0|2:0,0:0:0:0:
245,113,6846,2,0,L|191:103,2,53.3333333333333,8|8|8,2:0|2:0|2:0,0:0:0:0:
297,140,7260,6,0,P|344:134|391:105,1,80,6|0,2:0|0:0,0:0:0:0:
421,46,7673,1,8,0:0:0:0:
461,124,7880,2,0,B|476:163|476:163|468:286,1,160,2|0,0:0|0:0,0:0:0:0:
415,351,8501,1,8,0:0:0:0:
329,330,8708,6,0,P|286:281|283:178,1,160,2|0,0:0|0:0,0:0:0:0:
343,129,9329,1,8,0:0:0:0:
280,67,9536,2,0,P|241:55|192:60,1,80,2|0,0:0|0:0,0:0:0:0:
114,61,9949,1,2,0:0:0:0:
74,139,10156,2,0,L|85:262,1,120,8|0,0:0|0:0,0:0:0:0:
67,299,10570,6,0,P|107:288|153:296,1,80,2|0,0:0|0:0,0:0:0:0:
209,353,10984,1,8,0:0:0:0:
234,268,11191,2,0,B|229:203|229:203|213:182|213:182|209:109,1,160,2|0,0:0|0:0,0:0:0:0:
131,71,11811,1,8,0:0:0:0:
208,28,12018,6,0,P|271:51|286:146,1,160,2|0,0:0|0:0,0:0:0:0:
221,190,12639,1,8,0:0:0:0:
301,226,12846,2,0,L|383:220,1,80,2|0,0:0|0:0,0:0:0:0:
431,147,13260,1,2,0:0:0:0:
467,226,13467,2,0,L|461:346,1,120,8|0,0:0|0:0,0:0:0:0:
426,372,13880,6,0,P|386:376|342:361,1,80,4|0,0:0|0:0,0:0:0:0:
266,331,14294,1,8,0:0:0:0:
235,248,14501,2,0,P|215:176|238:86,1,160,2|0,0:0|0:0,0:0:0:0:
312,54,15122,1,8,0:0:0:0:
389,96,15329,6,0,P|407:173|387:249,1,160,2|0,0:0|0:0,0:0:0:0:
309,290,15949,1,8,0:0:0:0:
235,248,16156,2,0,P|196:247|155:258,1,80,2|0,0:0|0:0,0:0:0:0:
102,327,16570,1,2,0:0:0:0:
30,276,16777,2,0,P|14:211|24:149,1,120,8|0,0:0|0:0,0:0:0:0:
36,117,17191,6,0,L|128:125,1,80,2|0,0:0|0:0,0:0:0:0:
193,82,17605,1,8,0:0:0:0:
271,43,17811,2,0,L|363:51,1,80,2|0,0:0|0:0,0:0:0:0:
435,23,18225,1,0,0:0:0:0:
418,109,18432,1,8,0:0:0:0:
386,282,18846,5,8,0:0:0:0:
404,195,19053,1,8,0:0:0:0:
317,177,19260,1,8,0:0:0:0:
300,263,19467,1,2,0:0:0:0:
109,108,20087,5,0,0:0:0:0:
121,180,20294,1,0,0:0:0:0:
181,137,20501,5,0,0:0:0:0:
181,137,20915,2,0,P|239:148|304:126,1,120.000004577637,0|0,0:0|0:0,0:0:0:0:
360,96,21536,1,0,0:0:0:0:
431,89,21742,1,0,0:0:0:0:
495,121,21949,1,0,0:0:0:0:
508,191,22156,6,0,B|497:285|497:285|475:267,1,120.000004577637,0|0,0:0|0:0,0:0:0:0:
410,242,22777,1,0,0:0:0:0:
339,258,22984,2,0,P|326:316|347:380,1,120.000004577637,0|0,0:0|0:0,0:0:0:0:
198,371,23811,6,0,P|214:313|201:256,1,120.000004577637,0|0,0:0|0:0,0:0:0:0:
339,258,24639,2,0,P|326:316|347:380,1,120.000004577637,0|0,0:0|0:0,0:0:0:0:
198,371,25467,6,0,P|214:313|201:256,1,120.000004577637,0|0,0:0|0:0,0:0:0:0:
91,162,26294,2,0,L|-1:169,2,90.0000034332277,0|0|0,0:0|0:0|0:0,0:0:0:0:
139,108,27122,6,0,P|206:98|263:122,1,120.000004577637,0|0,0:0|0:0,0:0:0:0:
383,178,27949,1,0,0:0:0:0:
454,170,28156,1,0,0:0:0:0:
483,235,28363,1,0,0:0:0:0:
430,284,28570,1,0,0:0:0:0:
365,251,28777,6,0,P|307:247|242:277,1,120.000004577637,0|0,0:0|0:0,0:0:0:0:
195,317,29398,1,0,0:0:0:0:
139,270,29605,2,0,B|121:232|121:232|129:148,1,120.000004577637,0|0,0:0|0:0,0:0:0:0:
226,48,30432,6,0,B|244:86|244:86|236:170,1,120.000004577637,0|0,0:0|0:0,0:0:0:0:
139,270,31260,2,0,B|121:232|121:232|129:148,1,120.000004577637,0|0,0:0|0:0,0:0:0:0:
226,48,32087,6,0,L|247:94,3,40,8|8|8|8,0:0|0:0|0:0|0:0,0:0:0:0:
260,118,32501,1,8,0:0:0:0:
341,30,32708,1,8,0:0:0:0:
414,120,32915,2,0,L|435:155,3,40,8|8|8|8,0:0|0:0|0:0|0:0,0:0:0:0:
416,198,33329,2,0,L|437:233,3,40,8|8|8|8,0:0|0:0|0:0|0:0,0:0:0:0:
416,279,33742,6,0,P|363:288|274:213,1,160,6|8,0:0|0:0,0:0:0:0:
261,143,34363,1,2,0:0:0:0:
196,202,34570,2,0,B|148:214|148:214|129:206|103:204|103:204|74:222|25:205,1,160,0|8,0:0|0:0,0:0:0:0:
0,130,35191,1,0,0:0:0:0:
37,50,35398,6,0,B|63:21|63:21|158:28,1,120,2|0,0:0|0:0,0:0:0:0:
191,28,35811,1,8,0:0:0:0:
240,94,36018,1,2,0:0:0:0:
300,30,36225,1,0,0:0:0:0:
348,103,36432,1,2,0:0:0:0:
404,35,36639,1,8,0:0:0:0:
481,193,37053,6,0,P|403:175|322:207,1,160,2|8,0:0|0:0,0:0:0:0:
295,282,37673,1,2,0:0:0:0:
242,211,37880,2,0,B|219:174|219:174|228:57,1,160,0|8,0:0|0:0,0:0:0:0:
152,12,38501,1,0,0:0:0:0:
103,85,38708,6,0,P|45:83|-6:35,2,120,2|0|2,0:0|0:0|0:0,0:0:0:0:
152,12,39536,1,0,0:0:0:0:
237,30,39742,1,2,0:0:0:0:
244,117,39949,1,8,0:0:0:0:
163,153,40156,1,0,0:0:0:0:
103,85,40363,6,0,P|76:155|111:227,1,160,2|8,0:0|0:0,0:0:0:0:
168,294,40984,1,2,0:0:0:0:
251,321,41191,2,0,L|336:313,1,80,0|0,0:0|0:0,0:0:0:0:
401,261,41605,1,8,0:0:0:0:
411,347,41811,1,0,0:0:0:0:
481,293,42018,6,0,P|486:248|475:210,1,80,2|0,0:0|0:0,0:0:0:0:
408,159,42432,2,0,L|325:163,1,80,8|2,0:0|0:0,0:0:0:0:
259,219,42846,2,0,P|217:216|182:194,1,80,0|2,0:0|0:0,0:0:0:0:
106,155,43260,1,8,0:0:0:0:
166,90,43467,1,0,0:0:0:0:
79,78,43673,6,0,P|27:128|54:218,1,160,2|8,0:0|0:0,0:0:0:0:
109,265,44294,1,2,0:0:0:0:
191,233,44501,2,0,P|215:196|219:155,1,80,0|0,0:0|0:0,0:0:0:0:
166,90,44915,2,0,P|206:74|257:83,1,80,8|8,0:0|0:0,0:0:0:0:
303,141,45329,5,8,0:0:0:0:
336,59,45536,1,8,0:0:0:0:
391,127,45742,1,8,0:0:0:0:
427,46,45949,1,8,0:0:0:0:
479,116,46156,2,0,L|508:160,2,53.3333333333333,8|8|8,0:0|0:0|0:0,0:0:0:0:
423,136,46570,2,0,L|422:194,2,53.3333333333333,8|8|8,0:0|0:0|0:0,0:0:0:0:
438,94,46984,6,0,L|421:26,1,60.0000022888184,4|0,0:0|0:0,0:0:0:0:
351,35,47398,2,0,L|334:97,1,60.0000022888184,8|0,0:1|0:0,0:0:0:0:
263,93,47811,2,0,L|246:25,1,60.0000022888184,8|0,0:1|0:0,0:0:0:0:
176,34,48225,2,0,L|159:96,1,60.0000022888184,8|0,0:1|0:0,0:0:0:0:
105,139,48639,5,8,0:1:0:0:
172,163,48846,1,0,0:0:0:0:
118,210,49053,2,0,P|159:234|227:210,1,120.000004577637,8|8,0:1|0:1,0:0:0:0:
336,122,49880,5,8,0:1:0:0:
360,54,50087,1,0,0:0:0:0:
407,108,50294,1,8,0:1:0:0:
383,176,50501,2,0,P|353:191|317:190,1,60.0000022888184,0|8,0:0|0:1,0:0:0:0:
259,166,50915,1,0,0:0:0:0:
191,192,51122,2,0,P|161:189|134:175,1,60.0000022888184,8|0,0:1|0:0,0:0:0:0:
85,122,51536,2,0,P|65:150|61:182,1,60.0000022888184,8|0,0:1|0:0,0:0:0:0:
64,246,51949,5,8,0:0:0:0:
114,311,52156,2,0,L|101:348,2,30.0000011444092,2|2|2,0:3|0:3|0:3,0:0:0:0:
195,293,52570,1,2,0:3:0:0:
195,293,52673,1,2,0:3:0:0:
195,293,52777,2,0,P|238:300|297:288,1,90.0000034332277,2|2,0:3|0:3,0:0:0:0:
302,268,53191,2,0,L|368:268,1,60.0000022888184,2|2,0:3|0:3,0:0:0:0:
461,296,53605,5,2,0:0:0:0:
491,199,53811,2,0,P|510:134|475:31,1,160,2|0,0:0|0:0,0:0:0:0:
402,93,54432,2,0,B|356:110|356:110|239:98,1,160,2|0,0:0|0:0,0:0:0:0:
164,45,55053,6,0,P|151:76|155:131,1,80,2|0,0:0|0:0,0:0:0:0:
201,204,55467,1,2,0:0:0:0:
294,222,55673,2,0,L|381:214,1,80,2|0,0:0|0:0,0:0:0:0:
461,174,56087,2,0,P|467:140|460:94,1,80,2|0,0:0|0:0,0:0:0:0:
459,262,56501,2,0,P|465:296|458:342,1,80,0|0,3:0|3:0,0:0:0:0:
368,375,56915,5,2,0:0:0:0:
272,370,57122,1,0,0:0:0:0:
190,319,57329,1,2,0:0:0:0:
172,224,57536,1,0,0:0:0:0:
172,224,57639,1,0,0:0:0:0:
172,224,57742,1,2,0:0:0:0:
188,129,57949,1,0,0:0:0:0:
259,64,58156,1,2,0:0:0:0:
355,62,58363,6,0,L|365:104,3,40,8|8|8|8,0:0|0:0|0:0|0:0,0:0:0:0:
372,148,58777,2,0,L|353:197,3,40,8|8|8|8,0:0|0:0|0:0|0:0,0:0:0:0:
356,225,59191,1,2,0:0:0:0:
87,204,60225,6,0,B|83:240|83:240|91:251|87:268|87:268|99:286|82:341,2,120,6|0|0,0:0|0:0|0:0,0:0:0:0:
101,108,61053,1,0,0:0:0:0:
166,38,61260,1,0,0:0:0:0:
259,15,61467,1,8,0:0:0:0:
352,36,61673,6,0,P|392:30|437:37,1,80,2|0,0:0|0:0,0:0:0:0:
391,123,62087,2,0,P|425:144|455:178,1,80,0|8,0:0|0:0,0:0:0:0:
365,214,62501,2,8,P|377:252|378:297,1,80,2|0,0:0|0:0,0:0:0:0:
284,271,62915,2,8,P|269:308|240:344,1,80,2|8,0:0|0:0,0:0:0:0:
184,264,63329,1,0,0:0:0:0:
109,203,63536,6,0,P|83:159|105:54,1,160,2|8,0:0|0:0,0:0:0:0:
178,126,64156,1,2,0:0:0:0:
216,38,64363,1,0,0:0:0:0:
295,91,64570,2,0,P|305:137|298:178,1,80,0|8,0:0|0:0,0:0:0:0:
245,248,64984,6,0,P|296:265|389:211,1,160,2|0,0:0|0:0,0:0:0:0:
383,121,65605,1,8,0:0:0:0:
468,162,65811,1,2,0:0:0:0:
453,67,66018,2,0,P|417:40|372:34,1,80,0|2,0:0|0:0,0:0:0:0:
295,73,66432,2,0,P|256:87|198:83,1,80,8|0,0:0|0:0,0:0:0:0:
149,19,66846,6,0,B|125:70|125:70|133:182,1,160,6|0,0:0|0:0,0:0:0:0:
64,241,67467,1,2,0:0:0:0:
100,329,67673,1,0,0:0:0:0:
195,315,67880,1,0,0:0:0:0:
195,315,68087,1,8,0:0:0:0:
216,221,68294,6,0,P|255:210|302:212,1,80,2|0,0:0|0:0,0:0:0:0:
297,114,68708,2,0,P|308:153|306:200,1,80,0|8,0:0|0:0,0:0:0:0:
403,195,69122,2,0,P|364:206|317:204,1,80,2|0,0:0|0:0,0:0:0:0:
323,301,69536,2,0,P|312:262|314:215,1,80,2|8,0:0|0:0,0:0:0:0:
355,137,69949,1,0,0:0:0:0:
262,111,70156,6,0,L|166:117,1,80,6|0,0:0|0:0,0:0:0:0:
96,160,70570,2,0,P|31:138|2:83,2,120,8|0|0,0:0|0:0|0:0,0:0:0:0:
182,115,71398,2,0,L|262:111,1,80,8|0,0:0|0:0,0:0:0:0:
357,102,71811,5,8,0:0:0:0:
357,102,72018,1,8,0:0:0:0:
424,170,72225,1,8,0:0:0:0:
424,170,72432,1,8,0:0:0:0:
392,260,72639,2,0,L|375:317,2,53.3333333333333,8|8|8,0:0|0:0|0:0,0:0:0:0:
456,257,73053,2,0,L|471:311,2,53.3333333333333,8|8|8,0:0|0:0|0:0,0:0:0:0:
421,216,73467,5,0,0:0:0:0:
185,48,73880,1,12,0:0:0:0:
112,111,74087,2,0,P|92:188|119:271,1,160,2|0,0:0|0:0,0:0:0:0:
187,326,74708,1,8,0:0:0:0:
258,261,74915,6,0,P|280:185|259:108,1,160,2|0,0:0|0:0,0:0:0:0:
185,48,75536,1,8,0:0:0:0:
260,108,75742,2,0,B|314:124|314:124|419:111,1,160,2|2,0:0|0:0,0:0:0:0:
491,50,76363,1,8,0:0:0:0:
491,50,76570,1,0,0:0:0:0:
506,144,76777,6,0,L|498:228,1,80,2|0,0:0|0:0,0:0:0:0:
487,319,77191,1,8,0:0:0:0:
409,260,77398,1,2,0:0:0:0:
388,353,77605,1,0,0:0:0:0:
317,288,77811,1,0,0:0:0:0:
242,349,78018,1,8,0:0:0:0:
242,349,78225,6,0,P|171:344|99:281,1,160,0|0,0:0|0:0,0:0:0:0:
45,213,78846,1,8,0:0:0:0:
45,213,79053,2,0,P|126:211|197:165,1,160,0|0,0:0|0:0,0:0:0:0:
181,75,79673,1,8,0:0:0:0:
269,111,79880,1,0,0:0:0:0:
256,25,80087,5,0,0:0:0:0:
442,252,80501,1,12,0:0:0:0:
506,180,80708,2,0,P|508:107|460:33,1,160,2|0,0:0|0:0,0:0:0:0:
368,17,81329,1,8,0:0:0:0:
302,87,81536,6,0,P|300:160|348:234,1,160,2|0,0:0|0:0,0:0:0:0:
442,252,82156,1,8,0:0:0:0:
371,317,82363,2,0,B|344:333|337:350|337:350|275:378|201:337,1,160,2|2,0:0|0:0,0:0:0:0:
132,335,82984,1,8,0:0:0:0:
188,257,83191,1,0,0:0:0:0:
92,252,83398,6,0,P|66:217|57:181,1,80,2|0,0:0|0:0,0:0:0:0:
37,88,83811,1,8,0:0:0:0:
119,39,84018,1,2,0:0:0:0:
194,98,84225,1,0,0:0:0:0:
150,183,84432,1,0,0:0:0:0:
57,182,84639,6,0,P|32:230|109:265,1,160,8|0,0:0|0:0,0:0:0:0:
256,192,98294,12,2,99536,0:0:0:0:
119,261,99949,6,0,B|163:254|163:254|191:269|191:269|224:257|280:270,1,160,6|8,0:0|0:0,0:0:0:0:
346,331,100570,2,0,P|433:312|460:245,1,160,2|0,0:0|0:0,0:0:0:0:
387,189,101191,1,8,0:0:0:0:
478,160,101398,1,0,0:0:0:0:
401,101,101605,6,0,P|331:111|296:198,1,160,2|8,0:0|0:0,0:0:0:0:
274,279,102225,2,0,P|206:236|113:239,1,160,2|2,0:0|0:0,0:0:0:0:
43,280,102846,1,8,0:0:0:0:
9,189,103053,1,0,0:0:0:0:
94,145,103260,6,0,P|152:121|185:18,1,160,2|8,0:0|0:0,0:0:0:0:
92,48,103880,2,0,L|216:167,1,160,2|0,0:0|0:0,0:0:0:0:
280,222,104501,1,8,0:0:0:0:
357,165,104708,1,0,0:0:0:0:
435,220,104915,6,0,P|434:300|366:356,1,160,2|8,0:0|0:0,0:0:0:0:
291,310,105536,1,2,0:0:0:0:
202,345,105742,2,0,B|151:360|151:360|39:340,1,160,0|8,0:0|0:0,0:0:0:0:
9,251,106363,1,0,0:0:0:0:
46,162,106570,6,0,B|151:143|151:143|202:158,1,160,2|8,0:0|0:0,0:0:0:0:
283,210,107191,1,0,0:0:0:0:
360,152,107398,1,0,0:0:0:0:
321,63,107605,1,0,0:0:0:0:
225,67,107811,1,8,0:0:0:0:
202,158,108018,1,0,0:0:0:0:
283,210,108225,6,0,L|300:300,1,80,2|0,0:0|0:0,0:0:0:0:
376,344,108639,2,0,L|390:258,1,80,8|2,0:0|0:0,0:0:0:0:
433,179,109053,2,0,P|479:169|505:143,1,80,0|2,0:0|0:0,0:0:0:0:
506,50,109467,1,8,0:0:0:0:
412,30,109673,1,0,0:0:0:0:
347,101,109880,6,0,B|304:119|304:119|287:112|263:112|263:112|229:125|177:108,1,160,2|8,0:0|0:0,0:0:0:0:
128,39,110501,1,2,0:0:0:0:
66,112,110708,2,0,P|61:151|73:200,1,80,0|0,0:0|0:0,0:0:0:0:
78,286,111122,2,0,P|113:307|156:307,1,80,8|8,0:0|0:0,0:0:0:0:
206,228,111536,5,8,0:0:0:0:
248,313,111742,1,8,0:0:0:0:
301,232,111949,1,8,0:0:0:0:
346,316,112156,1,8,0:0:0:0:
404,239,112363,2,0,L|461:223,2,53.3333333333333,8|8|8,0:0|0:0|0:0,0:0:0:0:
404,303,112777,2,0,L|461:319,2,53.3333333333333,8|8|8,0:0|0:0|0:0,0:0:0:0:
357,271,113191,6,0,P|324:251|310:228,1,60.0000022888184,8|0,0:0|0:0,0:0:0:0:
277,170,113605,2,0,P|263:137|261:108,1,60.0000022888184,8|0,0:1|0:0,0:0:0:0:
217,55,114018,2,0,P|194:74|164:88,1,60.0000022888184,8|0,0:1|0:0,0:0:0:0:
99,112,114432,2,0,P|61:111|35:99,1,60.0000022888184,8|0,0:1|0:0,0:0:0:0:
7,38,114846,5,8,0:1:0:0:
79,38,115053,1,0,0:0:0:0:
41,102,115260,2,0,P|36:173|61:228,1,120.000004577637,8|8,0:1|0:1,0:0:0:0:
195,241,116087,1,8,0:1:0:0:
141,289,116294,1,0,0:0:0:0:
126,218,116501,5,8,0:1:0:0:
178,169,116708,2,0,P|211:167|240:182,1,60.0000022888184,0|8,0:0|0:1,0:0:0:0:
286,229,117122,1,0,0:0:0:0:
336,177,117329,2,0,P|363:165|393:168,1,60.0000022888184,8|0,0:1|0:0,0:0:0:0:
455,202,117742,2,0,L|452:274,1,60.0000022888184,8|0,0:1|0:0,0:0:0:0:
421,326,118155,5,0,0:0:0:0:
350,340,118362,2,0,L|349:373,2,30.0000011444092,0|0|0,0:0|0:0|0:0,0:0:0:0:
293,295,118776,1,0,0:0:0:0:
293,295,118879,1,0,0:0:0:0:
293,295,118984,2,0,P|251:286|191:297,1,90.0000034332277,0|0,0:0|0:0,0:0:0:0:
180,312,119398,2,0,L|116:312,1,60.0000022888184,0|0,0:0|0:0,0:0:0:0:
43,254,119811,5,2,0:0:0:0:
120,197,120017,2,0,P|146:122|104:29,1,160,2|0,0:0|0:0,0:0:0:0:
58,121,120639,2,0,P|138:136|209:95,1,160,2|0,0:0|0:0,0:0:0:0:
273,33,121260,6,0,L|359:33,1,80,2|0,0:0|0:0,0:0:0:0:
448,36,121673,1,2,0:0:0:0:
391,112,121880,2,0,B|380:147|380:147|386:200,1,80,2|0,0:0|0:0,0:0:0:0:
426,277,122294,2,0,P|465:278|505:295,1,80,2|0,0:0|0:0,0:0:0:0:
342,274,122708,2,0,P|303:275|263:292,1,80,0|0,3:0|3:0,0:0:0:0:
191,352,123122,5,2,0:0:0:0:
103,312,123329,1,0,0:0:0:0:
89,216,123536,1,2,0:0:0:0:
171,167,123742,1,0,0:0:0:0:
171,167,123846,1,0,0:0:0:0:
171,167,123949,1,2,0:0:0:0:
262,195,124156,1,0,0:0:0:0:
265,290,124363,1,2,0:0:0:0:
349,243,124570,6,0,L|392:237,3,40,8|8|8|8,0:0|0:0|0:0|0:0,0:0:0:0:
411,195,124984,2,0,L|454:189,3,40,8|8|8|8,0:0|0:0|0:0|0:0,0:0:0:0:
480,155,125398,1,2,0:0:0:0:
79,116,126432,6,0,P|109:71|182:51,2,120,6|0|0,0:0|0:0|0:0,0:0:0:0:
150,180,127260,1,0,0:0:0:0:
244,199,127467,1,0,0:0:0:0:
338,185,127673,1,8,0:0:0:0:
424,143,127880,6,0,P|471:154|500:179,1,80,2|0,0:0|0:0,0:0:0:0:
424,238,128294,2,0,P|452:276|459:314,1,80,0|8,0:0|0:0,0:0:0:0:
362,309,128708,2,0,P|359:357|339:390,1,80,2|0,0:0|0:0,0:0:0:0:
268,324,129122,2,0,P|234:359|198:371,1,80,2|8,0:0|0:0,0:0:0:0:
149,292,129536,1,0,0:0:0:0:
155,196,129742,6,0,B|186:165|186:165|252:188|304:153,1,160,2|8,0:0|0:0,0:0:0:0:
383,112,130363,1,2,0:0:0:0:
383,208,130570,1,0,0:0:0:0:
464,157,130777,2,0,P|475:109|466:72,1,80,0|8,0:0|0:0,0:0:0:0:
386,29,131191,6,0,B|310:17|310:17|216:33,1,160,2|0,0:0|0:0,0:0:0:0:
156,94,131811,1,8,0:0:0:0:
245,129,132018,1,2,0:0:0:0:
169,187,132225,2,0,L|82:180,1,80,0|2,0:0|0:0,0:0:0:0:
211,267,132639,2,0,L|291:261,1,80,8|0,0:0|0:0,0:0:0:0:
361,326,133053,6,0,P|441:308|477:230,1,160,6|8,0:0|0:0,0:0:0:0:
475,147,133673,1,2,0:0:0:0:
406,79,133880,1,0,0:0:0:0:
313,54,134087,1,0,0:0:0:0:
313,54,134294,1,8,0:0:0:0:
219,77,134501,6,0,L|225:158,1,80,2|0,0:0|0:0,0:0:0:0:
131,182,134915,2,0,L|210:176,1,80,0|8,0:0|0:0,0:0:0:0:
234,269,135328,2,0,L|228:189,1,80,2|0,0:0|0:0,0:0:0:0:
321,166,135742,2,0,L|241:171,1,80,2|8,0:0|0:0,0:0:0:0:
163,114,136156,1,0,0:0:0:0:
87,173,136363,6,0,P|83:214|93:257,1,80,6|0,0:0|0:0,0:0:0:0:
146,330,136777,2,0,P|94:345|25:316,2,120,0|0|0,0:0|0:0|0:0,0:0:0:0:
229,282,137605,2,0,P|272:280|312:292,1,80,0|0,0:0|0:0,0:0:0:0:
383,348,138018,5,8,0:0:0:0:
383,348,138225,1,8,0:0:0:0:
463,295,138432,1,8,0:0:0:0:
463,295,138639,1,8,0:0:0:0:
429,204,138846,2,0,L|412:147,2,53.3333333333333,8|8|8,0:0|0:0|0:0,0:0:0:0:
493,202,139260,2,0,L|510:145,2,53.3333333333333,8|8|8,0:0|0:0|0:0,0:0:0:0:
460,246,139673,5,0,0:0:0:0:
303,63,140087,1,12,0:0:0:0:
228,123,140294,2,0,B|193:149|193:149|69:137,1,160,2|0,0:0|0:0,0:0:0:0:
17,62,140915,1,8,0:0:0:0:
77,137,141122,6,0,P|105:204|87:300,1,160,2|0,0:0|0:0,0:0:0:0:
171,343,141743,1,8,0:0:0:0:
248,287,141949,2,0,P|235:209|263:135,1,160,2|2,0:0|0:0,0:0:0:0:
329,64,142570,1,8,0:0:0:0:
329,64,142777,1,0,0:0:0:0:
423,82,142984,6,0,L|427:162,1,80,2|0,0:0|0:0,0:0:0:0:
428,258,143398,1,8,0:0:0:0:
346,207,143605,1,2,0:0:0:0:
349,302,143812,1,0,0:0:0:0:
264,257,144018,1,0,0:0:0:0:
267,352,144225,1,8,0:0:0:0:
267,352,144432,6,0,P|191:349|124:284,1,160,0|0,0:0|0:0,0:0:0:0:
68,221,145053,1,8,0:0:0:0:
135,152,145260,2,0,P|193:99|272:95,1,160,0|0,0:0|0:0,0:0:0:0:
336,167,145880,1,8,0:0:0:0:
406,102,146087,1,0,0:0:0:0:
471,173,146294,5,0,0:0:0:0:
317,337,146708,1,12,0:0:0:0:
370,257,146915,2,0,P|393:176|369:102,1,160,2|0,0:0|0:0,0:0:0:0:
315,26,147536,1,8,0:0:0:0:
243,89,147742,6,0,P|169:112|91:86,1,160,2|0,0:0|0:0,0:0:0:0:
169,28,148363,1,8,0:0:0:0:
169,28,148570,2,0,L|169:197,1,160,2|2,0:0|0:0,0:0:0:0:
169,284,149191,1,8,0:0:0:0:
251,234,149398,1,0,0:0:0:0:
258,329,149605,6,0,P|228:363|187:378,1,80,2|0,0:0|0:0,0:0:0:0:
103,355,150018,1,8,0:0:0:0:
76,262,150225,1,2,0:0:0:0:
142,193,150432,1,0,0:0:0:0:
169,284,150639,1,0,0:0:0:0:
76,262,150846,6,0,P|50:192|86:118,1,160,8|0,0:0|0:0,0:0:0:0:
246,67,166156,5,8,0:1:0:0:
143,229,166570,1,8,0:1:0:0:
310,323,166984,1,8,0:1:0:0:
407,157,167398,1,8,0:1:0:0:
216,138,167811,5,8,0:1:0:0:
193,328,168225,1,8,0:1:0:0:
384,348,168639,1,8,0:1:0:0:
407,157,169053,1,8,0:1:0:0:
247,49,169467,5,8,0:1:0:0:
126,197,169880,1,8,0:1:0:0:
280,310,170294,1,8,0:1:0:0:
414,171,170708,1,8,0:1:0:0:
223,144,171122,5,8,0:1:0:0:
126,197,171329,1,8,0:0:0:0:
126,197,171432,1,8,0:0:0:0:
126,197,171536,2,0,L|83:197,3,30.0000011444092,8|8|8|8,0:0|0:0|0:0|0:0,0:0:0:0:
68,220,171949,2,0,P|44:176|50:125,1,90.0000034332277,8|8,0:0|0:0,0:0:0:0:
51,110,172363,1,8,0:0:0:0:
114,37,172570,1,8,0:0:0:0:
181,105,172777,5,2,0:0:0:0:
251,39,172984,2,0,P|336:48|393:121,1,160,2|8,3:0|0:0,0:0:0:0:
445,174,173605,2,0,P|399:192|324:170,1,120,2|0,0:0|0:0,0:0:0:0:
308,153,174018,1,8,0:0:0:0:
257,234,174225,6,0,L|266:322,1,80,2|0,0:0|0:0,0:0:0:0:
152,268,174639,1,0,0:0:0:0:
152,268,174846,2,0,L|156:185,1,80,8|8,0:0|0:0,0:0:0:0:
118,98,175260,2,0,L|50:54,1,80,2|8,0:0|0:0,0:0:0:0:
215,109,175673,2,0,L|286:72,1,80,2|8,3:0|0:0,0:0:0:0:
371,28,176087,5,2,0:0:0:0:
436,97,176294,1,2,0:0:0:0:
456,190,176501,1,2,0:0:0:0:
437,284,176708,1,2,0:0:0:0:
437,284,176811,1,2,0:0:0:0:
437,284,176915,1,2,0:0:0:0:
359,340,177122,2,0,P|317:334|273:296,1,80,2|2,0:0|0:0,0:0:0:0:
248,224,177536,1,2,0:0:0:0:
248,224,177639,1,2,0:0:0:0:
248,224,177742,6,0,L|196:280,2,53.3333333333333,2|2|2,0:0|0:0|0:0,0:0:0:0:
312,222,178156,2,0,L|364:278,2,53.3333333333333,2|2|2,0:0|0:0|0:0,0:0:0:0:
280,165,178570,6,0,L|273:123,3,40,2|2|2|2,0:0|0:0|0:0|0:0,0:0:0:0:
275,96,178984,2,0,L|281:56,3,40,2|2|2|2,0:0|0:0|0:0|0:0,0:0:0:0:
283,30,179398,5,8,0:0:0:0:
187,38,179605,1,8,0:0:0:0:
92,51,179811,1,8,0:0:0:0:
105,146,180018,1,8,0:0:0:0:
96,241,180225,6,0,L|43:225,2,53.3333333333333,8|8|8,0:0|0:0|0:0,0:0:0:0:
158,223,180639,2,0,L|198:182,2,53.3333333333333,8|8|8,0:0|0:0|0:0,0:0:0:0:
138,281,181053,6,0,P|182:343|279:354,1,160,6|8,0:0|0:0,0:0:0:0:
348,321,181673,2,0,B|342:280|336:256|336:256|284:244|241:264,1,160,2|0,0:0|0:0,0:0:0:0:
166,205,182294,1,8,0:0:0:0:
90,264,182501,6,0,P|66:197|88:112,1,160,2|0,0:0|0:0,0:0:0:0:
147,38,183122,1,8,0:0:0:0:
222,97,183329,2,0,P|299:112|395:73,1,160,2|2,0:0|0:0,0:0:0:0:
461,46,183949,2,0,B|434:79|434:79|441:167,1,120,8|0,0:0|0:0,0:0:0:0:
475,189,184363,6,0,P|394:194|333:271,1,160,2|8,0:0|0:0,0:0:0:0:
257,296,184984,2,0,B|246:248|246:248|248:220|262:201|262:201|251:172|264:117,1,160,2|0,0:0|0:0,0:0:0:0:
337,84,185605,1,8,0:0:0:0:
256,32,185811,6,0,P|178:43|121:105,1,160,2|0,0:0|0:0,0:0:0:0:
93,191,186432,1,8,0:0:0:0:
123,284,186639,2,0,P|178:341|256:352,1,160,2|2,0:0|0:0,0:0:0:0:
339,303,187260,2,0,B|371:285|371:285|461:291,1,120,8|0,0:0|0:0,0:0:0:0:
475,333,187673,6,0,P|498:252|470:172,1,160,6|8,0:0|0:0,0:0:0:0:
398,124,188294,2,0,B|340:119|340:119|300:136|300:136|234:131,1,160,2|0,0:0|0:0,0:0:0:0:
170,66,188915,1,8,0:0:0:0:
95,126,189122,2,0,P|108:217|169:260,1,160,2|0,0:0|0:0,0:0:0:0:
251,234,189742,1,8,0:0:0:0:
222,325,189949,2,0,B|170:348|170:348|58:341,1,160,2|2,0:0|0:0,0:0:0:0:
3,269,190570,2,0,L|4:144,1,120,8|0,0:0|0:0,0:0:0:0:
2,100,190984,6,0,P|23:154|91:111,1,160,6|8,0:0|0:0,0:0:0:0:
134,25,191605,2,0,P|178:86|165:176,1,160,2|0,0:0|0:0,0:0:0:0:
136,256,192225,2,0,P|174:263|218:252,1,80,8|2,0:0|0:0,0:0:0:0:
272,177,192639,5,8,0:0:0:0:
328,254,192846,1,8,0:0:0:0:
386,178,193053,1,8,0:0:0:0:
441,256,193260,1,8,0:0:0:0:
499,180,193467,6,0,L|509:128,2,53.3333333333333,8|8|8,0:0|0:0|0:0,0:0:0:0:
434,180,193880,2,0,L|424:128,2,53.3333333333333,8|8|8,0:0|0:0|0:0,0:0:0:0:
465,216,194294,5,4,0:0:0:0:
325,255,194708,1,0,0:0:0:0:
126,70,196984,6,0,L|132:148,1,60.0000022888184,0|0,0:0|0:0,0:0:0:0:
135,202,197398,1,0,0:0:0:0:
90,258,197605,2,0,P|138:275|200:233,1,120.000004577637,0|0,0:0|0:0,0:0:0:0:
229,179,198225,1,0,0:0:0:0:
293,210,198432,2,0,L|371:211,1,60.0000022888184,0|0,0:0|0:0,0:0:0:0:
404,160,198846,6,0,P|425:214|390:275,1,120.000004577637,0|0,0:0|0:0,0:0:0:0:
45,328,200294,2,0,L|43:262,1,60.0000022888184,0|0,0:0|0:0,0:0:0:0:
42,195,200708,1,0,0:0:0:0:
105,228,200915,2,0,P|174:235|223:197,1,120.000004577637,0|0,0:0|0:0,0:0:0:0:
426,43,203605,6,0,L|427:122,1,60.0000022888184,0|0,0:0|0:0,0:0:0:0:
427,175,204018,1,0,0:0:0:0:
477,226,204225,2,0,P|429:249|369:214,1,120.000004577637,0|0,0:0|0:0,0:0:0:0:
328,163,204846,1,0,0:0:0:0:
285,221,205053,2,0,L|212:221,1,60.0000022888184,0|0,0:0|0:0,0:0:0:0:
170,173,205467,1,0,0:0:0:0:
170,173,205673,6,0,B|116:152|116:152|46:180|46:180|20:246,1,180.000006866455,0|0,0:0|0:0,0:0:0:0:
