osu file format v14

[General]
AudioFilename: audio.mp3
AudioLeadIn: 0
PreviewTime: 71556
Countdown: 0
SampleSet: Normal
StackLeniency: 0.7
Mode: 0
LetterboxInBreaks: 0
WidescreenStoryboard: 1

[Editor]
Bookmarks: 19013,32254,45495,58737,65358,71978,78591,85220,88522,91212,96806,111702,124944,131564,138185,151426,163013,177909,184530,187840,189495,190323,191151,192806,206047,219289
DistanceSpacing: 1
BeatDivisor: 4
GridSize: 32
TimelineZoom: 1.7

[Metadata]
Title:%%
TitleUnicode:응응
Artist:Apink
ArtistUnicode:Apink
Creator:Everything Dust
Version:MM MMMM
Source:
Tags:Eunji
BeatmapID:1893311
BeatmapSetID:907332

[Difficulty]
HPDrainRate:5
CircleSize:3.5
OverallDifficulty:5
ApproachRate:9
SliderMultiplier:2.2
SliderTickRate:1

[Events]
//Background and Video events
0,0,"%%.png",0,0
//Break Periods
//Storyboard Layer 0 (Background)
//Storyboard Layer 1 (Fail)
//Storyboard Layer 2 (Pass)
//Storyboard Layer 3 (Foreground)
//Storyboard Sound Samples

[TimingPoints]
17350,413.793103448276,4,1,1,100,1,0
19013,-100,4,1,1,100,0,0
32556,-100,4,1,1,5,0,0
32660,-100,4,1,1,100,0,0
32970,-100,4,1,1,5,0,0
33074,-100,4,1,1,100,0,0
34212,-100,4,1,1,5,0,0
34316,-100,4,1,1,100,0,0
35039,-100,4,1,1,5,0,0
35143,-100,4,1,1,100,0,0
35453,-100,4,1,1,5,0,0
35557,-100,4,1,1,100,0,0
35970,-100,4,1,1,5,0,0
36384,-133.333333333333,4,1,1,100,0,0
36694,-133.333333333333,4,1,1,5,0,0
36798,-133.333333333333,4,1,1,100,0,0
37108,-133.333333333333,4,1,1,5,0,0
37212,-133.333333333333,4,1,1,100,0,0
37625,-100,4,1,1,5,0,0
38453,-100,4,1,1,100,0,0
39177,-100,4,1,1,5,0,0
39281,-100,4,1,1,100,0,0
39591,-100,4,1,1,5,0,0
39695,-100,4,1,1,100,0,0
40832,-100,4,1,1,5,0,0
40936,-100,4,1,1,100,0,0
41660,-100,4,1,1,5,0,0
41764,-100,4,1,1,100,0,0
42074,-100,4,1,1,5,0,0
42178,-100,4,1,1,100,0,0
42591,-100,4,1,1,5,0,0
43005,-133.333333333333,4,1,1,100,0,0
43315,-133.333333333333,4,1,1,5,0,0
43418,-133.333333333333,4,1,1,100,0,0
43729,-133.333333333333,4,1,1,5,0,0
43832,-100,4,1,1,100,0,0
44453,-100,4,1,1,100,0,0
45281,-100,4,1,1,5,0,0
45487,-100,4,1,1,100,0,0
45694,-100,4,1,1,5,0,0
45798,-100,4,1,1,100,0,0
46005,-100,4,1,1,5,0,0
46109,-100,4,1,1,100,0,0
46522,-100,4,1,1,5,0,0
46729,-100,4,1,1,100,0,0
47350,-100,4,1,1,5,0,0
47454,-100,4,1,1,100,0,0
47660,-100,4,1,1,5,0,0
47764,-100,4,1,1,100,0,0
49005,-100,4,1,1,5,0,0
49109,-100,4,1,1,100,0,0
49315,-100,4,1,1,5,0,0
49419,-100,4,1,1,100,0,0
49832,-100,4,1,1,5,0,0
49936,-100,4,1,1,100,0,0
50143,-100,4,1,1,5,0,0
50247,-100,4,1,1,100,0,0
50660,-100,4,1,1,5,0,0
50764,-100,4,1,1,100,0,0
50970,-100,4,1,1,5,0,0
51074,-100,4,1,1,100,0,0
52005,-100,4,1,1,5,0,0
52109,-100,4,1,1,100,0,0
52522,-100,4,1,1,5,0,0
52729,-100,4,1,1,100,0,0
57798,-100,4,1,1,5,0,0
57902,-100,4,1,1,100,0,0
58212,-100,4,1,1,5,0,0
58315,-80,4,1,1,100,0,0
58418,-80,4,1,1,5,0,0
58729,-100,4,1,1,100,0,0
64212,-100,4,1,1,5,0,0
64316,-100,4,1,1,100,0,0
70936,-133.333333333333,4,1,1,100,0,0
71350,-133.333333333333,4,1,1,5,0,0
71556,-100,4,1,1,100,0,0
71970,-100,4,1,1,100,0,1
72177,-100,4,1,1,5,0,0
72281,-100,4,1,1,100,0,0
72487,-100,4,1,1,5,0,0
72591,-100,4,1,1,100,0,0
73729,-100,4,1,1,5,0,0
73833,-100,4,1,1,100,0,0
74143,-100,4,1,1,5,0,0
74247,-100,4,1,1,100,0,0
74556,-100,4,1,1,5,0,0
74660,-100,4,1,1,100,0,0
74970,-100,4,1,1,5,0,0
75074,-100,4,1,1,100,0,0
76625,-100,4,1,1,5,0,0
76729,-100,4,1,1,100,0,0
77039,-100,4,1,1,5,0,0
77143,-100,4,1,1,100,0,0
78074,-100,4,1,1,5,0,0
78178,-100,4,1,1,100,0,0
78487,-100,4,1,1,5,0,0
79005,-100,4,1,1,100,0,0
80350,-100,4,1,1,5,0,0
80454,-100,4,1,1,100,0,0
80763,-100,4,1,1,5,0,0
80867,-100,4,1,1,100,0,0
81177,-100,4,1,1,5,0,0
81281,-100,4,1,1,100,0,0
81591,-100,4,1,1,5,0,0
81695,-100,4,1,1,100,0,0
82522,-100,4,1,1,5,0,0
82626,-100,4,1,1,100,0,0
82832,-100,4,1,1,5,0,0
82936,-100,4,1,1,100,0,0
83350,-100,4,1,1,5,0,0
83454,-100,4,1,1,100,0,0
83660,-100,4,1,1,5,0,0
83764,-100,4,1,1,100,0,0
84177,-100,4,1,1,5,0,0
84281,-100,4,1,1,100,0,0
84487,-100,4,1,1,5,0,0
84591,-100,4,1,1,100,0,0
85212,-133.333333333333,4,1,1,100,0,1
85522,-133.333333333333,4,1,1,5,0,1
85625,-100,4,1,1,100,0,1
88832,-100,4,1,1,5,0,1
88936,-100,4,1,1,100,0,1
89763,-133.333333333333,4,1,1,100,0,1
90177,-100,4,1,1,100,0,1
91832,-133.333333333333,4,1,1,100,0,1
92143,-133.333333333333,4,1,1,5,0,1
92246,-100,4,1,1,100,0,1
95453,-100,4,1,1,5,0,1
95557,-100,4,1,1,100,0,1
96798,-100,4,1,1,5,0,0
97212,-100,4,1,1,100,0,0
138177,-100,4,1,1,100,0,1
163005,-100,4,1,1,100,0,0
192798,-100,4,1,1,100,0,1
206039,-100,4,1,1,100,0,0

[Colours]
Combo1 : 252,128,124
Combo2 : 250,22,129
Combo3 : 229,169,197

[HitObjects]
256,192,17350,12,0,18798,0:0:0:0:
369,122,19005,6,0,P|337:94|263:88,1,110,0|0,1:0|1:0,1:0:0:0:
108,233,19418,1,0,1:0:0:0:
382,211,19625,1,0,1:0:0:0:
138,129,19832,6,0,P|130:170|162:237,1,110,0|0,1:0|1:0,1:0:0:0:
365,299,20245,1,0,1:0:0:0:
209,73,20452,1,0,1:0:0:0:
260,324,20660,6,0,P|300:311|342:250,1,110,0|0,1:0|1:0,1:0:0:0:
294,43,21073,1,0,1:0:0:0:
176,291,21280,1,0,1:0:0:0:
277,141,21487,5,0,1:0:0:0:
174,181,21694,1,0,1:0:0:0:
225,278,21901,1,0,1:0:0:0:
143,122,22315,6,0,P|175:94|249:88,1,110,0|0,1:0|1:0,1:0:0:0:
404,233,22728,1,0,1:0:0:0:
130,211,22935,1,0,1:0:0:0:
373,129,23142,6,0,P|381:170|349:237,1,110,0|0,1:0|1:0,1:0:0:0:
146,299,23555,1,0,1:0:0:0:
302,73,23762,1,0,1:0:0:0:
251,324,23970,6,0,P|211:311|169:250,1,110,0|0,1:0|1:0,1:0:0:0:
217,43,24383,1,0,1:0:0:0:
335,291,24590,1,0,1:0:0:0:
235,141,24797,5,0,1:0:0:0:
338,181,25004,1,0,1:0:0:0:
287,278,25211,1,0,1:0:0:0:
434,114,25625,6,0,P|404:83|331:70,1,110,0|0,1:0|1:0,1:0:0:0:
142,167,26039,1,0,1:0:0:0:
76,75,26246,1,0,1:0:0:0:
292,112,26453,6,0,P|292:154|249:215,1,110,0|0,1:0|1:0,1:0:0:0:
50,131,26867,1,0,1:0:0:0:
129,55,27074,1,0,1:0:0:0:
78,270,27281,6,0,P|107:300|180:313,1,110,0|0,1:0|1:0,1:0:0:0:
370,217,27695,1,0,1:0:0:0:
436,309,27902,1,0,1:0:0:0:
222,357,28108,6,0,P|191:327|178:254,1,110,0|0,1:0|1:0,1:0:0:0:
219,161,28522,1,0,1:0:0:0:
412,265,28936,6,0,P|418:222|385:156,1,110,0|0,1:0|1:0,1:0:0:0:
298,103,29350,1,0,1:0:0:0:
197,297,29556,2,0,P|141:266|136:106,1,220,0|0,1:0|1:0,1:0:0:0:
214,59,30177,1,0,1:0:0:0:
349,173,30591,5,0,1:0:0:0:
241,196,30798,1,0,1:0:0:0:
242,306,31005,1,0,1:0:0:0:
132,298,31212,1,0,1:0:0:0:
99,247,31832,5,0,1:0:0:0:
99,247,32039,1,0,1:0:0:0:
195,299,32246,2,0,P|252:278|311:182,1,165,0|0,1:0|1:0,1:0:0:0:
291,85,32660,2,0,P|256:134|263:247,1,165,0|0,1:0|1:0,1:0:0:0:
320,326,33074,6,0,P|369:283|389:236,1,110,0|0,1:0|1:0,1:0:0:0:
399,133,33487,1,0,1:0:0:0:
399,133,33694,1,0,1:0:0:0:
232,277,33901,2,0,P|166:237|133:147,1,165,0|0,1:0|1:0,1:0:0:0:
157,50,34315,2,0,P|188:120|163:196,1,110,0|0,1:0|1:0,1:0:0:0:
100,222,34729,6,0,P|186:206|296:238,1,165,0|0,1:0|1:0,1:0:0:0:
321,313,35143,2,0,P|241:276|169:187,1,165,0|0,1:0|1:0,1:0:0:0:
192,112,35556,2,0,P|236:187|183:346,1,220,0|0,1:0|1:0,1:0:0:0:
470,230,36384,6,0,P|416:191|331:178,1,123.750004720688,0|0,1:0|1:0,1:0:0:0:
290,221,36798,2,0,P|355:221|432:183,1,123.750004720688,0|0,1:0|1:0,1:0:0:0:
442,126,37211,2,0,P|387:163|373:287,1,165.000006294251,0|0,1:0|1:0,1:0:0:0:
413,247,38453,5,0,1:0:0:0:
413,247,38660,1,0,1:0:0:0:
317,299,38867,2,0,P|260:278|201:182,1,165,0|0,1:0|1:0,1:0:0:0:
221,85,39281,2,0,P|256:134|249:247,1,165,0|0,1:0|1:0,1:0:0:0:
192,326,39695,6,0,P|143:283|123:236,1,110,0|0,1:0|1:0,1:0:0:0:
113,133,40108,1,0,1:0:0:0:
113,133,40315,1,0,1:0:0:0:
280,277,40522,2,0,P|346:237|379:147,1,165,0|0,1:0|1:0,1:0:0:0:
355,50,40936,2,0,P|324:120|349:196,1,110,0|0,1:0|1:0,1:0:0:0:
412,222,41350,6,0,P|326:206|216:238,1,165,0|0,1:0|1:0,1:0:0:0:
191,313,41764,2,0,P|271:276|343:187,1,165,0|0,1:0|1:0,1:0:0:0:
320,112,42177,2,0,P|276:187|329:346,1,220,0|0,1:0|1:0,1:0:0:0:
42,230,43005,6,0,P|96:191|181:178,1,123.750004720688,0|0,1:0|1:0,1:0:0:0:
222,221,43419,2,0,P|157:221|80:183,1,123.750004720688,0|0,1:0|1:0,1:0:0:0:
70,126,43832,2,0,P|125:163|135:313,1,220,0|0,1:0|1:0,1:0:0:0:
40,256,44453,5,0,1:0:0:0:
242,341,44660,2,0,P|303:291|316:219,1,110,0|0,1:0|1:0,1:0:0:0:
277,45,45074,2,0,P|255:121|286:187,1,110,0|0,1:0|1:0,1:0:0:0:
479,179,45487,6,0,P|400:182|346:231,1,110,0|0,1:0|1:0,1:0:0:0:
294,289,45798,2,0,P|240:231|237:158,1,110,0|0,1:0|1:0,1:0:0:0:
163,158,46108,1,0,1:0:0:0:
114,59,46315,2,0,P|191:75|235:133,1,110,0|0,1:0|1:0,1:0:0:0:
403,246,46729,6,0,P|446:170|436:115,1,110,0|0,1:0|1:0,1:0:0:0:
392,52,47143,2,0,P|318:69|275:138,1,110,0|0,1:0|1:0,1:0:0:0:
227,178,47453,2,0,P|153:161|110:92,1,110,0|0,1:0|1:0,1:0:0:0:
66,47,47763,5,0,1:0:0:0:
169,85,47970,1,0,1:0:0:0:
149,193,48177,1,0,1:0:0:0:
253,226,48384,1,0,1:0:0:0:
40,284,48798,6,0,P|35:193|71:150,1,110,0|0,1:0|1:0,1:0:0:0:
154,227,49108,2,0,P|231:210|275:152,1,110,0|0,1:0|1:0,1:0:0:0:
336,195,49418,1,0,1:0:0:0:
433,142,49625,2,0,P|360:111|290:133,1,110,0|0,1:0|1:0,1:0:0:0:
271,221,49936,6,0,P|200:184|173:117,1,110,0|0,1:0|1:0,1:0:0:0:
102,142,50246,1,0,1:0:0:0:
27,68,50453,2,0,P|105:57|166:96,1,110,0|0,1:0|1:0,1:0:0:0:
253,78,50763,2,0,P|236:155|179:199,1,110,0|0,1:0|1:0,1:0:0:0:
105,181,51074,5,0,1:0:0:0:
136,286,51281,1,0,1:0:0:0:
40,340,51487,1,0,1:0:0:0:
121,250,51694,6,0,P|197:239|290:272,1,165,0|0,1:0|1:0,1:0:0:0:
383,303,52108,2,0,P|438:274|473:116,1,220,0|0,1:0|1:0,1:0:0:0:
331,39,52729,5,0,1:0:0:0:
294,154,52936,2,0,P|367:135|397:97,1,110,0|0,1:0|1:0,1:0:0:0:
467,18,53350,2,0,P|418:75|415:123,1,110,0|0,1:0|1:0,1:0:0:0:
469,343,53763,2,0,P|476:267|450:226,1,110,0|0,1:0|1:0,1:0:0:0:
372,304,54177,2,0,P|271:293|171:193,1,220,0|0,1:0|1:0,1:0:0:0:
325,210,55005,6,0,P|276:276|229:290,1,110,0|0,1:0|1:0,1:0:0:0:
43,343,55418,2,0,P|36:267|62:226,1,110,0|0,1:0|1:0,1:0:0:0:
127,31,55832,1,0,1:0:0:0:
119,134,56039,5,0,1:0:0:0:
32,202,56246,2,0,P|97:163|146:169,1,110,0|0,1:0|1:0,1:0:0:0:
350,146,56660,2,0,P|284:184|235:178,1,110,0|0,1:0|1:0,1:0:0:0:
216,78,57074,2,0,P|254:144|248:193,1,110,0|0,1:0|1:0,1:0:0:0:
67,294,57487,6,0,P|141:241|254:237,1,165,0|0,1:0|1:0,1:0:0:0:
310,281,57901,2,0,P|218:281|124:220,1,165,0|0,1:0|1:0,1:0:0:0:
194,147,58315,2,0,P|194:238|162:295,1,110,0|0,1:0|1:0,1:0:0:0:
93,347,58729,5,0,1:0:0:0:
195,307,58936,1,0,1:0:0:0:
108,238,59143,1,0,1:0:0:0:
203,182,59350,1,0,1:0:0:0:
195,72,59556,6,0,P|178:142|200:195,1,110,0|0,1:0|1:0,1:0:0:0:
380,286,59970,2,0,P|353:218|305:188,1,110,0|0,1:0|1:0,1:0:0:0:
246,274,60384,5,0,1:0:0:0:
159,205,60591,1,0,1:0:0:0:
85,286,60798,1,0,1:0:0:0:
84,251,61625,5,0,1:0:0:0:
115,145,61832,1,0,1:0:0:0:
215,194,62039,5,0,1:0:0:0:
297,90,62246,2,0,P|269:133|272:208,1,110,0|0,1:0|1:0,1:0:0:0:
484,157,62660,2,0,P|438:132|289:204,1,220,0|0,1:0|1:0,1:0:0:0:
357,283,63281,6,0,P|396:225|398:187,1,110,0|0,1:0|1:0,1:0:0:0:
344,90,63694,1,0,1:0:0:0:
156,204,63901,2,0,P|237:207|309:136,1,165,0|0,1:0|1:0,1:0:0:0:
352,46,64315,2,0,P|283:90|279:236,1,220,0|0,1:0|1:0,1:0:0:0:
489,138,64936,2,0,P|420:147|383:185,1,110,0|0,1:0|1:0,1:0:0:0:
352,276,65350,5,0,1:0:0:0:
454,236,65557,1,0,1:0:0:0:
367,167,65764,1,0,1:0:0:0:
462,111,65971,1,0,1:0:0:0:
247,66,66177,6,0,P|230:136|252:189,1,110,0|0,1:0|1:0,1:0:0:0:
432,280,66591,2,0,P|406:212|358:182,1,110,0|0,1:0|1:0,1:0:0:0:
327,288,67005,5,0,1:0:0:0:
235,226,67212,1,0,1:0:0:0:
211,332,67418,1,0,1:0:0:0:
116,324,68246,6,0,P|123:257|167:214,1,110,0|0,1:0|1:0,1:0:0:0:
357,151,68660,2,0,P|312:201|252:211,1,110,0|0,1:0|1:0,1:0:0:0:
61,145,69074,2,0,P|126:129|181:156,1,110,0|0,1:0|1:0,1:0:0:0:
323,296,69487,2,0,P|260:270|230:217,1,110,0|0,1:0|1:0,1:0:0:0:
179,310,70108,5,0,1:0:0:0:
274,254,70315,1,0,1:0:0:0:
206,167,70522,1,0,1:0:0:0:
285,91,70729,1,0,1:0:0:0:
140,11,70936,6,0,L|217:182,1,165.000006294251,0|0,1:0|1:0,1:0:0:0:
260,258,71556,5,0,1:0:0:0:
213,158,71763,1,0,1:0:0:0:
298,337,71970,2,0,P|331:289|330:204,1,110,0|0,1:0|1:0,1:0:0:0:
269,49,72281,2,0,P|269:107|319:176,1,110,0|0,1:0|1:0,1:0:0:0:
362,222,72591,5,0,1:0:0:0:
488,42,72798,2,0,P|416:82|397:110,1,110,0|0,1:0|1:0,1:0:0:0:
235,250,73212,1,0,1:0:0:0:
420,134,73418,6,0,P|352:151|293:250,1,165,0|0,1:0|1:0,1:0:0:0:
279,346,73832,2,0,P|323:292|315:178,1,165,0|0,1:0|1:0,1:0:0:0:
212,49,74246,6,0,P|216:118|304:194,1,165,0|0,1:0|1:0,1:0:0:0:
396,225,74660,2,0,P|350:172|236:160,1,165,0|0,1:0|1:0,1:0:0:0:
99,251,75074,1,0,1:0:0:0:
89,27,75694,6,0,P|50:94|53:153,1,110,0|0,1:0|1:0,1:0:0:0:
82,343,76108,1,0,1:0:0:0:
277,241,76315,2,0,P|192:250|115:331,1,165,0|0,1:0|1:0,1:0:0:0:
236,334,76729,2,0,P|244:262|183:142,1,165,0|0,1:0|1:0,1:0:0:0:
129,104,77143,1,0,1:0:0:0:
51,310,77350,2,0,P|131:246|137:215,1,110,0|0,1:0|1:0,1:0:0:0:
237,50,77763,6,0,P|208:148|233:209,1,165,0|0,1:0|1:0,1:0:0:0:
324,278,78177,2,0,P|291:180|236:145,1,165,0|0,1:0|1:0,1:0:0:0:
118,319,79005,6,0,P|189:295|215:247,1,110,0|0,1:0|1:0,1:0:0:0:
311,50,79418,2,0,P|266:110|272:164,1,110,0|0,1:0|1:0,1:0:0:0:
364,214,79832,1,0,1:0:0:0:
123,184,80039,6,0,P|180:235|295:247,1,165,0|0,1:0|1:0,1:0:0:0:
376,203,80453,2,0,P|300:193|198:250,1,165,0|0,1:0|1:0,1:0:0:0:
315,336,80867,6,0,P|324:260|267:158,1,165,0|0,1:0|1:0,1:0:0:0:
185,118,81281,2,0,P|221:185|325:236,1,165,0|0,1:0|1:0,1:0:0:0:
414,245,81694,1,0,1:0:0:0:
238,356,82315,6,0,P|294:318|318:268,1,110,0|0,1:0|1:0,1:0:0:0:
307,95,82625,2,0,P|281:158|291:212,1,110,0|0,1:0|1:0,1:0:0:0:
326,302,82936,1,0,1:0:0:0:
418,224,83143,6,0,P|349:229|304:261,1,110,0|0,1:0|1:0,1:0:0:0:
156,350,83453,2,0,P|224:344|269:312,1,110,0|0,1:0|1:0,1:0:0:0:
341,250,83763,1,0,1:0:0:0:
438,21,83970,6,0,P|374:70|357:123,1,110,0|0,1:0|1:0,1:0:0:0:
434,180,84281,2,0,P|385:116|332:99,1,110,0|0,1:0|1:0,1:0:0:0:
288,189,84591,5,0,1:0:0:0:
209,111,84798,1,0,1:0:0:0:
173,215,85005,1,0,1:0:0:0:
107,126,85212,6,0,L|88:261,1,123.750004720688,0|0,1:0|1:0,1:0:0:0:
82,302,85625,1,0,1:0:0:0:
144,211,85832,5,0,1:0:0:0:
206,301,86039,1,0,1:0:0:0:
247,201,86246,1,0,1:0:0:0:
357,197,86453,5,0,1:0:0:0:
284,280,86660,1,0,1:0:0:0:
393,298,86867,5,0,1:0:0:0:
336,203,87074,1,0,1:0:0:0:
243,262,87281,1,0,1:0:0:0:
209,157,87487,1,0,1:0:0:0:
110,205,87694,1,0,1:0:0:0:
127,96,87901,5,0,1:0:0:0:
345,118,88108,2,0,P|300:59|246:45,1,110,0|0,1:0|1:0,1:0:0:0:
183,257,88522,2,0,P|256:254|328:168,1,165,0|0,1:0|1:0,1:0:0:0:
235,121,88936,5,0,1:0:0:0:
319,191,89143,1,0,1:0:0:0:
316,80,89350,1,0,1:0:0:0:
415,125,89556,1,0,1:0:0:0:
424,17,89763,2,0,L|415:130,1,82.5000031471254,0|0,1:0|1:0,1:0:0:0:
401,319,90177,5,0,1:0:0:0:
328,236,90384,1,0,1:0:0:0:
255,318,90591,1,0,1:0:0:0:
184,233,90798,1,0,1:0:0:0:
113,317,91005,1,0,1:0:0:0:
26,249,91212,5,0,1:0:0:0:
129,213,91418,1,0,1:0:0:0:
38,151,91625,1,0,1:0:0:0:
38,258,91832,2,0,L|109:127,1,123.750004720688,0|0,1:0|1:0,1:0:0:0:
121,99,92246,1,0,1:0:0:0:
187,186,92453,5,0,1:0:0:0:
199,76,92660,1,0,1:0:0:0:
276,153,92867,1,0,1:0:0:0:
305,47,93074,5,0,1:0:0:0:
197,71,93281,1,0,1:0:0:0:
291,125,93487,5,0,1:0:0:0:
200,188,93694,1,0,1:0:0:0:
300,231,93901,1,0,1:0:0:0:
203,282,94107,1,0,1:0:0:0:
300,334,94315,1,0,1:0:0:0:
195,337,94522,5,0,1:0:0:0:
408,289,94729,2,0,P|368:352|317:373,1,110,0|0,1:0|1:0,1:0:0:0:
230,170,95143,2,0,P|302:163|384:240,1,165,0|0,1:0|1:0,1:0:0:0:
267,296,95556,5,0,1:0:0:0:
243,188,95763,1,0,1:0:0:0:
155,252,95970,1,0,1:0:0:0:
122,147,96177,1,0,1:0:0:0:
34,212,96384,2,0,L|249:169,1,220,0|0,1:0|1:0,1:0:0:0:
206,168,97212,6,0,L|286:267,1,110,0|0,1:0|1:0,1:0:0:0:
284,143,97625,2,0,L|274:265,1,110,0|0,1:0|1:0,1:0:0:0:
