osu file format v14

[General]
AudioFilename: audio.mp3
AudioLeadIn: 0
PreviewTime: 71556
Countdown: 0
SampleSet: Normal
StackLeniency: 0.7
Mode: 0
LetterboxInBreaks: 0
WidescreenStoryboard: 1

[Editor]
Bookmarks: 19013,32254,45495,58737,65358,71978,78591,85220,88522,91212,96806,111702,124944,131564,138185,151426,163013,177909,184530,187840,189495,190323,191151,192806,206047,219289
DistanceSpacing: 1.5
BeatDivisor: 4
GridSize: 16
TimelineZoom: 1.7

[Metadata]
Title:%%
TitleUnicode:응응
Artist:Apink
ArtistUnicode:Apink
Creator:Everything Dust
Version:Hard
Source:
Tags:
BeatmapID:1896959
BeatmapSetID:907332

[Difficulty]
HPDrainRate:5
CircleSize:3.5
OverallDifficulty:5
ApproachRate:8
SliderMultiplier:1.8
SliderTickRate:1

[Events]
//Background and Video events
0,0,"%%.png",0,0
//Break Periods
//Storyboard Layer 0 (Background)
//Storyboard Layer 1 (Fail)
//Storyboard Layer 2 (Pass)
//Storyboard Layer 3 (Foreground)
//Storyboard Sound Samples

[TimingPoints]
17350,413.793103448276,4,1,1,100,1,0
19013,-100,4,1,1,100,0,0
33487,-100,4,1,1,100,0,0
33901,-100,4,1,1,100,0,0
35556,-303.030303030303,4,1,1,100,0,0
36177,-303.030303030303,4,1,1,5,0,0
36384,-133.333333333333,4,1,1,100,0,0
37212,-400,4,1,1,100,0,0
37832,-400,4,1,1,10,0,0
38453,-100,4,1,1,100,0,0
42177,-303.030303030303,4,1,1,100,0,0
42798,-303.030303030303,4,1,1,5,0,0
43005,-133.333333333333,4,1,1,100,0,0
43833,-111.111111111111,4,1,1,100,0,0
44453,-111.111111111111,4,1,1,5,0,0
44660,-90.9090909090909,4,1,1,100,0,0
45074,-90.9090909090909,4,1,1,100,0,0
45487,-100,4,1,1,100,0,0
45694,-100,4,1,1,5,0,0
45798,-100,4,1,1,100,0,0
46005,-100,4,1,1,5,0,0
46109,-100,4,1,1,100,0,0
47350,-100,4,1,1,5,0,0
47454,-100,4,1,1,100,0,0
47660,-100,4,1,1,5,0,0
47764,-100,4,1,1,100,0,0
49005,-100,4,1,1,5,0,0
49109,-100,4,1,1,100,0,0
49315,-100,4,1,1,5,0,0
49419,-100,4,1,1,100,0,0
49832,-100,4,1,1,5,0,0
49936,-100,4,1,1,100,0,0
50143,-100,4,1,1,5,0,0
50247,-100,4,1,1,100,0,0
50660,-100,4,1,1,5,0,0
50764,-100,4,1,1,100,0,0
50970,-100,4,1,1,5,0,0
51074,-100,4,1,1,100,0,0
57487,-100,4,1,1,100,0,0
57901,-88.8888888888889,4,1,1,100,0,0
58108,-88.8888888888889,4,1,1,5,0,0
58315,-80,4,1,1,100,0,0
58729,-100,4,1,1,100,0,0
60798,-133.333333333333,4,1,1,100,0,0
61625,-100,4,1,1,100,0,0
67418,-133.333333333333,4,1,1,100,0,0
68245,-100,4,1,1,100,0,0
71556,-133.333333333333,4,1,1,100,0,0
71970,-100,4,1,1,100,0,1
72177,-100,4,1,1,5,0,1
72281,-100,4,1,1,100,0,1
72487,-100,4,1,1,5,0,1
72591,-100,4,1,1,100,0,1
73729,-100,4,1,1,5,0,1
73833,-100,4,1,1,100,0,1
74143,-100,4,1,1,5,0,1
74247,-100,4,1,1,100,0,1
74556,-100,4,1,1,5,0,1
74660,-100,4,1,1,100,0,1
74970,-100,4,1,1,5,0,1
75074,-100,4,1,1,100,0,1
76315,-133.333333333333,4,1,1,100,0,1
76625,-133.333333333333,4,1,1,5,0,1
76729,-133.333333333333,4,1,1,100,0,1
77143,-100,4,1,1,100,0,1
77970,-100,4,1,1,5,0,1
78177,-100,4,1,1,100,0,1
80350,-100,4,1,1,5,0,1
80454,-100,4,1,1,100,0,1
80763,-100,4,1,1,5,0,1
80867,-100,4,1,1,100,0,1
81177,-100,4,1,1,5,0,1
81281,-100,4,1,1,100,0,1
81591,-100,4,1,1,5,0,1
81695,-100,4,1,1,100,0,1
84177,-100,4,1,1,5,0,1
84281,-100,4,1,1,100,0,1
84487,-100,4,1,1,5,0,1
84591,-100,4,1,1,100,0,1
85212,-133.333333333333,4,1,1,100,0,1
85522,-133.333333333333,4,1,1,5,0,1
85625,-100,4,1,1,100,0,1
88832,-100,4,1,1,5,0,1
88936,-100,4,1,1,100,0,1
90074,-100,4,1,1,5,0,1
90178,-100,4,1,1,100,0,1
91832,-133.333333333333,4,1,1,100,0,1
92143,-133.333333333333,4,1,1,5,0,1
92246,-100,4,1,1,100,0,1
95453,-100,4,1,1,5,0,1
95557,-100,4,1,1,100,0,1
96384,-133.333333333333,4,1,1,100,0,1
96798,-100,4,1,1,5,0,0
97212,-100,4,1,1,100,0,0
138177,-100,4,1,1,100,0,1
163005,-100,4,1,1,100,0,0
192798,-100,4,1,1,100,0,1
206039,-100,4,1,1,100,0,0

[Colours]
Combo1 : 252,128,124
Combo2 : 250,22,129
Combo3 : 229,169,197

[HitObjects]
256,192,17350,12,0,18591,0:0:0:0:
129,192,19005,6,0,P|209:240|305:224,1,180
366,128,19625,6,0,P|273:126|198:188,1,180
155,250,20245,1,0,0:0:0:0:
256,320,20453,6,0,P|304:240|288:144,1,180
256,76,21073,1,0,0:0:0:0:
190,138,21281,6,0,P|270:186|366:170,1,180
391,95,21901,2,0,L|302:164,1,90
144,194,22315,6,0,L|337:249,1,180
398,204,22936,2,0,L|223:291,1,180
154,320,23556,2,0,L|206:220,1,90
210,59,23970,6,0,L|297:239,1,180
263,307,24591,2,0,L|318:120,1,180
339,47,25212,1,0,0:0:0:0:
448,189,25625,6,0,P|364:167|261:240,1,180
216,266,26246,1,0,0:0:0:0:
131,236,26453,6,0,P|214:214|317:287,1,180
363,313,27074,1,0,0:0:0:0:
434,258,27281,6,0,P|350:236|247:309,1,180
236,359,27901,6,0,P|310:314|331:190,1,180
336,139,28522,1,0,0:0:0:0:
236,289,28936,6,0,P|145:266|88:187,1,180
114,76,29556,2,0,P|181:140|190:237,1,180
177,312,30176,1,0,0:0:0:0:
337,228,30591,6,0,P|333:172|279:120,1,90
112,264,31005,2,0,L|217:202,1,90
152,49,31832,6,0,P|190:85|252:101,1,90
319,68,32246,2,0,P|205:89|140:150,1,180
71,286,33074,6,0,P|116:248|138:202,1,90
86,143,33487,2,0,P|70:199|79:250,1,90
194,358,33901,2,0,P|282:360|360:316,1,180
427,264,34522,1,0,0:0:0:0:
422,174,34729,6,0,P|385:184|334:245,1,90
341,308,35143,2,0,P|365:278|372:199,1,90
323,157,35556,6,0,P|319:195|358:264,1,90
471,157,36384,6,0,P|463:129|417:91,1,67.5000025749208
371,96,36798,2,0,P|393:114|452:119,1,67.5000025749208
484,83,37212,6,0,P|455:80|403:109,1,67.5000025749208
348,144,38453,6,0,P|295:142|240:110,1,90
216,39,38867,2,0,P|281:134|284:223,1,180
259,373,39694,6,0,P|214:335|192:289,1,90
244,231,40107,2,0,P|259:287|250:338,1,90
120,327,40521,2,0,P|89:260|104:152,1,180
157,83,41143,1,0,0:0:0:0:
236,124,41350,6,0,P|226:161|165:212,1,90
102,205,41764,2,0,P|132:181|211:174,1,90
253,223,42177,6,0,P|215:227|146:188,1,90
253,75,43005,6,0,P|281:83|319:129,1,67.5000025749208
314,175,43419,2,0,P|296:153|291:94,1,67.5000025749208
327,62,43833,6,0,P|381:136|350:284,1,242.999992584229
256,266,44660,6,0,P|299:240|365:244,1,99.0000030212403
462,260,45074,2,0,P|423:308|311:341,1,148.50000453186
245,355,45487,6,0,P|224:319|218:261,1,90
141,228,45798,2,0,P|161:191|208:157,1,90
205,78,46108,5,0,0:0:0:0:
71,131,46315,2,0,P|94:82|236:32,1,180
292,29,46936,1,0,0:0:0:0:
373,66,47143,6,0,P|362:106|325:151,1,90
357,230,47454,2,0,P|316:242|259:232,1,90
207,298,47763,1,0,0:0:0:0:
167,217,47970,5,0,0:0:0:0:
92,266,48177,1,0,0:0:0:0:
67,180,48384,1,0,0:0:0:0:
171,326,48798,6,0,P|212:326|265:302,1,90
333,353,49109,2,0,P|355:317|360:259,1,90
431,222,49419,1,0,0:0:0:0:
354,268,49625,6,0,P|317:247|283:200,1,90
200,210,49936,2,0,P|198:167|222:115,1,90
181,48,50246,5,0,0:0:0:0:
361,44,50453,2,0,P|372:85|363:142,1,90
429,194,50764,2,0,P|400:225|346:245,1,90
328,322,51074,1,0,0:0:0:0:
253,372,51281,5,0,0:0:0:0:
223,287,51487,1,0,0:0:0:0:
147,335,51694,2,0,P|104:306|90:231,1,90
126,190,52108,2,0,P|144:238|96:360,1,180
61,273,52729,5,0,0:0:0:0:
93,189,52936,2,0,P|145:210|176:258,1,90
173,325,53350,2,0,P|142:277|144:220,1,90
200,75,53763,2,0,P|198:131|163:176,1,90
99,198,54177,2,0,P|159:176|307:212,1,180
397,320,55005,6,0,P|350:317|303:281,1,90
318,204,55418,2,0,P|354:233|372:361,1,180
294,313,56039,5,0,0:0:0:0:
326,229,56246,2,0,P|378:250|409:298,1,90
406,365,56660,2,0,P|375:317|377:260,1,90
433,115,57073,2,0,P|431:171|396:216,1,90
360,272,57487,6,0,P|313:229|299:176,1,90
295,52,57901,2,0,P|286:113|248:157,1,101.250003862381
101,187,58315,2,0,P|159:167|243:187,1,112.5
420,252,58729,5,0,0:0:0:0:
386,168,58936,1,0,0:0:0:0:
329,237,59143,1,0,0:0:0:0:
290,156,59350,1,0,0:0:0:0:
279,246,59556,5,0,0:0:0:0:
290,156,59763,1,0,0:0:0:0:
363,207,59970,1,0,0:0:0:0:
379,119,60177,1,0,0:0:0:0:
425,195,60384,6,0,P|409:230|358:267,1,90
219,302,60798,2,0,P|252:282|366:294,1,135.000005149842
439,325,61625,6,0,P|445:259|415:212,1,90
348,258,62039,1,0,0:0:0:0:
260,237,62246,2,0,P|315:207|368:209,1,90
385,284,62660,2,0,P|322:276|220:185,1,180
258,122,63281,6,0,P|275:185|253:237,1,90
179,203,63695,1,0,0:0:0:0:
96,239,63902,2,0,P|155:258|208:247,1,90
211,171,64316,2,0,P|150:189|65:297,1,180
184,347,64936,2,0,P|198:286|179:232,1,90
92,252,65350,5,0,0:0:0:0:
126,168,65557,1,0,0:0:0:0:
183,237,65764,1,0,0:0:0:0:
222,156,65971,1,0,0:0:0:0:
233,246,66177,5,0,0:0:0:0:
222,156,66384,1,0,0:0:0:0:
149,207,66591,1,0,0:0:0:0:
133,119,66798,1,0,0:0:0:0:
87,195,67005,6,0,P|103:230|154:267,1,90
293,302,67418,2,0,P|260:282|146:294,1,135.000005149842
99,319,68246,6,0,P|156:283|177:235,1,90
188,85,68660,2,0,P|161:147|172:198,1,90
324,249,69074,2,0,P|274:203|222:195,1,90
175,241,69487,1,0,0:0:0:0:
87,261,69694,2,0,P|88:197|113:155,1,90
187,156,70108,5,0,0:0:0:0:
269,191,70315,1,0,0:0:0:0:
328,123,70522,1,0,0:0:0:0:
417,130,70729,1,0,0:0:0:0:
449,45,70936,1,0,0:0:0:0:
445,112,71556,6,0,L|449:45,1,67.5000025749208
440,202,71970,2,0,P|401:248|344:261,1,90
331,244,72281,2,0,P|389:228|443:250,1,90
454,260,72591,5,0,0:0:0:0:
389,349,72798,2,0,P|342:347|286:304,1,90
233,270,73212,5,0,0:0:0:0:
143,280,73418,2,0,P|170:215|261:181,1,135
313,193,73832,2,0,P|253:230|159:206,1,135
148,178,74246,6,0,P|185:237|161:331,1,135
116,363,74660,2,0,P|119:292|193:229,1,135
217,212,75074,1,0,0:0:0:0:
117,212,75694,6,0,P|83:178|74:124,1,90
80,48,76108,1,0,0:0:0:0:
202,65,76315,6,0,P|210:112|182:164,1,101.250003862381
137,204,76729,2,0,P|157:160|210:134,1,101.250003862381
270,133,77143,1,0,0:0:0:0:
371,171,77350,6,0,P|406:122|411:73,1,90
331,22,77763,2,0,P|329:81|353:125,1,90
469,236,78177,2,0,P|435:186|224:180,1,270
274,269,79005,6,0,P|298:226|284:165,1,90
222,133,79418,2,0,P|227:181|273:223,1,90
335,246,79832,1,0,0:0:0:0:
463,120,80039,6,0,P|397:153|364:219,1,135
364,294,80453,2,0,P|399:229|388:156,1,135
329,107,80867,6,0,P|293:171|304:244,1,135
348,307,81281,2,0,P|339:233|288:180,1,135
243,153,81694,1,0,0:0:0:0:
77,288,82315,6,0,P|76:212|101:160,2,135
246,224,83143,2,0,P|170:223|118:248,1,135
207,350,83970,6,0,P|254:320|280:274,1,90
270,200,84281,2,0,P|248:251|253:304,1,90
279,345,84591,5,0,0:0:0:0:
317,263,84798,1,0,0:0:0:0:
378,328,85005,1,0,0:0:0:0:
481,241,85212,2,0,P|466:182|421:139,1,101.250003862381
382,117,85625,1,0,0:0:0:0:
317,180,85832,5,0,0:0:0:0:
265,105,86039,1,0,0:0:0:0:
199,166,86246,1,0,0:0:0:0:
161,84,86453,1,0,0:0:0:0:
79,121,86660,6,0,L|177:179,1,90
163,271,87074,2,0,L|85:224,1,90
88,319,87487,2,0,L|186:377,1,90
231,304,87901,5,0,0:0:0:0:
295,366,88108,1,0,0:0:0:0:
335,285,88315,1,0,0:0:0:0:
434,326,88522,2,0,P|464:270|448:174,1,135
424,142,88936,5,0,0:0:0:0:
334,132,89143,1,0,0:0:0:0:
357,44,89350,2,0,P|306:77|286:120,1,90
245,215,89763,2,0,P|191:186|147:106,1,135.000005149842
145,74,90177,5,0,0:0:0:0:
226,112,90384,1,0,0:0:0:0:
144,151,90591,1,0,0:0:0:0:
223,193,90798,1,0,0:0:0:0:
144,237,91005,1,0,0:0:0:0:
213,294,91212,5,0,0:0:0:0:
318,312,91418,2,0,P|362:264|373:205,1,90
305,121,91832,2,0,P|333:179|387:210,1,101.250003862381
428,208,92246,1,0,0:0:0:0:
353,320,92453,5,0,0:0:0:0:
314,237,92660,2,0,P|278:249|231:310,1,90
252,375,93074,2,0,P|274:344|277:267,1,90
209,243,93487,5,0,0:0:0:0:
160,318,93694,2,0,L|123:229,1,90
36,218,94108,2,0,L|73:307,1,90
103,369,94522,5,0,0:0:0:0:
198,318,94729,2,0,P|200:273|162:211,1,90
75,249,95143,2,0,P|101:176|176:129,1,135
190,113,95556,5,0,0:0:0:0:
247,182,95763,1,0,0:0:0:0:
286,101,95970,1,0,0:0:0:0:
346,167,96177,1,0,0:0:0:0:
404,45,96384,2,0,L|332:194,1,135.000005149842
