osu file format v14

[General]
AudioFilename: audio.mp3
AudioLeadIn: 0
PreviewTime: 71556
Countdown: 0
SampleSet: Normal
StackLeniency: 0.7
Mode: 0
LetterboxInBreaks: 0
WidescreenStoryboard: 1

[Editor]
Bookmarks: 19013,32254,45495,58737,65358,71978,78591,85220,88522,91212,96806,111702,124944,131564,138185,151426,163013,177909,184530,187840,189495,190323,191151,192806,206047,219289
DistanceSpacing: 1
BeatDivisor: 4
GridSize: 32
TimelineZoom: 1.7

[Metadata]
Title:%%
TitleUnicode:응응
Artist:Apink
ArtistUnicode:Apink
Creator:Everything Dust
Version:Easy
Source:
Tags:
BeatmapID:1896958
BeatmapSetID:907332

[Difficulty]
HPDrainRate:5
CircleSize:3
OverallDifficulty:5
ApproachRate:5
SliderMultiplier:1.2
SliderTickRate:1

[Events]
//Background and Video events
0,0,"%%.png",0,0
//Break Periods
//Storyboard Layer 0 (Background)
//Storyboard Layer 1 (Fail)
//Storyboard Layer 2 (Pass)
//Storyboard Layer 3 (Foreground)
//Storyboard Sound Samples

[TimingPoints]
17350,413.793103448276,4,1,1,100,1,0
19013,-100,4,1,1,100,0,0
32660,-133.333333333333,4,1,1,100,0,0
32763,-133.333333333333,4,1,1,5,0,0
33487,-133.333333333333,4,1,1,100,0,0
33590,-133.333333333333,4,1,1,5,0,0
34315,-133.333333333333,4,1,1,100,0,0
34418,-133.333333333333,4,1,1,5,0,0
35143,-133.333333333333,4,1,1,100,0,0
35246,-133.333333333333,4,1,1,5,0,0
35970,-133.333333333333,4,1,1,100,0,0
36073,-133.333333333333,4,1,1,5,0,0
36798,-133.333333333333,4,1,1,100,0,0
36901,-133.333333333333,4,1,1,5,0,0
37625,-133.333333333333,4,1,1,100,0,0
37728,-133.333333333333,4,1,1,5,0,0
38453,-133.333333333333,4,1,1,100,0,0
38556,-133.333333333333,4,1,1,5,0,0
39281,-133.333333333333,4,1,1,100,0,0
39384,-133.333333333333,4,1,1,5,0,0
40108,-133.333333333333,4,1,1,100,0,0
40211,-133.333333333333,4,1,1,5,0,0
40936,-133.333333333333,4,1,1,100,0,0
41039,-133.333333333333,4,1,1,5,0,0
41763,-133.333333333333,4,1,1,100,0,0
41866,-133.333333333333,4,1,1,5,0,0
42591,-133.333333333333,4,1,1,100,0,0
42694,-133.333333333333,4,1,1,5,0,0
43418,-133.333333333333,4,1,1,100,0,0
43521,-133.333333333333,4,1,1,5,0,0
43832,-100,4,1,1,100,0,0
71970,-100,4,1,1,100,0,1
90384,-100,4,1,1,5,0,1
91212,-100,4,1,1,100,0,1
96798,-100,4,1,1,100,0,0
97212,-100,4,1,1,100,0,0
138177,-100,4,1,1,100,0,1
163005,-100,4,1,1,100,0,0
192798,-100,4,1,1,100,0,1
206039,-100,4,1,1,100,0,0

[Colours]
Combo1 : 252,128,124
Combo2 : 250,22,129
Combo3 : 229,169,197

[HitObjects]
128,251,19005,5,0,0:0:0:0:
128,251,19418,2,0,P|238:284|369:211,1,240
401,128,21074,2,0,P|291:164|226:298,1,240
371,273,22315,5,0,0:0:0:0:
371,273,22728,2,0,P|344:161|215:84,1,240
128,98,24384,2,0,P|213:174|363:164,1,240
268,51,25625,5,0,0:0:0:0:
268,51,26038,2,0,P|185:130|183:280,1,240
238,349,27694,2,0,P|262:237|178:112,1,240
128,251,28936,5,0,0:0:0:0:
128,251,29349,2,0,P|238:284|369:211,1,240
323,180,30591,6,0,L|265:257,3,60
320,192,32660,6,0,L|350:183,1,22.5000008583069
447,157,33487,2,0,L|416:165,1,22.5000008583069
276,216,34315,6,0,L|308:215,1,22.5000008583069
408,215,35142,2,0,L|375:215,1,22.5000008583069
228,231,35970,6,0,L|258:239,1,22.5000008583069
356,265,36797,2,0,L|325:256,1,22.5000008583069
178,230,37625,6,0,L|205:245,1,22.5000008583069
293,295,38452,2,0,L|265:279,1,22.5000008583069
192,192,39281,6,0,L|161:200,1,22.5000008583069
65,227,40108,2,0,L|95:218,1,22.5000008583069
236,168,40936,6,0,L|204:168,1,22.5000008583069
104,169,41763,2,0,L|136:168,1,22.5000008583069
284,153,42591,6,0,L|253:144,1,22.5000008583069
156,119,43418,2,0,L|186:127,1,22.5000008583069
262,147,43832,5,0,0:0:0:0:
398,157,45487,5,0,0:0:0:0:
388,95,45901,2,0,B|275:38|134:116,1,240
95,207,47143,5,0,0:0:0:0:
105,145,47557,2,0,B|218:88|359:166,1,240
399,255,48798,5,0,0:0:0:0:
389,193,49212,2,0,B|276:136|135:214,1,240
105,309,50453,5,0,0:0:0:0:
115,247,50867,2,0,B|228:190|369:268,1,240
431,340,52108,5,0,0:0:0:0:
461,288,52522,2,0,B|442:162|298:91,1,240
206,140,53763,5,0,0:0:0:0:
236,191,54177,2,0,B|353:237|487:147,1,240
415,52,55418,5,0,0:0:0:0:
355,52,55832,2,0,B|255:130|266:291,1,240
273,345,57074,5,0,0:0:0:0:
181,347,58729,6,0,L|120:218,1,120
18,284,59556,2,0,L|79:155,1,120
184,211,60384,2,0,L|123:82,1,120
132,102,61625,5,0,0:0:0:0:
185,209,62039,6,0,L|314:148,1,120
248,46,62866,2,0,L|377:107,1,120
321,209,63694,2,0,L|450:148,1,120
429,157,64936,1,0,0:0:0:0:
410,275,65350,6,0,L|281:214,1,120
347,112,66177,2,0,L|218:173,1,120
274,275,67005,2,0,L|145:214,1,120
165,223,68246,5,0,0:0:0:0:
272,276,68660,2,0,L|262:140,2,120
271,275,70108,6,0,L|276:335,4,60
276,335,71556,5,0,0:0:0:0:
385,286,71970,2,0,P|305:263|225:281,1,120
228,310,72591,2,0,P|151:268|113:152,1,180
75,140,73418,2,0,P|163:132|238:178,1,180
222,236,74246,2,0,P|251:287|297:326,1,120
355,341,74867,1,0,0:0:0:0:
235,351,75281,6,0,P|275:278|344:234,1,120
363,257,75902,2,0,P|387:172|332:63,1,180
351,30,76729,2,0,P|283:86|262:172,1,180
315,201,77557,2,0,P|330:258|325:317,1,120
295,369,78178,1,0,0:0:0:0:
389,295,78591,6,0,P|321:245|240:235,1,120
233,264,79212,2,0,P|175:197|179:75,1,180
148,53,80039,2,0,P|233:75|288:144,1,180
253,192,80867,2,0,P|263:249|292:301,1,120
342,337,81488,1,0,0:0:0:0:
224,359,81901,6,0,P|236:276|286:211,1,120
312,226,82522,2,0,P|305:137|216:54,1,180
223,17,83349,2,0,P|178:92|187:180,1,180
285,189,84591,6,0,L|254:241,3,60
188,341,85625,6,0,L|263:221,1,120
131,244,86453,2,0,L|56:124,1,120
187,149,87281,2,0,L|262:29,2,120
124,251,88522,6,0,L|244:326,2,120
221,194,89763,2,0,P|300:199|366:307,1,180
381,318,91212,6,0,L|419:257,2,60
324,341,91832,6,0,L|249:221,1,120
381,244,92660,2,0,L|456:124,1,120
325,149,93488,2,0,L|250:29,2,120
388,251,94729,6,0,L|268:326,1,120
291,194,95557,2,0,L|171:119,1,120
195,250,96384,1,0,0:0:0:0:
