osu file format v14

[General]
AudioFilename: audio.mp3
AudioLeadIn: 0
PreviewTime: -1
Countdown: 0
SampleSet: Normal
StackLeniency: 0.7
Mode: 0
LetterboxInBreaks: 0
WidescreenStoryboard: 0

[Editor]
DistanceSpacing: 2.7
BeatDivisor: 6
GridSize: 4
TimelineZoom: 1.6

[Metadata]
Title:Hau'oli City - Pokemon Sun and Moon
TitleUnicode:Hau'oli City - Pokémon Sun and Moon
Artist:ApieceofOnion
ArtistUnicode:ApieceofOnion
Creator:Toafu
Version:Day at the Beach
Source:
Tags:Pokemon Sun and Moon ApieceofOnion
BeatmapID:1518946
BeatmapSetID:719271

[Difficulty]
HPDrainRate:6
CircleSize:4.5
OverallDifficulty:6
ApproachRate:9
SliderMultiplier:1.70000000596046
SliderTickRate:1

[Events]
//Background and Video events
0,0,"Hau'oli.jpg",0,0
//Break Periods
2,48567,53919
2,126734,129933
//Storyboard Layer 0 (Background)
//Storyboard Layer 1 (Fail)
//Storyboard Layer 2 (Pass)
//Storyboard Layer 3 (Foreground)
//Storyboard Sound Samples

[TimingPoints]
4034,500,4,1,0,100,1,0
11500,-50,4,1,0,100,0,0
12500,-100,4,1,0,100,0,0
27534,-50,4,1,0,100,0,0
28534,-100,4,1,0,100,0,0
35534,-50,4,1,0,100,0,0
38534,-133.333333333333,4,1,0,100,0,0
62534,-50,4,1,0,100,0,0
66534,-200,4,1,0,100,0,0
74534,-100,4,1,0,100,0,1
81534,-50,4,1,0,100,0,0
82534,-100,4,1,0,100,0,1
90034,-100,4,1,0,100,0,0
97534,-50,4,1,0,100,0,0
98534,-100,4,1,0,100,0,0
105528,-50,4,1,0,100,0,0
106500,-200,4,1,0,100,0,0
110534,-100,4,1,0,100,0,0
121534,-50,4,1,0,100,0,0
122450,-100,4,1,0,100,0,0
132534,-66.6666666666667,4,1,0,100,0,0
134534,-50,4,1,0,100,0,0
139367,-200,4,1,0,100,0,0
140867,-50,4,1,0,100,0,0
141367,-200,4,1,0,100,0,0

[Colours]
Combo1 : 255,255,0
Combo2 : 0,0,255
Combo3 : 0,255,64

[HitObjects]
172,92,3996,5,0,0:0:0:0:
208,112,4120,1,0,0:0:0:0:
244,132,4245,1,0,0:0:0:0:
280,152,4370,1,0,0:0:0:0:
316,176,4495,1,0,0:0:0:0:
112,84,4700,6,0,L|112:140,1,56.6666668653487
216,80,5200,6,0,L|216:148,1,56.6666668653487
320,80,5700,6,0,L|320:136,1,56.6666668653487
312,68,6370,5,0,0:0:0:0:
212,128,6534,1,0,0:0:0:0:
120,124,7534,2,0,P|192:212|256:172,1,198.33333402872
292,136,8284,1,0,0:0:0:0:
272,124,8370,1,0,0:0:0:0:
252,112,8450,1,0,0:0:0:0:
72,160,9000,6,0,L|100:160,4,28.3333334326743
152,152,9500,2,0,P|228:148|232:208,1,136.000000476837
228,208,10166,1,0,0:0:0:0:
296,216,10500,5,0,0:0:0:0:
324,180,10666,1,0,0:0:0:0:
340,148,10833,1,0,0:0:0:0:
360,120,11000,1,0,0:0:0:0:
96,68,11500,6,0,L|248:344,1,255
288,264,12000,2,0,B|164:32|164:40,1,255
236,36,12500,5,0,0:0:0:0:
236,108,12666,2,0,L|236:168,1,56.6666666666667
64,192,13000,1,0,0:0:0:0:
140,192,13166,2,0,L|216:192,1,56.6666666666667
256,328,13500,1,0,0:0:0:0:
256,248,13666,2,0,L|256:192,1,56.6666666666667
460,192,14000,1,0,0:0:0:0:
368,192,14166,2,0,L|304:192,1,56.6666666666667
248,52,14500,5,0,0:0:0:0:
144,136,14666,1,0,0:0:0:0:
216,252,14833,1,0,0:0:0:0:
344,100,15000,1,2,0:0:0:0:
332,180,15166,1,0,0:0:0:0:
320,260,15333,1,0,0:0:0:0:
240,264,15500,5,0,0:0:0:0:
184,136,15666,1,0,0:0:0:0:
128,264,15833,1,0,0:0:0:0:
184,136,16000,1,2,0:0:0:0:
244,256,16166,1,0,0:0:0:0:
352,240,16333,1,0,0:0:0:0:
256,192,16500,1,0,0:0:0:0:
256,192,17000,12,0,19500,0:0:0:0:
144,120,20000,5,0,0:0:0:0:
184,164,20125,2,0,L|228:216,1,42.5
248,244,20375,1,0,0:0:0:0:
288,200,20500,1,0,0:0:0:0:
184,80,20666,6,0,P|168:108|184:132,1,56.6666666666667
252,156,21000,1,0,0:0:0:0:
324,188,21166,2,0,P|344:212|324:240,1,56.6666666666667
256,248,21500,1,0,0:0:0:0:
180,236,21666,2,0,P|172:212|192:192,1,56.6666666666667
260,152,22000,1,0,0:0:0:0:
168,80,22367,5,0,0:0:0:0:
324,160,22534,1,0,0:0:0:0:
408,264,23534,2,0,B|364:196|364:168|276:160,1,170.000000596046
180,104,24367,1,0,0:0:0:0:
180,144,24450,1,0,0:0:0:0:
180,184,24534,1,0,0:0:0:0:
280,100,25034,6,0,L|292:136,4,28.3333334326743
272,152,25534,2,0,P|232:200|160:196,1,113.333333730697
168,140,26200,1,0,0:0:0:0:
384,192,26534,1,0,0:0:0:0:
280,264,26700,1,0,0:0:0:0:
184,180,26867,1,0,0:0:0:0:
284,100,27034,1,0,0:0:0:0:
200,64,27534,6,0,B|224:88|224:88|200:100|200:100|228:108|228:108|204:120|204:120|232:136|232:136|208:152|208:152|232:164|232:164|212:172|212:172|240:184|240:184|220:192|216:196|216:196,1,283.333334326743
300,208,28034,2,0,B|312:176|312:176|288:176|288:176|308:152|308:152|280:148|280:148|304:124|304:124|264:116|264:116|296:96|296:96|264:88|264:88|288:72|288:72,1,283.333334326743
132,172,28534,5,0,0:0:0:0:
216,264,28700,1,0,0:0:0:0:
320,264,28867,1,0,0:0:0:0:
272,116,29034,1,2,0:0:0:0:
172,244,29200,1,0,0:0:0:0:
268,112,29367,1,0,0:0:0:0:
140,176,29534,5,0,0:0:0:0:
240,264,29700,2,0,L|288:216,1,56.6666668653487
288,80,30034,1,2,0:0:0:0:
192,116,30200,2,0,P|168:156|188:180,1,56.6666668653487
188,316,30534,1,0,0:0:0:0:
388,212,30700,1,0,0:0:0:0:
280,208,30867,1,0,0:0:0:0:
120,196,31034,1,2,0:0:0:0:
192,92,31200,1,0,0:0:0:0:
368,100,31367,1,0,0:0:0:0:
364,268,31534,6,0,L|284:268,2,56.6666668653487
300,168,32033,1,2,0:0:0:0:
208,236,32200,1,0,0:0:0:0:
104,180,32367,1,0,0:0:0:0:
256,108,32534,5,0,0:0:0:0:
388,160,33034,6,0,L|352:160,4,28.3333334326743
384,192,33534,2,0,P|352:256|252:288,1,170.000000596046
220,240,34367,2,0,L|208:252,1,14.1666667163372
192,228,34450,2,0,L|176:236,1,14.1666667163372
168,208,34534,2,0,L|152:216,1,14.1666667163372
228,56,35534,6,0,B|320:120|328:148|392:172|412:252|476:268,1,283.333334326743
384,308,36034,2,0,B|288:256|268:200|132:144,1,283.333334326743
148,88,36534,5,0,0:0:0:0:
428,112,37534,1,0,0:0:0:0:
388,232,37700,1,0,0:0:0:0:
256,260,37867,1,0,0:0:0:0:
120,208,38034,1,0,0:0:0:0:
152,80,38200,1,0,0:0:0:0:
304,88,38367,1,0,0:0:0:0:
252,184,38534,2,0,B|232:228|232:228|144:156|316:88,1,255.000010621547
344,176,39700,1,0,0:0:0:0:
328,256,39867,1,0,0:0:0:0:
180,312,40159,1,0,0:0:0:0:
104,232,40325,1,0,0:0:0:0:
104,176,40534,6,0,P|148:108|180:148,1,148.750006195903
224,212,41534,2,0,B|236:164|272:144|324:152,1,127.500005310774
328,92,42534,2,0,P|224:96|196:100,1,127.500005310774
192,184,43200,1,0,0:0:0:0:
280,224,43367,1,0,0:0:0:0:
392,268,43534,1,0,0:0:0:0:
408,180,43700,1,0,0:0:0:0:
408,180,43784,1,0,0:0:0:0:
408,180,43867,1,0,0:0:0:0:
336,120,44034,1,0,0:0:0:0:
188,64,44534,6,0,L|236:184,1,127.500005310774
352,188,45200,1,0,0:0:0:0:
308,224,45367,1,0,0:0:0:0:
248,232,45534,1,0,0:0:0:0:
188,212,45700,1,0,0:0:0:0:
240,172,45867,1,0,0:0:0:0:
304,176,46034,1,0,0:0:0:0:
140,176,46867,6,0,L|224:144,1,85.0000035405158
304,148,47367,1,0,0:0:0:0:
312,248,47534,2,0,B|248:204|160:228|180:268|180:268|116:256,1,212.50000885129
96,72,54534,5,0,0:0:0:0:
144,284,55034,1,0,0:0:0:0:
232,84,55534,1,0,0:0:0:0:
296,292,56034,1,0,0:0:0:0:
372,88,56534,1,0,0:0:0:0:
156,112,57034,1,0,0:0:0:0:
360,184,57534,1,0,0:0:0:0:
160,264,58034,1,0,0:0:0:0:
416,76,58534,5,0,0:0:0:0:
192,36,59034,1,0,0:0:0:0:
420,48,59534,1,0,0:0:0:0:
260,212,60034,1,0,0:0:0:0:
464,320,60534,1,0,0:0:0:0:
284,176,61034,1,0,0:0:0:0:
88,296,61534,1,0,0:0:0:0:
280,168,62034,1,0,0:0:0:0:
120,76,62534,6,0,L|248:280,1,226.666667461395
120,76,63034,2,0,L|248:280,1,226.666667461395
120,76,63534,2,0,L|244:276,1,226.666667461395
239,268,64033,2,0,L|116:64,1,226.666667461395
368,56,64533,6,0,P|276:96|248:220,1,226.666667461395
372,212,65033,2,0,P|304:128|180:120,1,226.666667461395
240,320,65534,2,0,P|144:228|192:136,1,226.666667461395
344,168,66034,2,0,P|248:184|312:264,1,226.666667461395
108,56,66534,6,0,B|72:100|72:100|104:136|104:136|84:180|108:192,1,155.833333879709
152,208,67534,2,0,B|188:152|208:168|208:168|268:128,1,141.666667163372
324,176,68450,2,0,B|320:220|320:220|288:224|288:224|296:248|296:248|368:252,1,170.000000596046
408,192,69534,2,0,B|364:136|364:136|320:148|320:148|284:148|288:128,1,155.833333879709
256,192,70534,12,0,74034,0:0:0:0:
116,112,74534,5,0,0:0:0:0:
264,116,74700,1,0,0:0:0:0:
136,192,74867,1,0,0:0:0:0:
280,224,75034,1,2,0:0:0:0:
408,112,75200,1,0,0:0:0:0:
248,152,75367,1,0,0:0:0:0:
304,308,75534,1,0,0:0:0:0:
148,224,75700,1,0,0:0:0:0:
208,148,75867,2,0,L|284:148,2,56.6666668653487,0|2|0,0:0|0:0|0:0,0:0:0:0:
384,96,76367,5,0,0:0:0:0:
192,84,76534,1,0,0:0:0:0:
140,272,76700,1,0,0:0:0:0:
308,328,76867,1,0,0:0:0:0:
160,180,77034,1,2,0:0:0:0:
284,64,77200,1,0,0:0:0:0:
380,204,77367,1,0,0:0:0:0:
248,56,77534,1,0,0:0:0:0:
76,152,77700,1,0,0:0:0:0:
264,84,77867,1,0,0:0:0:0:
124,224,78034,1,2,0:0:0:0:
320,256,78200,1,0,0:0:0:0:
180,116,78367,1,0,0:0:0:0:
376,96,78534,1,0,0:0:0:0:
208,84,78700,5,0,0:0:0:0:
92,208,78867,1,0,0:0:0:0:
264,220,79034,1,2,0:0:0:0:
284,52,79200,1,0,0:0:0:0:
168,180,79367,1,0,0:0:0:0:
336,200,79534,1,0,0:0:0:0:
420,52,79700,1,0,0:0:0:0:
292,164,79867,1,0,0:0:0:0:
152,264,80034,1,2,0:0:0:0:
112,100,80200,1,0,0:0:0:0:
280,68,80367,1,0,0:0:0:0:
352,164,80534,1,0,0:0:0:0:
168,104,80700,5,0,0:0:0:0:
308,108,80867,1,0,0:0:0:0:
220,220,81034,1,2,0:0:0:0:
356,180,81200,1,0,0:0:0:0:
216,148,81367,1,0,0:0:0:0:
224,256,81534,6,0,L|432:56,1,283.333334326743
484,104,82034,2,0,L|272:308,1,283.333334326743
204,264,82534,5,0,0:0:0:0:
52,188,82700,1,0,0:0:0:0:
132,36,82867,1,0,0:0:0:0:
220,184,83034,1,2,0:0:0:0:
100,304,83200,1,0,0:0:0:0:
228,188,83367,1,0,0:0:0:0:
136,44,83534,1,0,0:0:0:0:
220,192,83700,1,0,0:0:0:0:
64,120,83867,1,0,0:0:0:0:
216,192,84034,1,2,0:0:0:0:
64,264,84200,1,0,0:0:0:0:
216,192,84367,1,0,0:0:0:0:
92,76,84534,5,0,0:0:0:0:
248,84,84700,1,0,0:0:0:0:
196,236,84867,1,0,0:0:0:0:
296,112,85034,1,2,0:0:0:0:
148,168,85200,1,0,0:0:0:0:
300,216,85367,1,0,0:0:0:0:
388,84,85534,1,0,0:0:0:0:
232,108,85700,1,0,0:0:0:0:
88,172,85867,1,0,0:0:0:0:
208,280,86034,1,2,0:0:0:0:
176,124,86200,1,0,0:0:0:0:
332,164,86367,1,0,0:0:0:0:
96,96,86534,5,0,0:0:0:0:
92,284,87034,2,0,L|140:284,4,28.3333334326743
140,264,87534,2,0,P|152:204|240:144,1,170.000000596046
328,120,88367,1,0,0:0:0:0:
328,120,88450,1,0,0:0:0:0:
328,120,88534,1,0,0:0:0:0:
128,96,90034,5,0,0:0:0:0:
156,144,90159,1,0,0:0:0:0:
188,188,90284,1,0,0:0:0:0:
220,232,90409,1,0,0:0:0:0:
276,240,90534,1,0,0:0:0:0:
180,112,92367,5,0,0:0:0:0:
396,136,92534,1,0,0:0:0:0:
352,284,93534,2,0,P|304:224|208:200,1,170.000000596046
176,188,94284,5,0,0:0:0:0:
168,208,94367,1,0,0:0:0:0:
160,232,94451,1,0,0:0:0:0:
152,256,94534,1,0,0:0:0:0:
344,124,95034,5,0,0:0:0:0:
344,124,95117,1,0,0:0:0:0:
344,124,95200,1,0,0:0:0:0:
344,124,95284,1,0,0:0:0:0:
344,124,95367,1,0,0:0:0:0:
340,184,95534,2,0,P|288:224|232:240,1,113.333333730697
128,232,96034,1,0,0:0:0:0:
120,128,96534,5,0,0:0:0:0:
200,208,96700,1,0,0:0:0:0:
264,116,96867,1,0,0:0:0:0:
352,204,97034,1,0,0:0:0:0:
136,64,97534,6,0,B|200:92|156:104|156:104|264:144|264:144|236:180|300:232,1,283.333334326743
384,200,98034,2,0,B|332:160|352:132|352:132|220:80|248:48|180:20,1,283.333334326743
76,100,98534,5,0,0:0:0:0:
244,116,98700,1,0,0:0:0:0:
244,208,98867,1,0,0:0:0:0:
148,40,99034,1,2,0:0:0:0:
112,208,99200,1,0,0:0:0:0:
220,52,99367,1,0,0:0:0:0:
424,72,99534,1,0,0:0:0:0:
244,164,99700,1,0,0:0:0:0:
384,288,99867,1,0,0:0:0:0:
180,288,100034,1,2,0:0:0:0:
100,196,100200,1,0,0:0:0:0:
256,224,100367,1,0,0:0:0:0:
376,88,100534,5,0,0:0:0:0:
208,88,100700,1,0,0:0:0:0:
364,160,100867,1,0,0:0:0:0:
192,152,101034,1,0,0:0:0:0:
116,304,101200,1,0,0:0:0:0:
228,176,101367,1,0,0:0:0:0:
308,328,101534,1,0,0:0:0:0:
224,180,101700,1,0,0:0:0:0:
380,108,101867,1,0,0:0:0:0:
232,188,102034,1,0,0:0:0:0:
152,40,102200,1,0,0:0:0:0:
224,192,102367,1,0,0:0:0:0:
336,112,102534,5,0,0:0:0:0:
308,184,103034,2,0,L|276:184,4,28.3333334326743
308,256,103534,2,0,P|244:260|172:184,1,170.000000596046
172,136,104367,1,0,0:0:0:0:
172,136,104451,1,0,0:0:0:0:
172,136,104534,1,0,0:0:0:0:
24,64,105534,6,0,L|88:344,1,283.333334326743
152,336,106034,2,0,P|248:328|160:240,1,283.333334326743
164,188,106534,6,0,L|224:188,1,56.6666668653487
340,56,107034,2,0,L|308:104,1,56.6666668653487
432,196,107534,2,0,L|432:128,1,56.6666668653487
248,140,108034,2,0,L|216:200,1,56.6666668653487
108,256,108534,6,0,P|140:268|156:256,1,56.6666668653487
136,108,109034,2,0,P|164:140|176:136,1,56.6666668653487
296,76,109534,2,0,P|280:120|284:124,1,56.6666668653487
468,200,110034,2,0,P|432:188|416:204,1,56.6666668653487
120,232,110534,6,0,B|140:204|140:204|156:232|156:232|176:216|176:216|192:240|192:240,1,113.333333730697
156,60,111034,2,0,B|196:76|196:76|144:112|144:112|160:128|160:128|164:136,1,113.333333730697
344,276,111534,2,0,B|288:248|292:248|292:248|304:284|304:284|284:268|284:268,1,113.333333730697
408,64,112034,2,0,B|376:60|376:60|384:96|384:96|344:72|344:72,1,113.333333730697
80,88,112534,6,0,B|156:120|104:100|104:100|112:156,1,113.333333730697
304,56,113034,2,0,B|272:8|244:32|244:32|248:80,1,113.333333730697
408,160,113534,2,0,B|384:144|360:188|348:180|328:164|328:164|352:140,1,113.333333730697
124,108,114034,2,0,B|204:112|208:104|152:172|128:152,1,113.333333730697
348,80,114534,5,0,0:0:0:0:
236,200,114700,1,0,0:0:0:0:
168,76,114867,1,0,0:0:0:0:
244,128,115034,2,0,L|288:164,1,56.6666668653487
340,264,115367,1,0,0:0:0:0:
152,100,115534,5,0,0:0:0:0:
420,116,115700,2,0,P|404:160|392:168,1,56.6666668653487
260,236,116034,2,0,L|200:208,1,56.6666668653487
140,108,116367,1,0,0:0:0:0:
444,64,116534,5,0,0:0:0:0:
348,64,116700,2,0,L|348:136,1,56.6666668653487
252,64,117034,1,0,0:0:0:0:
152,64,117200,2,0,L|152:136,1,56.6666668653487
80,336,117534,1,0,0:0:0:0:
184,332,117700,2,0,L|184:268,1,56.6666668653487
296,336,118034,1,0,0:0:0:0:
404,336,118200,2,0,L|404:272,1,56.6666668653487
256,192,118534,5,0,0:0:0:0:
128,96,118700,5,0,0:0:0:0:
224,120,118867,1,0,0:0:0:0:
332,152,119034,2,0,P|316:184|292:196,2,56.6666668653487,2|0|0,0:0|0:0|0:0,0:0:0:0:
236,92,119534,2,0,L|196:152,1,56.6666668653487
148,304,119867,1,0,0:0:0:0:
260,280,120034,2,0,L|288:212,2,56.6666668653487,2|0|0,0:0|0:0|0:0,0:0:0:0:
116,96,120534,5,0,0:0:0:0:
244,96,120700,1,0,0:0:0:0:
364,200,120867,1,0,0:0:0:0:
244,288,121034,1,2,0:0:0:0:
168,188,121200,1,0,0:0:0:0:
272,120,121367,1,0,0:0:0:0:
108,108,121534,6,0,B|200:148|144:224|340:268,1,283.333334326743
372,200,122034,2,0,B|260:160|252:84|140:32,1,283.333334326743
340,148,124367,5,0,0:0:0:0:
172,256,124534,1,0,0:0:0:0:
432,156,125534,2,0,P|336:80|252:144,1,226.666667461395
236,156,126367,1,0,0:0:0:0:
224,176,126450,1,0,0:0:0:0:
208,200,126534,1,0,0:0:0:0:
88,76,130533,6,0,L|248:108,1,141.666667163372
296,116,131034,2,0,P|356:132|356:216,1,141.666667163372
474,243,131534,2,0,P|374:227|366:179,1,141.666667163372
259,182,132034,2,0,P|327:230|367:198,1,141.666667163372
324,96,132534,6,0,P|220:64|152:136,1,212.50000885129
224,312,133034,2,0,P|308:248|376:164,1,212.50000885129
308,80,133534,2,0,B|216:76|216:124|136:144|136:144|128:180,1,212.50000885129
160,264,134034,2,0,B|180:220|180:216|288:176|288:148|340:148,1,212.50000885129
396,260,134534,6,0,B|340:264|340:264|376:216|376:216|316:232|316:232|352:192|352:192|292:184,1,283.333334326743
172,64,135034,2,0,B|240:76|240:76|184:112|184:112|240:124|240:124|192:152|192:152|232:160,1,283.333334326743
420,104,135534,2,0,B|384:100|384:100|400:132|400:132|368:132|368:132|384:160|384:160|356:164|356:164|384:184|384:184|336:188|336:188|348:208|348:208|320:212|320:212,1,283.333334326743
260,300,136034,2,0,B|192:276|192:276|224:256|224:256|228:228|228:228|252:184|252:184|176:196,1,255.000000894069
156,104,136534,5,0,0:0:0:0:
232,216,137034,1,0,0:0:0:0:
336,88,137534,5,0,0:0:0:0:
352,176,137700,1,0,0:0:0:0:
240,176,137867,1,0,0:0:0:0:
300,272,138034,1,0,0:0:0:0:
176,324,138200,1,0,0:0:0:0:
72,208,138367,1,0,0:0:0:0:
144,232,138534,6,0,L|292:44,1,226.666667461395
420,176,139367,2,0,L|248:276,1,198.33333402872
248,84,140867,6,0,P|212:128|288:84,1,283.333334326743
256,84,141367,2,0,L|152:156,1,113.333333730697
144,164,142200,1,0,0:0:0:0:
120,180,142367,1,0,0:0:0:0:
96,200,142534,1,0,0:0:0:0:
212,280,143034,1,0,0:0:0:0:
300,300,143534,1,0,0:0:0:0:
380,236,143867,1,0,0:0:0:0:
320,200,144034,1,0,0:0:0:0:
264,160,144200,1,0,0:0:0:0:
208,116,144367,1,0,0:0:0:0:
64,96,144534,2,0,B|104:160|160:168|184:172|184:172,1,141.666667163372
216,184,145450,2,0,L|200:288,1,99.1666670143602
64,68,146534,5,0,0:0:0:0:
464,304,147034,1,0,0:0:0:0:
176,32,147534,1,0,0:0:0:0:
472,88,148034,1,0,0:0:0:0:
112,300,148534,1,0,0:0:0:0:
272,48,149034,1,0,0:0:0:0:
344,312,149534,1,0,0:0:0:0:
72,124,150034,1,0,0:0:0:0:
128,72,150534,6,0,B|196:64|200:100|200:100|240:144|264:112,1,155.833333879709
272,192,151534,2,0,B|280:244|280:244|312:224|312:224|328:208|376:228,1,155.833333879709
364,152,152534,2,0,B|284:116|284:116|224:148,1,155.833333879709
140,164,153534,2,0,B|108:180|148:220|188:208|188:208|172:256|200:272,1,155.833333879709
256,192,154534,12,0,158200,0:0:0:0:
256,192,158534,12,0,162367,0:0:0:0:
