osu file format v14

[General]
AudioFilename: audio.mp3
AudioLeadIn: 0
PreviewTime: 191609
Countdown: 0
SampleSet: Normal
StackLeniency: 0.7
Mode: 1
LetterboxInBreaks: 0
WidescreenStoryboard: 1

[Editor]
Bookmarks: 33972,41030,73923,73972,205735,259266
DistanceSpacing: 0.73
BeatDivisor: 4
GridSize: 8
TimelineZoom: 0.6999998

[Metadata]
Title:aisatsana [102]
TitleUnicode:aisatsana [102]
Artist:Aphex Twin
ArtistUnicode:Aphex Twin
Creator:Horiiizon
Version:serenity
Source:
Tags:electronic instrumental ambient piano syro richard david james genjuro
BeatmapID:2353390
BeatmapSetID:1126289

[Difficulty]
HPDrainRate:7
CircleSize:5
OverallDifficulty:3
ApproachRate:5
SliderMultiplier:1.4
SliderTickRate:1

[Events]
//Background and Video events
0,0,"aisatsana.jpg",0,0
//Break Periods
2,5338,11585
2,17691,20997
2,24750,30409
2,35338,39821
2,42985,49232
2,55338,58644
2,62397,68056
2,74162,77468
2,80632,86879
2,92985,96291
2,100044,105703
2,111221,115115
2,118279,124526
2,130632,133938
2,137691,143350
2,148279,152762
2,155926,162173
2,168279,171585
2,175338,180997
2,187103,190409
2,194162,199821
2,205926,209232
2,212985,218644
2,222397,228056
2,231221,237468
2,244162,246879
2,250044,256291
2,261221,265703
2,268868,275115
2,279456,284526
2,288279,293938
//Storyboard Layer 0 (Background)
//Storyboard Layer 1 (Fail)
//Storyboard Layer 2 (Pass)
//Storyboard Layer 3 (Foreground)
//Storyboard Layer 4 (Overlay)
//Storyboard Sound Samples

[TimingPoints]
3374,588.235294117647,4,1,0,20,1,0

[HitObjects]
250,194,3374,5,0,0:0:0:0:
250,194,3962,1,8,0:0:0:0:
250,194,4550,1,0,0:0:0:0:
250,194,5138,1,8,0:0:0:0:
253,201,12785,5,0,0:0:0:0:
253,201,13373,1,8,0:0:0:0:
253,201,13962,1,0,0:0:0:0:
253,201,14550,1,8,0:0:0:0:
247,197,15138,1,0,0:0:0:0:
234,209,17491,1,8,0:0:0:0:
255,187,22197,5,0,0:0:0:0:
255,187,22785,1,8,0:0:0:0:
255,187,23373,1,0,0:0:0:0:
255,187,23962,1,8,0:0:0:0:
266,191,24550,1,0,0:0:0:0:
252,197,31609,5,0,0:0:0:0:
252,197,32197,1,8,0:0:0:0:
252,197,32785,1,0,0:0:0:0:
252,197,33373,1,8,0:0:0:0:
252,197,33962,1,0,0:0:0:0:
263,205,35138,1,8,0:0:0:0:
255,184,41021,5,8,0:0:0:0:
256,195,41609,1,8,0:0:0:0:
256,195,42197,1,0,0:0:0:0:
256,195,42785,1,8,0:0:0:0:
255,197,50432,5,8,0:0:0:0:
255,197,51021,1,8,0:0:0:0:
255,197,51609,1,0,0:0:0:0:
255,197,52197,1,8,0:0:0:0:
255,197,52785,1,0,0:0:0:0:
254,197,55138,1,8,0:0:0:0:
250,195,59844,5,8,0:0:0:0:
250,195,60432,1,8,0:0:0:0:
250,195,61021,1,0,0:0:0:0:
250,195,61609,1,0,0:0:0:0:
250,195,62197,1,0,0:0:0:0:
247,192,69256,5,8,0:0:0:0:
247,192,69844,1,8,0:0:0:0:
247,192,70432,1,0,0:0:0:0:
247,192,71021,1,8,0:0:0:0:
246,197,71609,1,8,0:0:0:0:
256,188,73962,1,8,0:0:0:0:
256,202,78668,5,8,0:0:0:0:
234,191,78962,1,0,0:0:0:0:
234,193,79256,1,8,0:0:0:0:
234,193,79550,1,8,0:0:0:0:
234,191,79844,1,0,0:0:0:0:
234,193,80432,1,8,0:0:0:0:
245,199,88079,5,0,0:0:0:0:
245,199,88373,1,0,0:0:0:0:
245,199,88668,1,8,0:0:0:0:
245,199,88962,1,8,0:0:0:0:
245,199,89256,1,0,0:0:0:0:
245,199,89844,1,0,0:0:0:0:
245,199,90432,1,8,0:0:0:0:
240,213,91021,1,8,0:0:0:0:
250,201,92785,1,8,0:0:0:0:
249,197,97491,5,8,0:0:0:0:
249,197,97785,1,0,0:0:0:0:
249,197,98079,1,0,0:0:0:0:
249,197,98373,1,8,0:0:0:0:
249,197,98668,1,0,0:0:0:0:
249,197,99256,1,8,0:0:0:0:
249,197,99844,1,0,0:0:0:0:
257,189,106903,5,8,0:0:0:0:
257,189,107197,1,0,0:0:0:0:
257,189,107491,1,8,0:0:0:0:
257,189,107785,1,8,0:0:0:0:
257,189,108079,1,0,0:0:0:0:
257,189,108668,1,8,0:0:0:0:
253,192,109256,1,8,0:0:0:0:
253,192,109844,1,0,0:0:0:0:
252,193,111021,1,8,0:0:0:0:
253,191,116315,5,0,0:0:0:0:
253,191,116609,1,8,0:0:0:0:
253,191,116903,1,8,0:0:0:0:
253,191,117197,1,8,0:0:0:0:
253,191,117491,1,0,0:0:0:0:
253,191,118079,1,0,0:0:0:0:
247,188,125726,5,0,0:0:0:0:
247,188,126021,1,8,0:0:0:0:
247,188,126315,1,8,0:0:0:0:
247,188,126609,1,0,0:0:0:0:
247,188,126903,1,0,0:0:0:0:
247,188,127491,1,8,0:0:0:0:
247,188,128079,1,8,0:0:0:0:
247,188,128668,1,0,0:0:0:0:
247,183,130432,1,8,0:0:0:0:
259,183,135138,5,0,0:0:0:0:
252,209,135432,1,8,0:0:0:0:
252,194,135726,1,0,0:0:0:0:
248,192,136021,1,8,0:0:0:0:
251,193,136315,1,8,0:0:0:0:
234,189,136903,1,8,0:0:0:0:
234,189,137491,1,0,0:0:0:0:
251,202,144550,5,0,0:0:0:0:
251,202,144844,1,8,0:0:0:0:
254,193,145138,1,8,0:0:0:0:
254,193,145432,1,8,0:0:0:0:
254,193,145726,1,0,0:0:0:0:
246,189,146315,1,0,0:0:0:0:
247,187,146903,1,8,0:0:0:0:
241,186,147491,1,0,0:0:0:0:
241,186,148079,1,8,0:0:0:0:
251,194,153962,5,0,0:0:0:0:
251,194,154550,1,8,0:0:0:0:
251,194,155138,1,0,0:0:0:0:
251,194,155726,1,8,0:0:0:0:
246,188,163373,5,8,0:0:0:0:
246,188,163962,1,8,0:0:0:0:
246,188,164550,1,0,0:0:0:0:
246,188,165138,1,8,0:0:0:0:
246,188,165726,1,0,0:0:0:0:
246,193,168079,1,8,0:0:0:0:
252,204,172785,5,0,0:0:0:0:
248,197,173373,1,8,0:0:0:0:
248,197,173962,1,0,0:0:0:0:
253,191,174550,1,8,0:0:0:0:
253,191,175138,1,0,0:0:0:0:
252,192,182197,5,0,0:0:0:0:
246,189,182785,1,8,0:0:0:0:
250,194,183373,1,0,0:0:0:0:
250,194,183962,1,0,0:0:0:0:
246,189,184550,1,0,0:0:0:0:
250,193,186903,1,0,0:0:0:0:
251,191,191609,5,8,0:0:0:0:
251,191,191903,1,0,0:0:0:0:
251,191,192197,1,0,0:0:0:0:
251,191,192491,1,8,0:0:0:0:
251,191,192785,1,0,0:0:0:0:
243,189,193373,1,8,0:0:0:0:
243,189,193962,1,8,0:0:0:0:
246,187,201021,5,8,0:0:0:0:
247,180,201315,1,0,0:0:0:0:
236,181,201609,1,0,0:0:0:0:
256,182,201903,1,8,0:0:0:0:
238,185,202197,1,8,0:0:0:0:
239,194,202785,1,8,0:0:0:0:
238,206,203373,1,0,0:0:0:0:
245,192,205726,1,0,0:0:0:0:
239,207,210432,5,8,0:0:0:0:
239,207,210726,1,0,0:0:0:0:
259,192,211021,1,8,0:0:0:0:
254,198,211315,1,0,0:0:0:0:
261,214,211609,1,0,0:0:0:0:
252,177,212197,1,8,0:0:0:0:
249,163,212785,1,0,0:0:0:0:
241,160,219844,5,8,0:0:0:0:
241,160,220138,1,0,0:0:0:0:
241,160,220432,1,8,0:0:0:0:
241,160,220726,1,8,0:0:0:0:
241,160,221021,1,8,0:0:0:0:
256,185,221609,1,8,0:0:0:0:
256,185,222197,1,0,0:0:0:0:
243,195,229256,5,0,0:0:0:0:
243,195,229844,1,8,0:0:0:0:
243,195,230432,1,0,0:0:0:0:
243,195,231021,1,8,0:0:0:0:
258,182,238668,5,0,0:0:0:0:
256,191,239256,1,8,0:0:0:0:
256,191,239844,1,0,0:0:0:0:
261,197,240432,1,8,0:0:0:0:
283,220,241021,1,8,0:0:0:0:
270,193,241609,1,8,0:0:0:0:
265,188,242197,1,0,0:0:0:0:
265,192,242785,1,0,0:0:0:0:
265,192,243373,1,0,0:0:0:0:
246,193,243962,1,8,0:0:0:0:
241,197,248079,5,0,0:0:0:0:
245,195,248668,1,8,0:0:0:0:
245,195,249256,1,0,0:0:0:0:
245,195,249844,1,8,0:0:0:0:
249,194,257491,5,0,0:0:0:0:
249,194,258079,1,8,0:0:0:0:
235,189,258668,1,0,0:0:0:0:
240,188,259256,1,0,0:0:0:0:
240,188,259844,1,8,0:0:0:0:
240,188,260432,1,8,0:0:0:0:
240,188,261021,1,0,0:0:0:0:
252,199,266903,5,0,0:0:0:0:
252,199,267197,1,0,0:0:0:0:
252,199,267491,1,8,0:0:0:0:
252,199,267785,1,8,0:0:0:0:
252,199,268079,1,0,0:0:0:0:
252,199,268668,1,8,0:0:0:0:
256,192,276315,5,0,0:0:0:0:
256,192,276609,1,8,0:0:0:0:
256,192,276903,1,0,0:0:0:0:
259,200,277197,1,0,0:0:0:0:
259,200,277491,1,8,0:0:0:0:
253,188,278079,1,8,0:0:0:0:
251,197,278668,1,8,0:0:0:0:
251,197,279256,1,0,0:0:0:0:
257,197,285726,5,0,0:0:0:0:
257,197,286021,1,0,0:0:0:0:
257,197,286315,1,0,0:0:0:0:
257,197,286609,1,8,0:0:0:0:
257,197,286903,1,0,0:0:0:0:
257,197,287491,1,8,0:0:0:0:
259,201,288079,1,0,0:0:0:0:
251,192,295138,5,0,0:0:0:0:
251,192,295432,1,8,0:0:0:0:
251,192,295726,1,8,0:0:0:0:
251,192,296021,1,0,0:0:0:0:
251,192,296315,1,8,0:0:0:0:
251,192,296903,1,8,0:0:0:0:
251,192,297491,1,8,0:0:0:0:
251,192,298079,1,0,0:0:0:0:
236,204,299256,1,0,0:0:0:0:
