osu file format v14

[General]
AudioFilename: audio.mp3
AudioLeadIn: 0
PreviewTime: 251888
Countdown: 0
SampleSet: Normal
StackLeniency: 0.2
Mode: 1
LetterboxInBreaks: 0
WidescreenStoryboard: 0

[Editor]
DistanceSpacing: 1
BeatDivisor: 2
GridSize: 32
TimelineZoom: 1.8

[Metadata]
Title:Xtal
TitleUnicode:Xtal
Artist:Aphex Twin
ArtistUnicode:Aphex Twin
Creator:Genjuro
Version:Ethereal
Source:
Tags:electronic instrumental techno idm selected ambient works 85-92 richard david james
BeatmapID:2352486
BeatmapSetID:1125914

[Difficulty]
HPDrainRate:6
CircleSize:2
OverallDifficulty:3
ApproachRate:10
SliderMultiplier:1.4
SliderTickRate:1

[Events]
//Background and Video events
0,0,"bg.jpg",0,0
//Break Periods
//Storyboard Layer 0 (Background)
//Storyboard Layer 1 (Fail)
//Storyboard Layer 2 (Pass)
//Storyboard Layer 3 (Foreground)
//Storyboard Layer 4 (Overlay)
//Storyboard Sound Samples

[TimingPoints]
360,524.017467248908,4,1,0,10,1,0
4486,-100,4,1,0,14,0,0
5534,-100,4,1,0,18,0,0
6320,-100,4,1,0,22,0,0
8154,-100,4,1,0,26,0,0
12346,-100,4,1,0,30,0,0
14704,-100,4,1,0,34,0,0
17063,-100,4,1,0,50,0,0
268591,-100,4,1,0,30,0,0

[HitObjects]
256,192,360,5,8,0:0:0:0:
256,192,884,1,8,0:0:0:0:
256,192,1408,1,8,0:0:0:0:
256,192,1932,1,8,0:0:0:0:
256,192,2194,1,8,0:0:0:0:
256,192,2718,1,8,0:0:0:0:
256,192,3242,1,8,0:0:0:0:
256,192,3766,1,8,0:0:0:0:
256,192,4028,1,8,0:0:0:0:
256,192,4552,1,8,0:0:0:0:
256,192,5076,1,8,0:0:0:0:
256,192,5600,1,8,0:0:0:0:
256,192,6124,1,8,0:0:0:0:
256,192,6386,1,8,0:0:0:0:
256,192,6910,1,8,0:0:0:0:
256,192,7434,1,8,0:0:0:0:
256,192,7958,1,8,0:0:0:0:
256,192,8220,1,8,0:0:0:0:
256,192,8744,1,8,0:0:0:0:
256,192,9268,1,8,0:0:0:0:
256,192,9792,1,8,0:0:0:0:
256,192,10316,1,8,0:0:0:0:
256,192,10578,1,8,0:0:0:0:
256,192,11102,1,8,0:0:0:0:
256,192,11626,1,8,0:0:0:0:
256,192,12150,1,8,0:0:0:0:
256,192,12412,1,8,0:0:0:0:
256,192,12936,1,8,0:0:0:0:
256,192,13460,1,8,0:0:0:0:
256,192,13984,1,8,0:0:0:0:
256,192,14508,1,8,0:0:0:0:
256,192,14770,1,8,0:0:0:0:
256,192,15294,1,8,0:0:0:0:
256,192,15818,1,8,0:0:0:0:
256,192,16342,1,8,0:0:0:0:
256,192,16604,1,8,0:0:0:0:
256,192,17128,1,0,0:0:0:0:
256,192,17652,1,0,0:0:0:0:
256,192,18176,1,0,0:0:0:0:
256,192,18700,1,0,0:0:0:0:
256,192,18962,1,8,0:0:0:0:
256,192,19224,1,0,0:0:0:0:
256,192,19748,1,0,0:0:0:0:
256,192,20272,1,0,0:0:0:0:
256,192,20796,1,8,0:0:0:0:
256,192,21058,1,8,0:0:0:0:
256,192,21320,1,0,0:0:0:0:
256,192,21844,1,0,0:0:0:0:
256,192,22368,1,0,0:0:0:0:
256,192,22892,1,0,0:0:0:0:
256,192,23154,1,8,0:0:0:0:
256,192,23416,1,0,0:0:0:0:
256,192,23940,1,0,0:0:0:0:
256,192,24464,1,0,0:0:0:0:
256,192,24988,1,8,0:0:0:0:
256,192,25250,1,8,0:0:0:0:
256,192,25512,1,0,0:0:0:0:
256,192,26036,1,0,0:0:0:0:
256,192,26560,1,0,0:0:0:0:
256,192,27084,1,0,0:0:0:0:
256,192,27346,1,8,0:0:0:0:
256,192,27608,1,0,0:0:0:0:
256,192,28132,1,0,0:0:0:0:
256,192,28656,1,0,0:0:0:0:
256,192,29180,1,8,0:0:0:0:
256,192,29442,1,8,0:0:0:0:
256,192,29704,1,0,0:0:0:0:
256,192,30228,1,0,0:0:0:0:
256,192,30753,1,0,0:0:0:0:
256,192,31277,1,0,0:0:0:0:
256,192,31539,1,8,0:0:0:0:
256,192,31801,1,0,0:0:0:0:
256,192,32325,1,0,0:0:0:0:
256,192,32849,1,0,0:0:0:0:
256,192,33373,1,8,0:0:0:0:
256,192,33635,1,8,0:0:0:0:
256,192,33897,1,0,0:0:0:0:
256,192,34421,1,0,0:0:0:0:
256,192,34945,1,0,0:0:0:0:
256,192,35469,1,0,0:0:0:0:
256,192,35731,1,8,0:0:0:0:
256,192,35993,1,0,0:0:0:0:
256,192,36517,1,0,0:0:0:0:
256,192,37041,1,0,0:0:0:0:
256,192,37303,1,8,0:0:0:0:
256,192,37565,1,8,0:0:0:0:
256,192,37827,1,8,0:0:0:0:
256,192,38089,1,0,0:0:0:0:
256,192,38613,1,0,0:0:0:0:
256,192,39137,1,0,0:0:0:0:
256,192,39661,1,0,0:0:0:0:
256,192,39923,1,8,0:0:0:0:
256,192,40185,1,0,0:0:0:0:
256,192,40709,1,0,0:0:0:0:
256,192,41233,1,0,0:0:0:0:
256,192,41495,1,8,0:0:0:0:
256,192,41757,1,8,0:0:0:0:
256,192,42019,1,8,0:0:0:0:
256,192,42281,1,0,0:0:0:0:
256,192,42805,1,0,0:0:0:0:
256,192,43329,1,0,0:0:0:0:
256,192,43853,1,0,0:0:0:0:
256,192,44115,1,8,0:0:0:0:
256,192,44377,1,0,0:0:0:0:
256,192,44901,1,0,0:0:0:0:
256,192,45425,1,0,0:0:0:0:
256,192,45687,1,8,0:0:0:0:
256,192,45949,1,8,0:0:0:0:
256,192,46211,1,8,0:0:0:0:
256,192,46473,1,0,0:0:0:0:
256,192,46997,1,0,0:0:0:0:
256,192,47521,1,0,0:0:0:0:
256,192,48045,1,0,0:0:0:0:
256,192,48307,1,8,0:0:0:0:
256,192,48569,1,0,0:0:0:0:
256,192,49093,1,0,0:0:0:0:
256,192,49617,1,0,0:0:0:0:
256,192,49879,1,8,0:0:0:0:
256,192,50141,1,8,0:0:0:0:
256,192,50403,1,8,0:0:0:0:
256,192,50665,1,0,0:0:0:0:
256,192,51189,1,0,0:0:0:0:
256,192,51713,1,0,0:0:0:0:
256,192,52237,1,0,0:0:0:0:
256,192,52499,1,8,0:0:0:0:
256,192,52761,1,0,0:0:0:0:
256,192,53285,1,0,0:0:0:0:
256,192,53809,1,0,0:0:0:0:
256,192,54333,1,8,0:0:0:0:
256,192,54595,1,8,0:0:0:0:
256,192,54857,1,0,0:0:0:0:
256,192,55381,1,0,0:0:0:0:
256,192,55905,1,0,0:0:0:0:
256,192,56429,1,0,0:0:0:0:
256,192,56691,1,8,0:0:0:0:
256,192,56953,1,0,0:0:0:0:
256,192,57477,1,0,0:0:0:0:
256,192,58001,1,0,0:0:0:0:
256,192,58525,1,8,0:0:0:0:
256,192,58787,1,8,0:0:0:0:
256,192,59049,1,0,0:0:0:0:
256,192,59573,1,8,0:0:0:0:
256,192,60359,1,8,0:0:0:0:
256,192,60753,1,8,0:0:0:0:
256,192,61146,1,0,0:0:0:0:
256,192,61670,1,8,0:0:0:0:
256,192,62456,1,8,0:0:0:0:
256,192,62849,1,8,0:0:0:0:
256,192,63242,1,0,0:0:0:0:
256,192,63766,1,8,0:0:0:0:
256,192,64552,1,8,0:0:0:0:
256,192,64945,1,8,0:0:0:0:
256,192,65338,1,0,0:0:0:0:
256,192,65862,1,8,0:0:0:0:
256,192,66648,1,8,0:0:0:0:
256,192,67041,1,8,0:0:0:0:
256,192,67434,1,0,0:0:0:0:
256,192,67958,1,8,0:0:0:0:
256,192,68220,1,0,0:0:0:0:
256,192,68744,1,8,0:0:0:0:
256,192,69137,1,8,0:0:0:0:
256,192,69530,1,0,0:0:0:0:
256,192,70054,1,8,0:0:0:0:
256,192,70316,1,0,0:0:0:0:
256,192,70840,1,8,0:0:0:0:
256,192,71233,1,8,0:0:0:0:
256,192,71626,1,0,0:0:0:0:
256,192,72150,1,8,0:0:0:0:
256,192,72412,1,0,0:0:0:0:
256,192,72936,1,8,0:0:0:0:
256,192,73329,1,8,0:0:0:0:
256,192,73722,1,0,0:0:0:0:
256,192,74246,1,8,0:0:0:0:
256,192,74508,1,0,0:0:0:0:
256,192,75032,1,8,0:0:0:0:
256,192,75425,1,8,0:0:0:0:
256,192,75818,1,0,0:0:0:0:
256,192,76211,1,0,0:0:0:0:
256,192,76342,1,8,0:0:0:0:
256,192,76604,1,0,0:0:0:0:
256,192,77128,1,8,0:0:0:0:
256,192,77521,1,8,0:0:0:0:
256,192,77914,1,0,0:0:0:0:
256,192,78307,1,0,0:0:0:0:
256,192,78438,1,8,0:0:0:0:
256,192,78700,1,0,0:0:0:0:
256,192,79224,1,8,0:0:0:0:
256,192,79617,1,8,0:0:0:0:
256,192,80010,1,0,0:0:0:0:
256,192,80403,1,0,0:0:0:0:
256,192,80534,1,8,0:0:0:0:
256,192,80796,1,0,0:0:0:0:
256,192,81320,1,8,0:0:0:0:
256,192,81713,1,8,0:0:0:0:
256,192,82106,1,0,0:0:0:0:
256,192,82499,1,0,0:0:0:0:
256,192,82630,1,8,0:0:0:0:
256,192,82892,1,0,0:0:0:0:
256,192,83416,1,8,0:0:0:0:
256,192,83809,1,8,0:0:0:0:
256,192,84202,1,0,0:0:0:0:
256,192,84726,1,8,0:0:0:0:
256,192,84988,1,0,0:0:0:0:
256,192,85512,1,8,0:0:0:0:
256,192,85643,1,0,0:0:0:0:
256,192,85905,1,8,0:0:0:0:
256,192,86298,1,0,0:0:0:0:
256,192,86822,1,8,0:0:0:0:
256,192,87084,1,0,0:0:0:0:
256,192,87608,1,8,0:0:0:0:
256,192,87739,1,0,0:0:0:0:
256,192,88001,1,8,0:0:0:0:
256,192,88394,1,0,0:0:0:0:
256,192,88918,1,8,0:0:0:0:
256,192,89180,1,0,0:0:0:0:
256,192,89704,1,8,0:0:0:0:
256,192,89835,1,0,0:0:0:0:
256,192,90097,1,8,0:0:0:0:
256,192,90491,1,0,0:0:0:0:
256,192,91015,1,8,0:0:0:0:
256,192,91277,1,0,0:0:0:0:
256,192,91801,1,8,0:0:0:0:
256,192,91932,1,0,0:0:0:0:
256,192,92194,1,8,0:0:0:0:
256,192,92587,1,0,0:0:0:0:
256,192,93111,1,8,0:0:0:0:
256,192,93373,1,0,0:0:0:0:
256,192,93897,1,8,0:0:0:0:
256,192,94290,1,8,0:0:0:0:
256,192,94683,1,0,0:0:0:0:
256,192,95207,1,8,0:0:0:0:
256,192,95469,1,0,0:0:0:0:
256,192,95993,1,8,0:0:0:0:
256,192,96386,1,8,0:0:0:0:
256,192,96779,1,0,0:0:0:0:
256,192,97303,1,8,0:0:0:0:
256,192,97565,1,0,0:0:0:0:
256,192,98089,1,8,0:0:0:0:
256,192,98482,1,8,0:0:0:0:
256,192,98875,1,0,0:0:0:0:
256,192,99399,1,8,0:0:0:0:
256,192,99661,1,0,0:0:0:0:
256,192,100185,1,8,0:0:0:0:
256,192,100578,1,8,0:0:0:0:
256,192,100971,1,0,0:0:0:0:
256,192,101364,1,0,0:0:0:0:
256,192,101495,1,8,0:0:0:0:
256,192,101757,1,0,0:0:0:0:
256,192,102281,1,8,0:0:0:0:
256,192,102674,1,8,0:0:0:0:
256,192,103067,1,0,0:0:0:0:
256,192,103460,1,0,0:0:0:0:
256,192,103591,1,8,0:0:0:0:
256,192,103853,1,0,0:0:0:0:
256,192,104377,1,8,0:0:0:0:
256,192,104770,1,8,0:0:0:0:
256,192,105163,1,0,0:0:0:0:
256,192,105556,1,0,0:0:0:0:
256,192,105687,1,8,0:0:0:0:
256,192,105949,1,0,0:0:0:0:
256,192,106473,1,8,0:0:0:0:
256,192,106866,1,8,0:0:0:0:
256,192,107259,1,0,0:0:0:0:
256,192,107652,1,0,0:0:0:0:
256,192,107783,1,8,0:0:0:0:
256,192,108045,1,0,0:0:0:0:
256,192,108569,1,8,0:0:0:0:
256,192,108962,1,8,0:0:0:0:
256,192,109355,1,0,0:0:0:0:
256,192,109748,1,0,0:0:0:0:
256,192,109879,1,8,0:0:0:0:
256,192,110141,1,0,0:0:0:0:
256,192,110665,1,8,0:0:0:0:
256,192,110796,1,0,0:0:0:0:
256,192,111058,1,8,0:0:0:0:
256,192,111451,1,0,0:0:0:0:
256,192,111844,1,0,0:0:0:0:
256,192,111975,1,8,0:0:0:0:
256,192,112237,1,0,0:0:0:0:
256,192,112761,1,8,0:0:0:0:
256,192,112892,1,0,0:0:0:0:
256,192,113154,1,8,0:0:0:0:
256,192,113547,1,0,0:0:0:0:
256,192,113940,1,0,0:0:0:0:
256,192,114071,1,8,0:0:0:0:
256,192,114333,1,0,0:0:0:0:
256,192,114857,1,8,0:0:0:0:
256,192,114988,1,0,0:0:0:0:
256,192,115250,1,8,0:0:0:0:
256,192,115643,1,0,0:0:0:0:
256,192,116036,1,0,0:0:0:0:
256,192,116167,1,8,0:0:0:0:
256,192,116429,1,0,0:0:0:0:
256,192,116953,1,8,0:0:0:0:
256,192,117084,1,0,0:0:0:0:
256,192,117346,1,8,0:0:0:0:
256,192,117739,1,0,0:0:0:0:
256,192,118132,1,0,0:0:0:0:
256,192,118263,1,8,0:0:0:0:
256,192,118525,1,0,0:0:0:0:
256,192,119049,1,8,0:0:0:0:
256,192,119180,1,0,0:0:0:0:
256,192,119442,1,8,0:0:0:0:
256,192,119573,1,0,0:0:0:0:
256,192,119835,1,0,0:0:0:0:
256,192,120228,1,0,0:0:0:0:
256,192,120359,1,8,0:0:0:0:
256,192,120622,1,0,0:0:0:0:
256,192,121146,1,8,0:0:0:0:
256,192,121277,1,0,0:0:0:0:
256,192,121539,1,8,0:0:0:0:
256,192,121670,1,0,0:0:0:0:
256,192,121932,1,0,0:0:0:0:
256,192,122325,1,0,0:0:0:0:
256,192,122456,1,8,0:0:0:0:
256,192,122718,1,0,0:0:0:0:
256,192,123242,1,8,0:0:0:0:
256,192,123373,1,0,0:0:0:0:
256,192,123635,1,8,0:0:0:0:
256,192,123766,1,0,0:0:0:0:
256,192,124028,1,0,0:0:0:0:
256,192,124421,1,0,0:0:0:0:
256,192,124552,1,8,0:0:0:0:
256,192,124814,1,0,0:0:0:0:
256,192,125338,1,8,0:0:0:0:
256,192,125469,1,0,0:0:0:0:
256,192,125731,1,8,0:0:0:0:
256,192,125862,1,0,0:0:0:0:
256,192,126124,1,0,0:0:0:0:
256,192,126648,1,8,0:0:0:0:
256,192,126910,1,0,0:0:0:0:
256,192,127434,1,8,0:0:0:0:
256,192,127565,1,0,0:0:0:0:
256,192,127827,1,8,0:0:0:0:
256,192,128220,1,0,0:0:0:0:
256,192,128744,1,8,0:0:0:0:
256,192,129006,1,0,0:0:0:0:
256,192,129530,1,8,0:0:0:0:
256,192,129661,1,0,0:0:0:0:
256,192,129923,1,8,0:0:0:0:
256,192,130316,1,0,0:0:0:0:
256,192,130840,1,8,0:0:0:0:
256,192,131102,1,0,0:0:0:0:
256,192,131626,1,8,0:0:0:0:
256,192,131757,1,0,0:0:0:0:
256,192,132019,1,8,0:0:0:0:
256,192,132412,1,0,0:0:0:0:
256,192,132936,1,8,0:0:0:0:
256,192,133198,1,0,0:0:0:0:
256,192,133722,1,8,0:0:0:0:
256,192,133853,1,0,0:0:0:0:
256,192,134115,1,8,0:0:0:0:
256,192,134508,1,0,0:0:0:0:
256,192,135032,1,8,0:0:0:0:
256,192,135294,1,0,0:0:0:0:
256,192,135818,1,8,0:0:0:0:
256,192,136211,1,8,0:0:0:0:
256,192,136604,1,0,0:0:0:0:
256,192,137128,1,8,0:0:0:0:
256,192,137390,1,0,0:0:0:0:
256,192,137914,1,8,0:0:0:0:
256,192,138307,1,8,0:0:0:0:
256,192,138700,1,0,0:0:0:0:
256,192,139224,1,8,0:0:0:0:
256,192,139486,1,0,0:0:0:0:
256,192,140010,1,8,0:0:0:0:
256,192,140403,1,8,0:0:0:0:
256,192,140796,1,0,0:0:0:0:
256,192,141320,1,8,0:0:0:0:
256,192,141582,1,0,0:0:0:0:
256,192,142106,1,8,0:0:0:0:
256,192,142499,1,8,0:0:0:0:
256,192,142892,1,0,0:0:0:0:
256,192,143416,1,12,0:0:0:0:
256,192,143678,1,0,0:0:0:0:
256,192,144202,1,8,0:0:0:0:
256,192,144333,1,0,0:0:0:0:
256,192,144595,1,8,0:0:0:0:
256,192,144988,1,0,0:0:0:0:
256,192,145512,1,8,0:0:0:0:
256,192,145774,1,0,0:0:0:0:
256,192,146298,1,8,0:0:0:0:
256,192,146429,1,0,0:0:0:0:
256,192,146691,1,8,0:0:0:0:
256,192,147084,1,0,0:0:0:0:
256,192,147608,1,12,0:0:0:0:
256,192,147870,1,0,0:0:0:0:
256,192,148394,1,8,0:0:0:0:
256,192,148525,1,0,0:0:0:0:
256,192,148787,1,8,0:0:0:0:
256,192,149180,1,0,0:0:0:0:
256,192,149704,1,8,0:0:0:0:
256,192,149966,1,0,0:0:0:0:
256,192,150491,1,8,0:0:0:0:
256,192,150622,1,0,0:0:0:0:
256,192,150884,1,8,0:0:0:0:
256,192,151277,1,0,0:0:0:0:
256,192,151801,1,12,0:0:0:0:
256,192,152063,1,0,0:0:0:0:
256,192,152587,1,8,0:0:0:0:
256,192,152718,1,0,0:0:0:0:
256,192,152980,1,8,0:0:0:0:
256,192,153373,1,0,0:0:0:0:
256,192,153897,1,8,0:0:0:0:
256,192,154159,1,0,0:0:0:0:
256,192,154683,1,8,0:0:0:0:
256,192,154814,1,0,0:0:0:0:
256,192,155076,1,8,0:0:0:0:
256,192,155469,1,0,0:0:0:0:
256,192,155993,1,8,0:0:0:0:
256,192,156255,1,0,0:0:0:0:
256,192,156779,1,8,0:0:0:0:
256,192,156910,1,0,0:0:0:0:
256,192,157172,1,8,0:0:0:0:
256,192,157565,1,0,0:0:0:0:
256,192,158089,1,8,0:0:0:0:
256,192,158351,1,0,0:0:0:0:
256,192,158875,1,8,0:0:0:0:
256,192,159006,1,0,0:0:0:0:
256,192,159268,1,8,0:0:0:0:
256,192,159661,1,0,0:0:0:0:
256,192,160054,1,0,0:0:0:0:
256,192,160185,1,8,0:0:0:0:
256,192,160447,1,0,0:0:0:0:
256,192,160971,1,8,0:0:0:0:
256,192,161364,1,8,0:0:0:0:
256,192,161757,1,0,0:0:0:0:
256,192,162150,1,0,0:0:0:0:
256,192,162281,1,8,0:0:0:0:
256,192,162543,1,0,0:0:0:0:
256,192,163067,1,8,0:0:0:0:
256,192,163460,1,8,0:0:0:0:
256,192,163853,1,0,0:0:0:0:
256,192,164246,1,0,0:0:0:0:
256,192,164377,1,8,0:0:0:0:
256,192,164639,1,0,0:0:0:0:
256,192,165163,1,8,0:0:0:0:
256,192,165556,1,8,0:0:0:0:
256,192,165949,1,0,0:0:0:0:
256,192,166342,1,0,0:0:0:0:
256,192,166473,1,8,0:0:0:0:
256,192,166735,1,0,0:0:0:0:
256,192,167259,1,8,0:0:0:0:
256,192,167652,1,8,0:0:0:0:
256,192,168045,1,0,0:0:0:0:
256,192,168569,1,8,0:0:0:0:
256,192,168831,1,0,0:0:0:0:
256,192,169355,1,8,0:0:0:0:
256,192,169486,1,0,0:0:0:0:
256,192,169748,1,8,0:0:0:0:
256,192,170141,1,0,0:0:0:0:
256,192,170665,1,8,0:0:0:0:
256,192,170927,1,0,0:0:0:0:
256,192,171451,1,8,0:0:0:0:
256,192,171582,1,0,0:0:0:0:
256,192,171844,1,8,0:0:0:0:
256,192,172237,1,0,0:0:0:0:
256,192,172761,1,8,0:0:0:0:
256,192,173023,1,0,0:0:0:0:
256,192,173547,1,8,0:0:0:0:
256,192,173678,1,0,0:0:0:0:
256,192,173940,1,8,0:0:0:0:
256,192,174333,1,0,0:0:0:0:
256,192,174857,1,8,0:0:0:0:
256,192,175119,1,0,0:0:0:0:
256,192,175643,1,8,0:0:0:0:
256,192,175774,1,0,0:0:0:0:
256,192,176036,1,8,0:0:0:0:
256,192,176429,1,0,0:0:0:0:
256,192,176822,1,0,0:0:0:0:
256,192,176953,1,8,0:0:0:0:
256,192,177215,1,0,0:0:0:0:
256,192,177739,1,8,0:0:0:0:
256,192,178132,1,8,0:0:0:0:
256,192,178525,1,0,0:0:0:0:
256,192,178918,1,0,0:0:0:0:
256,192,179049,1,8,0:0:0:0:
256,192,179311,1,0,0:0:0:0:
256,192,179835,1,8,0:0:0:0:
256,192,180228,1,8,0:0:0:0:
256,192,180622,1,0,0:0:0:0:
256,192,181015,1,0,0:0:0:0:
256,192,181146,1,8,0:0:0:0:
256,192,181408,1,0,0:0:0:0:
256,192,181932,1,8,0:0:0:0:
256,192,182325,1,8,0:0:0:0:
256,192,182718,1,0,0:0:0:0:
256,192,183111,1,0,0:0:0:0:
256,192,183242,1,8,0:0:0:0:
256,192,183504,1,0,0:0:0:0:
256,192,184028,1,8,0:0:0:0:
256,192,184421,1,8,0:0:0:0:
256,192,184814,1,0,0:0:0:0:
256,192,185338,1,8,0:0:0:0:
256,192,186124,1,8,0:0:0:0:
256,192,186517,1,8,0:0:0:0:
256,192,186910,1,0,0:0:0:0:
256,192,187434,1,8,0:0:0:0:
256,192,188220,1,8,0:0:0:0:
256,192,188613,1,8,0:0:0:0:
256,192,189006,1,0,0:0:0:0:
256,192,189530,1,0,0:0:0:0:
256,192,190054,1,0,0:0:0:0:
256,192,190578,1,0,0:0:0:0:
256,192,190840,1,8,0:0:0:0:
256,192,191102,1,0,0:0:0:0:
256,192,191626,1,0,0:0:0:0:
256,192,192150,1,0,0:0:0:0:
256,192,192674,1,8,0:0:0:0:
256,192,192936,1,8,0:0:0:0:
256,192,193198,1,0,0:0:0:0:
256,192,193722,1,0,0:0:0:0:
256,192,194246,1,0,0:0:0:0:
256,192,194770,1,0,0:0:0:0:
256,192,195032,1,8,0:0:0:0:
256,192,195294,1,0,0:0:0:0:
256,192,195818,1,0,0:0:0:0:
256,192,196342,1,0,0:0:0:0:
256,192,196866,1,8,0:0:0:0:
256,192,197128,1,8,0:0:0:0:
256,192,197390,1,0,0:0:0:0:
256,192,197914,1,0,0:0:0:0:
256,192,198438,1,0,0:0:0:0:
256,192,198962,1,0,0:0:0:0:
256,192,199224,1,8,0:0:0:0:
256,192,199486,1,0,0:0:0:0:
256,192,200010,1,0,0:0:0:0:
256,192,200534,1,0,0:0:0:0:
256,192,201058,1,8,0:0:0:0:
256,192,201320,1,8,0:0:0:0:
256,192,201582,1,0,0:0:0:0:
256,192,202106,1,0,0:0:0:0:
256,192,202630,1,0,0:0:0:0:
256,192,203154,1,0,0:0:0:0:
256,192,203678,1,0,0:0:0:0:
256,192,204202,1,0,0:0:0:0:
256,192,204726,1,0,0:0:0:0:
256,192,205250,1,8,0:0:0:0:
256,192,205512,1,8,0:0:0:0:
256,192,205774,1,0,0:0:0:0:
256,192,206298,1,0,0:0:0:0:
256,192,206822,1,0,0:0:0:0:
256,192,207346,1,0,0:0:0:0:
256,192,207870,1,0,0:0:0:0:
256,192,208394,1,0,0:0:0:0:
256,192,208918,1,0,0:0:0:0:
256,192,209442,1,8,0:0:0:0:
256,192,209704,1,8,0:0:0:0:
256,192,209966,1,0,0:0:0:0:
256,192,210491,1,0,0:0:0:0:
256,192,211015,1,0,0:0:0:0:
256,192,211539,1,0,0:0:0:0:
256,192,212063,1,0,0:0:0:0:
256,192,212587,1,0,0:0:0:0:
256,192,213111,1,0,0:0:0:0:
256,192,213635,1,8,0:0:0:0:
256,192,213897,1,8,0:0:0:0:
256,192,214159,1,0,0:0:0:0:
256,192,214683,1,0,0:0:0:0:
256,192,215207,1,0,0:0:0:0:
256,192,215731,1,0,0:0:0:0:
256,192,216255,1,0,0:0:0:0:
256,192,216779,1,0,0:0:0:0:
256,192,217303,1,0,0:0:0:0:
256,192,217827,1,8,0:0:0:0:
256,192,218089,1,8,0:0:0:0:
256,192,218351,1,0,0:0:0:0:
256,192,218875,1,8,0:0:0:0:
256,192,219661,1,8,0:0:0:0:
256,192,220054,1,8,0:0:0:0:
256,192,220447,1,0,0:0:0:0:
256,192,220971,1,8,0:0:0:0:
256,192,221757,1,8,0:0:0:0:
256,192,222150,1,8,0:0:0:0:
256,192,222543,1,0,0:0:0:0:
256,192,223067,1,8,0:0:0:0:
256,192,223853,1,8,0:0:0:0:
256,192,224246,1,8,0:0:0:0:
256,192,224639,1,0,0:0:0:0:
256,192,225163,1,8,0:0:0:0:
256,192,225949,1,8,0:0:0:0:
256,192,226342,1,8,0:0:0:0:
256,192,226735,1,0,0:0:0:0:
256,192,227259,1,8,0:0:0:0:
256,192,227521,1,0,0:0:0:0:
256,192,228045,1,8,0:0:0:0:
256,192,228438,1,8,0:0:0:0:
256,192,228831,1,0,0:0:0:0:
256,192,229355,1,8,0:0:0:0:
256,192,229617,1,0,0:0:0:0:
256,192,230141,1,8,0:0:0:0:
256,192,230534,1,8,0:0:0:0:
256,192,230927,1,0,0:0:0:0:
256,192,231451,1,8,0:0:0:0:
256,192,231713,1,0,0:0:0:0:
256,192,232237,1,8,0:0:0:0:
256,192,232630,1,8,0:0:0:0:
256,192,233023,1,0,0:0:0:0:
256,192,233547,1,8,0:0:0:0:
256,192,233809,1,0,0:0:0:0:
256,192,234333,1,8,0:0:0:0:
256,192,234726,1,8,0:0:0:0:
256,192,235119,1,0,0:0:0:0:
256,192,235512,1,0,0:0:0:0:
256,192,235643,1,8,0:0:0:0:
256,192,235905,1,0,0:0:0:0:
256,192,236429,1,8,0:0:0:0:
256,192,236822,1,8,0:0:0:0:
256,192,237215,1,0,0:0:0:0:
256,192,237608,1,0,0:0:0:0:
256,192,237739,1,8,0:0:0:0:
256,192,238001,1,0,0:0:0:0:
256,192,238525,1,8,0:0:0:0:
256,192,238918,1,8,0:0:0:0:
256,192,239311,1,0,0:0:0:0:
256,192,239704,1,0,0:0:0:0:
256,192,239835,1,8,0:0:0:0:
256,192,240097,1,0,0:0:0:0:
256,192,240622,1,8,0:0:0:0:
256,192,241015,1,8,0:0:0:0:
256,192,241408,1,0,0:0:0:0:
256,192,241801,1,0,0:0:0:0:
256,192,241932,1,8,0:0:0:0:
256,192,242194,1,0,0:0:0:0:
256,192,242718,1,8,0:0:0:0:
256,192,243111,1,8,0:0:0:0:
256,192,243504,1,0,0:0:0:0:
256,192,244028,1,8,0:0:0:0:
256,192,244290,1,0,0:0:0:0:
256,192,244814,1,8,0:0:0:0:
256,192,244945,1,0,0:0:0:0:
256,192,245207,1,8,0:0:0:0:
256,192,245600,1,0,0:0:0:0:
256,192,246124,1,8,0:0:0:0:
256,192,246386,1,0,0:0:0:0:
256,192,246910,1,8,0:0:0:0:
256,192,247041,1,0,0:0:0:0:
256,192,247303,1,8,0:0:0:0:
256,192,247696,1,0,0:0:0:0:
256,192,248220,1,8,0:0:0:0:
256,192,248482,1,0,0:0:0:0:
256,192,249006,1,8,0:0:0:0:
256,192,249137,1,0,0:0:0:0:
256,192,249399,1,8,0:0:0:0:
256,192,249792,1,0,0:0:0:0:
256,192,250316,1,8,0:0:0:0:
256,192,250578,1,0,0:0:0:0:
256,192,251102,1,8,0:0:0:0:
256,192,251233,1,0,0:0:0:0:
256,192,251495,1,8,0:0:0:0:
256,192,251888,1,0,0:0:0:0:
256,192,252281,1,0,0:0:0:0:
256,192,252412,1,8,0:0:0:0:
256,192,252674,1,0,0:0:0:0:
256,192,253198,1,8,0:0:0:0:
256,192,253329,1,0,0:0:0:0:
256,192,253591,1,8,0:0:0:0:
256,192,253984,1,0,0:0:0:0:
256,192,254377,1,0,0:0:0:0:
256,192,254508,1,8,0:0:0:0:
256,192,254770,1,0,0:0:0:0:
256,192,255294,1,8,0:0:0:0:
256,192,255425,1,0,0:0:0:0:
256,192,255687,1,8,0:0:0:0:
256,192,256080,1,0,0:0:0:0:
256,192,256473,1,0,0:0:0:0:
256,192,256604,1,8,0:0:0:0:
256,192,256866,1,0,0:0:0:0:
256,192,257390,1,8,0:0:0:0:
256,192,257521,1,0,0:0:0:0:
256,192,257783,1,8,0:0:0:0:
256,192,258176,1,0,0:0:0:0:
256,192,258569,1,0,0:0:0:0:
256,192,258700,1,8,0:0:0:0:
256,192,258962,1,0,0:0:0:0:
256,192,259486,1,8,0:0:0:0:
256,192,259617,1,0,0:0:0:0:
256,192,259879,1,8,0:0:0:0:
256,192,260272,1,0,0:0:0:0:
256,192,260665,1,0,0:0:0:0:
256,192,260796,1,8,0:0:0:0:
256,192,261058,1,0,0:0:0:0:
256,192,261582,1,8,0:0:0:0:
256,192,261713,1,0,0:0:0:0:
256,192,261975,1,8,0:0:0:0:
256,192,262106,1,0,0:0:0:0:
256,192,262368,1,0,0:0:0:0:
256,192,262761,1,0,0:0:0:0:
256,192,262892,1,8,0:0:0:0:
256,192,263154,1,0,0:0:0:0:
256,192,263678,1,8,0:0:0:0:
256,192,263809,1,0,0:0:0:0:
256,192,264071,1,8,0:0:0:0:
256,192,264202,1,0,0:0:0:0:
256,192,264464,1,0,0:0:0:0:
256,192,264857,1,0,0:0:0:0:
256,192,264988,1,8,0:0:0:0:
256,192,265250,1,0,0:0:0:0:
256,192,265774,1,8,0:0:0:0:
256,192,265905,1,0,0:0:0:0:
256,192,266167,1,8,0:0:0:0:
256,192,266298,1,0,0:0:0:0:
256,192,266560,1,0,0:0:0:0:
256,192,266953,1,0,0:0:0:0:
256,192,267084,1,8,0:0:0:0:
256,192,267346,1,0,0:0:0:0:
256,192,267870,1,8,0:0:0:0:
256,192,268001,1,0,0:0:0:0:
256,192,268263,1,8,0:0:0:0:
256,192,268394,1,0,0:0:0:0:
256,192,268656,1,8,0:0:0:0:
256,192,269180,1,8,0:0:0:0:
256,192,269704,1,8,0:0:0:0:
256,192,270097,1,8,0:0:0:0:
256,192,270753,1,8,0:0:0:0:
256,192,271277,1,8,0:0:0:0:
256,192,271801,1,8,0:0:0:0:
256,192,272194,1,8,0:0:0:0:
256,192,272849,1,8,0:0:0:0:
256,192,273373,1,8,0:0:0:0:
256,192,273897,1,8,0:0:0:0:
256,192,274290,1,8,0:0:0:0:
256,192,274945,1,8,0:0:0:0:
256,192,275469,1,8,0:0:0:0:
256,192,275993,1,8,0:0:0:0:
256,192,276386,1,8,0:0:0:0:
