osu file format v14

[General]
AudioFilename: audio.mp3
AudioLeadIn: 0
PreviewTime: -1
Countdown: 1
SampleSet: Soft
StackLeniency: 0.7
Mode: 3
LetterboxInBreaks: 0
SpecialStyle: 0
WidescreenStoryboard: 1

[Editor]
DistanceSpacing: 0.9
BeatDivisor: 4
GridSize: 8
TimelineZoom: 1.8

[Metadata]
Title:Vordhosbn
TitleUnicode:Vordhosbn
Artist:Aphex Twin
ArtistUnicode:Aphex Twin
Creator:OliBomby
Version:Hard
Source:
Tags:Drukqs Warp Records Electronic idm experimental DnB 2001
BeatmapID:1762671
BeatmapSetID:842377

[Difficulty]
HPDrainRate:5
CircleSize:4
OverallDifficulty:8
ApproachRate:5
SliderMultiplier:1.4
SliderTickRate:1

[Events]
//Background and Video events
0,0,"54973430_p0_master1200.jpg",0,0
//Break Periods
//Storyboard Layer 0 (Background)
//Storyboard Layer 1 (Fail)
//Storyboard Layer 2 (Pass)
//Storyboard Layer 3 (Foreground)
//Storyboard Sound Samples

[TimingPoints]
5854,352.733686067019,4,2,0,100,1,0

[HitObjects]
64,192,5854,5,0,0:0:0:0:
192,192,5942,1,0,0:0:0:0:
448,192,6119,1,0,0:0:0:0:
64,192,6207,1,0,0:0:0:0:
64,192,6383,1,0,0:0:0:0:
192,192,6471,1,0,0:0:0:0:
64,192,6559,1,0,0:0:0:0:
192,192,6648,1,0,0:0:0:0:
320,192,6736,1,0,0:0:0:0:
448,192,6912,1,0,0:0:0:0:
192,192,7089,1,0,0:0:0:0:
448,192,7265,1,0,0:0:0:0:
64,192,7353,1,0,0:0:0:0:
448,192,7441,1,0,0:0:0:0:
320,192,7618,1,0,0:0:0:0:
192,192,7794,1,0,0:0:0:0:
320,192,7882,1,0,0:0:0:0:
64,192,7970,1,0,0:0:0:0:
448,192,8059,1,0,0:0:0:0:
64,192,8147,1,0,0:0:0:0:
448,192,8235,1,0,0:0:0:0:
320,192,8323,1,0,0:0:0:0:
64,192,8500,1,0,0:0:0:0:
64,192,8676,1,0,0:0:0:0:
320,192,8852,1,0,0:0:0:0:
320,192,9029,1,0,0:0:0:0:
64,192,9117,1,0,0:0:0:0:
448,192,9205,1,0,0:0:0:0:
64,192,9293,1,0,0:0:0:0:
192,192,9293,1,0,0:0:0:0:
448,192,9381,1,0,0:0:0:0:
320,192,9470,1,0,0:0:0:0:
64,192,9558,1,0,0:0:0:0:
320,192,9646,1,0,0:0:0:0:
192,192,9734,1,0,0:0:0:0:
320,192,9910,1,0,0:0:0:0:
64,192,9999,1,0,0:0:0:0:
320,192,10087,1,0,0:0:0:0:
64,192,10175,1,0,0:0:0:0:
448,192,10263,1,0,0:0:0:0:
192,192,10351,1,0,0:0:0:0:
448,192,10440,1,0,0:0:0:0:
320,192,10616,1,0,0:0:0:0:
192,192,10704,1,0,0:0:0:0:
64,192,10792,1,0,0:0:0:0:
448,192,10969,1,0,0:0:0:0:
64,192,11057,1,0,0:0:0:0:
320,192,11057,1,0,0:0:0:0:
192,192,11145,1,0,0:0:0:0:
448,192,11145,1,0,0:0:0:0:
320,192,11321,1,0,0:0:0:0:
448,192,11498,1,0,0:0:0:0:
64,192,11498,1,0,0:0:0:0:
64,192,11850,1,0,0:0:0:0:
320,192,11850,1,0,0:0:0:0:
448,192,12027,1,0,0:0:0:0:
64,192,12115,1,0,0:0:0:0:
192,192,12203,1,0,0:0:0:0:
320,192,12291,1,0,0:0:0:0:
64,192,12380,1,0,0:0:0:0:
320,192,12468,1,0,0:0:0:0:
448,192,12556,1,0,0:0:0:0:
64,192,12556,1,0,0:0:0:0:
448,192,12732,1,0,0:0:0:0:
192,192,12909,1,0,0:0:0:0:
448,192,12997,1,0,0:0:0:0:
64,192,13085,1,0,0:0:0:0:
64,192,13261,1,0,0:0:0:0:
64,192,13438,1,0,0:0:0:0:
192,192,13438,1,0,0:0:0:0:
320,192,13526,1,0,0:0:0:0:
192,192,13614,1,0,0:0:0:0:
448,192,13702,1,0,0:0:0:0:
320,192,13791,1,0,0:0:0:0:
448,192,13879,1,0,0:0:0:0:
64,192,13879,1,0,0:0:0:0:
192,192,13967,1,0,0:0:0:0:
192,192,14231,1,0,0:0:0:0:
448,192,14320,1,0,0:0:0:0:
192,192,14408,1,0,0:0:0:0:
320,192,14496,1,0,0:0:0:0:
192,192,14584,1,0,0:0:0:0:
448,192,14672,1,0,0:0:0:0:
192,192,14849,1,0,0:0:0:0:
64,192,14937,1,0,0:0:0:0:
192,192,15113,1,0,0:0:0:0:
64,192,15201,1,0,0:0:0:0:
320,192,15378,1,0,0:0:0:0:
64,192,15554,1,0,0:0:0:0:
448,192,15642,1,0,0:0:0:0:
192,192,15731,1,0,0:0:0:0:
448,192,15819,1,0,0:0:0:0:
64,192,15907,1,0,0:0:0:0:
448,192,15995,1,0,0:0:0:0:
320,192,16083,1,0,0:0:0:0:
320,192,16260,1,0,0:0:0:0:
64,192,16348,1,0,0:0:0:0:
192,192,16436,1,0,0:0:0:0:
64,192,16524,1,0,0:0:0:0:
448,192,16524,1,0,0:0:0:0:
320,192,16612,1,0,0:0:0:0:
64,192,16701,1,0,0:0:0:0:
192,192,16789,1,0,0:0:0:0:
64,192,16965,1,0,0:0:0:0:
448,192,17053,1,0,0:0:0:0:
64,192,17494,1,0,0:0:0:0:
192,192,17759,1,0,0:0:0:0:
64,192,17847,1,0,0:0:0:0:
192,192,17935,1,0,0:0:0:0:
448,192,18023,1,0,0:0:0:0:
320,192,18023,1,0,0:0:0:0:
192,192,18111,1,0,0:0:0:0:
448,192,18200,1,0,0:0:0:0:
448,192,18376,1,0,0:0:0:0:
320,192,18464,1,0,0:0:0:0:
448,192,18552,1,0,0:0:0:0:
320,192,18729,1,0,0:0:0:0:
64,192,18729,1,0,0:0:0:0:
448,192,18905,1,0,0:0:0:0:
320,192,18993,1,0,0:0:0:0:
448,192,19082,1,0,0:0:0:0:
192,192,19170,1,0,0:0:0:0:
448,192,19258,1,0,0:0:0:0:
320,192,19346,1,0,0:0:0:0:
448,192,19434,1,0,0:0:0:0:
64,192,19611,1,0,0:0:0:0:
320,192,19875,1,0,0:0:0:0:
192,192,19963,1,0,0:0:0:0:
64,192,20140,1,0,0:0:0:0:
64,192,20316,1,0,0:0:0:0:
320,192,20492,1,0,0:0:0:0:
448,192,20581,1,0,0:0:0:0:
320,192,20669,1,0,0:0:0:0:
192,192,20757,1,0,0:0:0:0:
448,192,20845,1,0,0:0:0:0:
64,192,21022,1,0,0:0:0:0:
448,192,21198,1,0,0:0:0:0:
320,192,21286,1,0,0:0:0:0:
448,192,21462,1,0,0:0:0:0:
320,192,21639,1,0,0:0:0:0:
192,192,21727,1,0,0:0:0:0:
448,192,21903,1,0,0:0:0:0:
192,192,21992,1,0,0:0:0:0:
320,192,22080,1,0,0:0:0:0:
64,192,22168,1,0,0:0:0:0:
192,192,22256,1,0,0:0:0:0:
448,192,22344,1,0,0:0:0:0:
64,192,22432,1,0,0:0:0:0:
320,192,22521,1,0,0:0:0:0:
448,192,22609,1,0,0:0:0:0:
320,192,22697,1,0,0:0:0:0:
448,192,22785,1,0,0:0:0:0:
448,192,22962,1,0,0:0:0:0:
192,192,22962,1,0,0:0:0:0:
192,192,23138,1,0,0:0:0:0:
320,192,23314,1,0,0:0:0:0:
64,192,23403,1,0,0:0:0:0:
320,192,23491,1,0,0:0:0:0:
64,192,23579,1,0,0:0:0:0:
192,192,23667,1,0,0:0:0:0:
320,192,23755,1,0,0:0:0:0:
64,192,23843,1,0,0:0:0:0:
448,192,24020,1,0,0:0:0:0:
64,192,24108,1,0,0:0:0:0:
192,192,24196,1,0,0:0:0:0:
320,192,24284,1,0,0:0:0:0:
448,192,24373,1,0,0:0:0:0:
320,192,24461,1,0,0:0:0:0:
64,192,24549,1,0,0:0:0:0:
192,192,24725,1,0,0:0:0:0:
448,192,24813,1,0,0:0:0:0:
320,192,24813,1,0,0:0:0:0:
192,192,24902,1,0,0:0:0:0:
64,192,24990,1,0,0:0:0:0:
192,192,25078,1,0,0:0:0:0:
320,192,25166,1,0,0:0:0:0:
192,192,25254,1,0,0:0:0:0:
64,192,25431,1,0,0:0:0:0:
320,192,25519,1,0,0:0:0:0:
192,192,25607,1,0,0:0:0:0:
320,192,25695,1,0,0:0:0:0:
448,192,25783,1,0,0:0:0:0:
64,192,25872,1,0,0:0:0:0:
192,192,25960,1,0,0:0:0:0:
448,192,26048,1,0,0:0:0:0:
320,192,26136,1,0,0:0:0:0:
64,192,26224,1,0,0:0:0:0:
448,192,26313,1,0,0:0:0:0:
64,192,26401,1,0,0:0:0:0:
448,192,26489,1,0,0:0:0:0:
448,192,26665,1,0,0:0:0:0:
320,192,26665,1,0,0:0:0:0:
320,192,26842,1,0,0:0:0:0:
448,192,27018,1,0,0:0:0:0:
320,192,27018,1,0,0:0:0:0:
192,192,27106,1,0,0:0:0:0:
320,192,27194,1,0,0:0:0:0:
192,192,27283,1,0,0:0:0:0:
320,192,27371,1,0,0:0:0:0:
64,192,27371,1,0,0:0:0:0:
192,192,27547,1,0,0:0:0:0:
320,192,27635,1,0,0:0:0:0:
192,192,27723,1,0,0:0:0:0:
64,192,27900,1,0,0:0:0:0:
320,192,27988,1,0,0:0:0:0:
192,192,28076,1,0,0:0:0:0:
448,192,28164,1,0,0:0:0:0:
192,192,28253,1,0,0:0:0:0:
448,192,28341,1,0,0:0:0:0:
64,192,28429,1,0,0:0:0:0:
320,192,28782,1,0,0:0:0:0:
448,192,29046,1,0,0:0:0:0:
320,192,29134,1,0,0:0:0:0:
64,192,29223,1,0,0:0:0:0:
192,192,29311,1,0,0:0:0:0:
448,192,29487,1,0,0:0:0:0:
320,192,29487,1,0,0:0:0:0:
64,192,29664,1,0,0:0:0:0:
448,192,29840,1,0,0:0:0:0:
192,192,30193,1,0,0:0:0:0:
448,192,30369,1,0,0:0:0:0:
64,192,30457,1,0,0:0:0:0:
192,192,30545,1,0,0:0:0:0:
64,192,30634,1,0,0:0:0:0:
192,192,30722,1,0,0:0:0:0:
320,192,30810,1,0,0:0:0:0:
192,192,30898,1,0,0:0:0:0:
64,192,30898,1,0,0:0:0:0:
320,192,30986,1,0,0:0:0:0:
448,192,31074,1,0,0:0:0:0:
64,192,31251,1,0,0:0:0:0:
448,192,31339,1,0,0:0:0:0:
448,192,31515,1,0,0:0:0:0:
320,192,31604,1,0,0:0:0:0:
448,192,31692,1,0,0:0:0:0:
320,192,31868,1,0,0:0:0:0:
64,192,31956,1,0,0:0:0:0:
192,192,32044,1,0,0:0:0:0:
320,192,32133,1,0,0:0:0:0:
192,192,32309,1,0,0:0:0:0:
320,192,32574,1,0,0:0:0:0:
64,192,32662,1,0,0:0:0:0:
64,192,32926,1,0,0:0:0:0:
448,192,33014,1,0,0:0:0:0:
448,192,33367,1,0,0:0:0:0:
64,192,33632,1,0,0:0:0:0:
192,192,33720,1,0,0:0:0:0:
320,192,34073,1,0,0:0:0:0:
64,192,34425,1,0,0:0:0:0:
448,192,34514,1,0,0:0:0:0:
192,192,34514,1,0,0:0:0:0:
64,192,34690,1,0,0:0:0:0:
320,192,34778,1,0,0:0:0:0:
448,192,34866,1,0,0:0:0:0:
192,192,34955,1,0,0:0:0:0:
320,192,35131,1,0,0:0:0:0:
192,192,35219,1,0,0:0:0:0:
320,192,35307,1,0,0:0:0:0:
448,192,35307,1,0,0:0:0:0:
192,192,35484,1,0,0:0:0:0:
64,192,35572,1,0,0:0:0:0:
448,192,35572,1,0,0:0:0:0:
320,192,35748,1,0,0:0:0:0:
448,192,35836,1,0,0:0:0:0:
192,192,35836,1,0,0:0:0:0:
448,192,36013,1,0,0:0:0:0:
192,192,36101,1,0,0:0:0:0:
320,192,36189,1,0,0:0:0:0:
64,192,36277,1,0,0:0:0:0:
320,192,36365,1,0,0:0:0:0:
192,192,36454,1,0,0:0:0:0:
448,192,36542,1,0,0:0:0:0:
320,192,36718,1,0,0:0:0:0:
64,192,36895,1,0,0:0:0:0:
64,192,37159,1,0,0:0:0:0:
448,192,37247,1,0,0:0:0:0:
192,192,37335,1,0,0:0:0:0:
448,192,37424,1,0,0:0:0:0:
192,192,37512,1,0,0:0:0:0:
320,192,37600,1,0,0:0:0:0:
448,192,37688,1,0,0:0:0:0:
320,192,37776,1,0,0:0:0:0:
448,192,37865,1,0,0:0:0:0:
320,192,37953,1,0,0:0:0:0:
192,192,38305,1,0,0:0:0:0:
320,192,38570,1,0,0:0:0:0:
448,192,38658,1,0,0:0:0:0:
192,192,38835,1,0,0:0:0:0:
192,192,39011,1,0,0:0:0:0:
448,192,39276,1,0,0:0:0:0:
192,192,39364,1,0,0:0:0:0:
64,192,39540,1,0,0:0:0:0:
448,192,39716,1,0,0:0:0:0:
448,192,40069,1,0,0:0:0:0:
320,192,40157,1,0,0:0:0:0:
64,192,40157,1,0,0:0:0:0:
448,192,40334,1,0,0:0:0:0:
64,192,40422,1,0,0:0:0:0:
320,192,40510,1,0,0:0:0:0:
64,192,40598,1,0,0:0:0:0:
320,192,40775,1,0,0:0:0:0:
320,192,40951,1,0,0:0:0:0:
192,192,41127,1,0,0:0:0:0:
320,192,41216,1,0,0:0:0:0:
192,192,41304,1,0,0:0:0:0:
320,192,41392,1,0,0:0:0:0:
64,192,41480,1,0,0:0:0:0:
448,192,41656,1,0,0:0:0:0:
192,192,41745,1,0,0:0:0:0:
64,192,41833,1,0,0:0:0:0:
320,192,41921,1,0,0:0:0:0:
192,192,42009,1,0,0:0:0:0:
320,192,42097,1,0,0:0:0:0:
448,192,42186,1,0,0:0:0:0:
192,192,42274,1,0,0:0:0:0:
320,192,42362,1,0,0:0:0:0:
64,192,42450,1,0,0:0:0:0:
320,192,42538,1,0,0:0:0:0:
448,192,42626,1,0,0:0:0:0:
64,192,42715,1,0,0:0:0:0:
448,192,42803,1,0,0:0:0:0:
64,192,42891,1,0,0:0:0:0:
448,192,42979,1,0,0:0:0:0:
192,192,43067,1,0,0:0:0:0:
320,192,43156,1,0,0:0:0:0:
64,192,43156,1,0,0:0:0:0:
448,192,43244,1,0,0:0:0:0:
320,192,43332,1,0,0:0:0:0:
448,192,43420,1,0,0:0:0:0:
64,192,43508,1,0,0:0:0:0:
192,192,43597,1,0,0:0:0:0:
64,192,43773,1,0,0:0:0:0:
64,192,43949,1,0,0:0:0:0:
320,192,44037,1,0,0:0:0:0:
64,192,44126,1,0,0:0:0:0:
448,192,44214,1,0,0:0:0:0:
192,192,44302,1,0,0:0:0:0:
448,192,44390,1,0,0:0:0:0:
320,192,44478,1,0,0:0:0:0:
192,192,44655,1,0,0:0:0:0:
448,192,44743,1,0,0:0:0:0:
320,192,44743,1,0,0:0:0:0:
192,192,44831,1,0,0:0:0:0:
320,192,44919,1,0,0:0:0:0:
192,192,45007,1,0,0:0:0:0:
448,192,45184,1,0,0:0:0:0:
448,192,45360,1,0,0:0:0:0:
448,192,45537,1,0,0:0:0:0:
64,192,45625,1,0,0:0:0:0:
320,192,45713,1,0,0:0:0:0:
320,192,45889,1,0,0:0:0:0:
448,192,45977,1,0,0:0:0:0:
192,192,46066,1,0,0:0:0:0:
64,192,46154,1,0,0:0:0:0:
448,192,46242,1,0,0:0:0:0:
192,192,46330,1,0,0:0:0:0:
320,192,46418,1,0,0:0:0:0:
192,192,46595,1,0,0:0:0:0:
448,192,46683,1,0,0:0:0:0:
320,192,46771,1,0,0:0:0:0:
448,192,46859,1,0,0:0:0:0:
448,192,47036,1,0,0:0:0:0:
320,192,47124,1,0,0:0:0:0:
192,192,47124,1,0,0:0:0:0:
320,192,47300,1,0,0:0:0:0:
192,192,47300,1,0,0:0:0:0:
64,192,47388,1,0,0:0:0:0:
320,192,47477,1,0,0:0:0:0:
64,192,47565,1,0,0:0:0:0:
192,192,47653,1,0,0:0:0:0:
64,192,47741,1,0,0:0:0:0:
192,192,47829,1,0,0:0:0:0:
64,192,48006,1,0,0:0:0:0:
320,192,48094,1,0,0:0:0:0:
64,192,48182,1,0,0:0:0:0:
448,192,48270,1,0,0:0:0:0:
64,192,48358,1,0,0:0:0:0:
320,192,48535,1,0,0:0:0:0:
192,192,48711,1,0,0:0:0:0:
320,192,48799,1,0,0:0:0:0:
448,192,48888,1,0,0:0:0:0:
192,192,48976,1,0,0:0:0:0:
448,192,49064,1,0,0:0:0:0:
64,192,49152,1,0,0:0:0:0:
192,192,49240,1,0,0:0:0:0:
448,192,49417,1,0,0:0:0:0:
320,192,49505,1,0,0:0:0:0:
448,192,49681,1,0,0:0:0:0:
64,192,49769,1,0,0:0:0:0:
320,192,49858,1,0,0:0:0:0:
448,192,49946,1,0,0:0:0:0:
64,192,50034,1,0,0:0:0:0:
192,192,50122,1,0,0:0:0:0:
64,192,50210,1,0,0:0:0:0:
320,192,50298,1,0,0:0:0:0:
64,192,50387,1,0,0:0:0:0:
192,192,50475,1,0,0:0:0:0:
448,192,50563,1,0,0:0:0:0:
64,192,50651,1,0,0:0:0:0:
192,192,50739,1,0,0:0:0:0:
448,192,50739,1,0,0:0:0:0:
320,192,50828,1,0,0:0:0:0:
64,192,50916,1,0,0:0:0:0:
320,192,51004,1,0,0:0:0:0:
192,192,51180,1,0,0:0:0:0:
320,192,51357,1,0,0:0:0:0:
320,192,51533,1,0,0:0:0:0:
192,192,51621,1,0,0:0:0:0:
64,192,51709,1,0,0:0:0:0:
192,192,51798,1,0,0:0:0:0:
448,192,51886,1,0,0:0:0:0:
192,192,51974,1,0,0:0:0:0:
320,192,52062,1,0,0:0:0:0:
448,192,52150,1,0,0:0:0:0:
64,192,52150,1,0,0:0:0:0:
192,192,52327,1,0,0:0:0:0:
64,192,52415,1,0,0:0:0:0:
320,192,52591,1,0,0:0:0:0:
448,192,52591,1,0,0:0:0:0:
192,192,52768,1,0,0:0:0:0:
192,192,52944,1,0,0:0:0:0:
320,192,53032,1,0,0:0:0:0:
192,192,53120,1,0,0:0:0:0:
64,192,53208,1,0,0:0:0:0:
448,192,53297,1,0,0:0:0:0:
64,192,53385,1,0,0:0:0:0:
320,192,53473,1,0,0:0:0:0:
64,192,53561,1,0,0:0:0:0:
448,192,53649,1,0,0:0:0:0:
192,192,53738,1,0,0:0:0:0:
64,192,53826,1,0,0:0:0:0:
192,192,53914,1,0,0:0:0:0:
320,192,54002,1,0,0:0:0:0:
448,192,54090,1,0,0:0:0:0:
192,192,54179,1,0,0:0:0:0:
448,192,54355,1,0,0:0:0:0:
192,192,54443,1,0,0:0:0:0:
320,192,54531,1,0,0:0:0:0:
64,192,54619,1,0,0:0:0:0:
192,192,54708,1,0,0:0:0:0:
64,192,54796,1,0,0:0:0:0:
448,192,54796,1,0,0:0:0:0:
320,192,54884,1,0,0:0:0:0:
448,192,54972,1,0,0:0:0:0:
192,192,55060,1,0,0:0:0:0:
448,192,55149,1,0,0:0:0:0:
64,192,55237,1,0,0:0:0:0:
448,192,55325,1,0,0:0:0:0:
320,192,55413,1,0,0:0:0:0:
448,192,55501,1,0,0:0:0:0:
192,192,55589,1,0,0:0:0:0:
64,192,55678,1,0,0:0:0:0:
320,192,55766,1,0,0:0:0:0:
448,192,55854,1,0,0:0:0:0:
320,192,55942,1,0,0:0:0:0:
64,192,56030,1,0,0:0:0:0:
320,192,56119,1,0,0:0:0:0:
64,192,56207,1,0,0:0:0:0:
448,192,56295,1,0,0:0:0:0:
192,192,56295,1,0,0:0:0:0:
64,192,56471,1,0,0:0:0:0:
192,192,56559,1,0,0:0:0:0:
320,192,56648,1,0,0:0:0:0:
448,192,56824,1,0,0:0:0:0:
192,192,56912,1,0,0:0:0:0:
320,192,57000,1,0,0:0:0:0:
448,192,57177,1,0,0:0:0:0:
320,192,57265,1,0,0:0:0:0:
192,192,57353,1,0,0:0:0:0:
192,192,57529,1,0,0:0:0:0:
448,192,57618,1,0,0:0:0:0:
320,192,57706,1,0,0:0:0:0:
192,192,57794,1,0,0:0:0:0:
448,192,57794,1,0,0:0:0:0:
64,192,58059,1,0,0:0:0:0:
320,192,58235,1,0,0:0:0:0:
448,192,58323,1,0,0:0:0:0:
320,192,58411,1,0,0:0:0:0:
320,192,58588,1,0,0:0:0:0:
64,192,58676,1,0,0:0:0:0:
448,192,58764,1,0,0:0:0:0:
448,192,58940,1,0,0:0:0:0:
192,192,59029,1,0,0:0:0:0:
320,192,59117,1,0,0:0:0:0:
448,192,59293,1,0,0:0:0:0:
320,192,59470,1,0,0:0:0:0:
448,192,59646,1,0,0:0:0:0:
64,192,59734,1,0,0:0:0:0:
448,192,59822,1,0,0:0:0:0:
192,192,59910,1,0,0:0:0:0:
448,192,59999,1,0,0:0:0:0:
64,192,60175,1,0,0:0:0:0:
192,192,60351,1,0,0:0:0:0:
64,192,60440,1,0,0:0:0:0:
192,192,60528,1,0,0:0:0:0:
448,192,60616,1,0,0:0:0:0:
64,192,60704,1,0,0:0:0:0:
448,192,60880,1,0,0:0:0:0:
192,192,60969,1,0,0:0:0:0:
320,192,61057,1,0,0:0:0:0:
192,192,61145,1,0,0:0:0:0:
448,192,61233,1,0,0:0:0:0:
192,192,61321,1,0,0:0:0:0:
448,192,61410,1,0,0:0:0:0:
320,192,61586,1,0,0:0:0:0:
448,192,61586,1,0,0:0:0:0:
192,192,61674,1,0,0:0:0:0:
64,192,61762,1,0,0:0:0:0:
320,192,61850,1,0,0:0:0:0:
448,192,61850,1,0,0:0:0:0:
64,192,61939,1,0,0:0:0:0:
192,192,62027,1,0,0:0:0:0:
448,192,62115,1,0,0:0:0:0:
320,192,62115,1,0,0:0:0:0:
192,192,62291,1,0,0:0:0:0:
320,192,62380,1,0,0:0:0:0:
448,192,62468,1,0,0:0:0:0:
64,192,62556,1,0,0:0:0:0:
320,192,62644,1,0,0:0:0:0:
448,192,62732,1,0,0:0:0:0:
192,192,62820,1,0,0:0:0:0:
64,192,62909,1,0,0:0:0:0:
448,192,62997,1,0,0:0:0:0:
192,192,63085,1,0,0:0:0:0:
64,192,63173,1,0,0:0:0:0:
192,192,63261,1,0,0:0:0:0:
320,192,63350,1,0,0:0:0:0:
192,192,63438,1,0,0:0:0:0:
192,192,63614,1,0,0:0:0:0:
64,192,63702,1,0,0:0:0:0:
320,192,63791,1,0,0:0:0:0:
192,192,63879,1,0,0:0:0:0:
320,192,63967,1,0,0:0:0:0:
448,192,64055,1,0,0:0:0:0:
64,192,64143,1,0,0:0:0:0:
192,192,64231,1,0,0:0:0:0:
448,192,64320,1,0,0:0:0:0:
320,192,64408,1,0,0:0:0:0:
448,192,64496,1,0,0:0:0:0:
64,192,64584,1,0,0:0:0:0:
192,192,64672,1,0,0:0:0:0:
320,192,64761,1,0,0:0:0:0:
320,192,64937,1,0,0:0:0:0:
64,192,65025,1,0,0:0:0:0:
320,192,65113,1,0,0:0:0:0:
448,192,65201,1,0,0:0:0:0:
64,192,65290,1,0,0:0:0:0:
320,192,65378,1,0,0:0:0:0:
448,192,65466,1,0,0:0:0:0:
192,192,65642,1,0,0:0:0:0:
320,192,65731,1,0,0:0:0:0:
64,192,65819,1,0,0:0:0:0:
192,192,65907,1,0,0:0:0:0:
448,192,65995,1,0,0:0:0:0:
320,192,66083,1,0,0:0:0:0:
192,192,66171,1,0,0:0:0:0:
320,192,66260,1,0,0:0:0:0:
192,192,66348,1,0,0:0:0:0:
320,192,66436,1,0,0:0:0:0:
448,192,66524,1,0,0:0:0:0:
192,192,66612,1,0,0:0:0:0:
64,192,66701,1,0,0:0:0:0:
320,192,66789,1,0,0:0:0:0:
64,192,66877,1,0,0:0:0:0:
192,192,66965,1,0,0:0:0:0:
448,192,66965,1,0,0:0:0:0:
320,192,67053,1,0,0:0:0:0:
448,192,67141,1,0,0:0:0:0:
192,192,67230,1,0,0:0:0:0:
320,192,67318,1,0,0:0:0:0:
448,192,67406,1,0,0:0:0:0:
64,192,67494,1,0,0:0:0:0:
320,192,67582,1,0,0:0:0:0:
448,192,67671,1,0,0:0:0:0:
64,192,67759,1,0,0:0:0:0:
320,192,67847,1,0,0:0:0:0:
192,192,67935,1,0,0:0:0:0:
64,192,68111,1,0,0:0:0:0:
320,192,68200,1,0,0:0:0:0:
448,192,68288,1,0,0:0:0:0:
64,192,68464,1,0,0:0:0:0:
448,192,68552,1,0,0:0:0:0:
192,192,68641,1,0,0:0:0:0:
448,192,68729,1,0,0:0:0:0:
64,192,68817,1,0,0:0:0:0:
320,192,68905,1,0,0:0:0:0:
192,192,68993,1,0,0:0:0:0:
64,192,69170,1,0,0:0:0:0:
192,192,69258,1,0,0:0:0:0:
320,192,69434,1,0,0:0:0:0:
320,192,69611,1,0,0:0:0:0:
448,192,69611,1,0,0:0:0:0:
64,192,69699,1,0,0:0:0:0:
192,192,69699,1,0,0:0:0:0:
64,192,69875,1,0,0:0:0:0:
192,192,69963,1,0,0:0:0:0:
320,192,70052,1,0,0:0:0:0:
192,192,70140,1,0,0:0:0:0:
64,192,70228,1,0,0:0:0:0:
448,192,70316,1,0,0:0:0:0:
320,192,70404,1,0,0:0:0:0:
448,192,70581,1,0,0:0:0:0:
64,192,70757,1,0,0:0:0:0:
192,192,70845,1,0,0:0:0:0:
320,192,70845,1,0,0:0:0:0:
64,192,70933,1,0,0:0:0:0:
192,192,71022,1,0,0:0:0:0:
448,192,71110,1,0,0:0:0:0:
320,192,71110,1,0,0:0:0:0:
192,192,71286,1,0,0:0:0:0:
64,192,71374,1,0,0:0:0:0:
448,192,71462,1,0,0:0:0:0:
192,192,71551,1,0,0:0:0:0:
64,192,71639,1,0,0:0:0:0:
448,192,71727,1,0,0:0:0:0:
320,192,71815,1,0,0:0:0:0:
320,192,71992,1,0,0:0:0:0:
192,192,71992,1,0,0:0:0:0:
448,192,72168,1,0,0:0:0:0:
192,192,72256,1,0,0:0:0:0:
448,192,72344,1,0,0:0:0:0:
320,192,72432,1,0,0:0:0:0:
64,192,72521,1,0,0:0:0:0:
448,192,72697,1,0,0:0:0:0:
192,192,72873,1,0,0:0:0:0:
64,192,72962,1,0,0:0:0:0:
192,192,73050,1,0,0:0:0:0:
64,192,73226,1,0,0:0:0:0:
192,192,73314,1,0,0:0:0:0:
320,192,73403,1,0,0:0:0:0:
192,192,73491,1,0,0:0:0:0:
448,192,73932,1,0,0:0:0:0:
320,192,74196,1,0,0:0:0:0:
192,192,74196,1,0,0:0:0:0:
64,192,74373,1,0,0:0:0:0:
64,192,74549,1,0,0:0:0:0:
448,192,74637,1,0,0:0:0:0:
192,192,74990,1,0,0:0:0:0:
64,192,75343,1,0,0:0:0:0:
192,192,75519,1,0,0:0:0:0:
448,192,75607,1,0,0:0:0:0:
64,192,75783,1,0,0:0:0:0:
64,192,76048,1,0,0:0:0:0:
320,192,76136,1,0,0:0:0:0:
448,192,76224,1,0,0:0:0:0:
64,192,76401,1,0,0:0:0:0:
64,192,76753,1,0,0:0:0:0:
64,192,77018,1,0,0:0:0:0:
192,192,77194,1,0,0:0:0:0:
448,192,77283,1,0,0:0:0:0:
320,192,77459,1,0,0:0:0:0:
448,192,77812,1,0,0:0:0:0:
448,192,77988,1,0,0:0:0:0:
320,192,78164,1,0,0:0:0:0:
448,192,78341,1,0,0:0:0:0:
320,192,78870,1,0,0:0:0:0:
192,192,78870,1,0,0:0:0:0:
64,192,79223,1,0,0:0:0:0:
192,192,79575,1,0,0:0:0:0:
320,192,79840,1,0,0:0:0:0:
448,192,80016,1,0,0:0:0:0:
64,192,80281,1,0,0:0:0:0:
448,192,80457,1,0,0:0:0:0:
192,192,80457,1,0,0:0:0:0:
192,192,80634,1,0,0:0:0:0:
192,192,80986,1,0,0:0:0:0:
64,192,81163,1,0,0:0:0:0:
448,192,81251,1,0,0:0:0:0:
448,192,81427,1,0,0:0:0:0:
64,192,81604,1,0,0:0:0:0:
192,192,81692,1,0,0:0:0:0:
320,192,82044,1,0,0:0:0:0:
64,192,82221,1,0,0:0:0:0:
192,192,82397,1,0,0:0:0:0:
448,192,82662,1,0,0:0:0:0:
448,192,82838,1,0,0:0:0:0:
192,192,82926,1,0,0:0:0:0:
64,192,83103,1,0,0:0:0:0:
448,192,83455,1,0,0:0:0:0:
64,192,83808,1,0,0:0:0:0:
192,192,83985,1,0,0:0:0:0:
64,192,84425,1,0,0:0:0:0:
448,192,84514,1,0,0:0:0:0:
64,192,84690,1,0,0:0:0:0:
448,192,84866,1,0,0:0:0:0:
192,192,85219,1,0,0:0:0:0:
192,192,85484,1,0,0:0:0:0:
448,192,85660,1,0,0:0:0:0:
448,192,85836,1,0,0:0:0:0:
192,192,85925,1,0,0:0:0:0:
320,192,86101,1,0,0:0:0:0:
64,192,86277,1,0,0:0:0:0:
448,192,86630,1,0,0:0:0:0:
64,192,86806,1,0,0:0:0:0:
192,192,86895,1,0,0:0:0:0:
64,192,87071,1,0,0:0:0:0:
320,192,87247,1,0,0:0:0:0:
64,192,87335,1,0,0:0:0:0:
64,192,87688,1,0,0:0:0:0:
64,192,87865,1,0,0:0:0:0:
192,192,88041,1,0,0:0:0:0:
320,192,88129,1,0,0:0:0:0:
192,192,88305,1,0,0:0:0:0:
64,192,88482,1,0,0:0:0:0:
320,192,88570,1,0,0:0:0:0:
448,192,88746,1,0,0:0:0:0:
64,192,89099,1,0,0:0:0:0:
192,192,89452,1,0,0:0:0:0:
448,192,89628,1,0,0:0:0:0:
192,192,90069,1,0,0:0:0:0:
448,192,90157,1,0,0:0:0:0:
320,192,90334,1,0,0:0:0:0:
192,192,90510,1,0,0:0:0:0:
448,192,90863,1,0,0:0:0:0:
448,192,91039,1,0,0:0:0:0:
320,192,91127,1,0,0:0:0:0:
64,192,91304,1,0,0:0:0:0:
64,192,91480,1,0,0:0:0:0:
448,192,91568,1,0,0:0:0:0:
448,192,91745,1,0,0:0:0:0:
320,192,91921,1,0,0:0:0:0:
448,192,92097,1,0,0:0:0:0:
64,192,92274,1,0,0:0:0:0:
320,192,92450,1,0,0:0:0:0:
64,192,92538,1,0,0:0:0:0:
448,192,92715,1,0,0:0:0:0:
192,192,92803,1,0,0:0:0:0:
448,192,92891,1,0,0:0:0:0:
64,192,92979,1,0,0:0:0:0:
320,192,93332,1,0,0:0:0:0:
448,192,93508,1,0,0:0:0:0:
192,192,93685,1,0,0:0:0:0:
64,192,93949,1,0,0:0:0:0:
320,192,94126,1,0,0:0:0:0:
192,192,94126,1,0,0:0:0:0:
64,192,94214,1,0,0:0:0:0:
64,192,94390,1,0,0:0:0:0:
448,192,94567,1,0,0:0:0:0:
320,192,94743,1,0,0:0:0:0:
64,192,95096,1,0,0:0:0:0:
64,192,95272,1,0,0:0:0:0:
192,192,95360,1,0,0:0:0:0:
192,192,95625,1,0,0:0:0:0:
448,192,95713,1,0,0:0:0:0:
64,192,95801,1,0,0:0:0:0:
320,192,95977,1,0,0:0:0:0:
320,192,96154,1,0,0:0:0:0:
64,192,96330,1,0,0:0:0:0:
192,192,96418,1,0,0:0:0:0:
64,192,96507,1,0,0:0:0:0:
448,192,96507,1,0,0:0:0:0:
192,192,96683,1,0,0:0:0:0:
320,192,96771,1,0,0:0:0:0:
192,192,96859,1,0,0:0:0:0:
64,192,96859,1,0,0:0:0:0:
320,192,96947,1,0,0:0:0:0:
64,192,97036,1,0,0:0:0:0:
320,192,97212,1,0,0:0:0:0:
320,192,97388,1,0,0:0:0:0:
192,192,97388,1,0,0:0:0:0:
192,192,97565,1,0,0:0:0:0:
64,192,97653,1,0,0:0:0:0:
192,192,97741,1,0,0:0:0:0:
192,192,97917,1,0,0:0:0:0:
192,192,98094,1,0,0:0:0:0:
448,192,98182,1,0,0:0:0:0:
192,192,98270,1,0,0:0:0:0:
64,192,98270,1,0,0:0:0:0:
320,192,98358,1,0,0:0:0:0:
448,192,98447,1,0,0:0:0:0:
320,192,98535,1,0,0:0:0:0:
64,192,98623,1,0,0:0:0:0:
448,192,98711,1,0,0:0:0:0:
64,192,98799,1,0,0:0:0:0:
320,192,98888,1,0,0:0:0:0:
448,192,98976,1,0,0:0:0:0:
448,192,99152,1,0,0:0:0:0:
192,192,99240,1,0,0:0:0:0:
64,192,99328,1,0,0:0:0:0:
64,192,99505,1,0,0:0:0:0:
448,192,99593,1,0,0:0:0:0:
192,192,99681,1,0,0:0:0:0:
320,192,99769,1,0,0:0:0:0:
64,192,99858,1,0,0:0:0:0:
64,192,100034,1,0,0:0:0:0:
64,192,100210,1,0,0:0:0:0:
192,192,100298,1,0,0:0:0:0:
320,192,100387,1,0,0:0:0:0:
192,192,100475,1,0,0:0:0:0:
64,192,100563,1,0,0:0:0:0:
320,192,100651,1,0,0:0:0:0:
192,192,100739,1,0,0:0:0:0:
448,192,100828,1,0,0:0:0:0:
320,192,100916,1,0,0:0:0:0:
64,192,101004,1,0,0:0:0:0:
192,192,101092,1,0,0:0:0:0:
192,192,101268,1,0,0:0:0:0:
320,192,101357,1,0,0:0:0:0:
448,192,101357,1,0,0:0:0:0:
192,192,101445,1,0,0:0:0:0:
192,192,101621,1,0,0:0:0:0:
448,192,101798,1,0,0:0:0:0:
64,192,102062,1,0,0:0:0:0:
448,192,102150,1,0,0:0:0:0:
192,192,102327,1,0,0:0:0:0:
320,192,102415,1,0,0:0:0:0:
192,192,102503,1,0,0:0:0:0:
448,192,102503,1,0,0:0:0:0:
320,192,102591,1,0,0:0:0:0:
64,192,102679,1,0,0:0:0:0:
320,192,102768,1,0,0:0:0:0:
64,192,102856,1,0,0:0:0:0:
448,192,103032,1,0,0:0:0:0:
192,192,103120,1,0,0:0:0:0:
320,192,103208,1,0,0:0:0:0:
192,192,103297,1,0,0:0:0:0:
320,192,103385,1,0,0:0:0:0:
448,192,103473,1,0,0:0:0:0:
192,192,103561,1,0,0:0:0:0:
64,192,103649,1,0,0:0:0:0:
320,192,103738,1,0,0:0:0:0:
64,192,103826,1,0,0:0:0:0:
192,192,103914,1,0,0:0:0:0:
448,192,104002,1,0,0:0:0:0:
64,192,104090,1,0,0:0:0:0:
320,192,104179,1,0,0:0:0:0:
64,192,104267,1,0,0:0:0:0:
192,192,104443,1,0,0:0:0:0:
448,192,104531,1,0,0:0:0:0:
192,192,104619,1,0,0:0:0:0:
192,192,104796,1,0,0:0:0:0:
448,192,104884,1,0,0:0:0:0:
64,192,104972,1,0,0:0:0:0:
192,192,105149,1,0,0:0:0:0:
320,192,105149,1,0,0:0:0:0:
448,192,105237,1,0,0:0:0:0:
320,192,105325,1,0,0:0:0:0:
192,192,105678,1,0,0:0:0:0:
320,192,105854,1,0,0:0:0:0:
448,192,105942,1,0,0:0:0:0:
320,192,106030,1,0,0:0:0:0:
64,192,106119,1,0,0:0:0:0:
448,192,106207,1,0,0:0:0:0:
64,192,106295,1,0,0:0:0:0:
320,192,106383,1,0,0:0:0:0:
320,192,106559,1,0,0:0:0:0:
448,192,106648,1,0,0:0:0:0:
64,192,106736,1,0,0:0:0:0:
192,192,106912,1,0,0:0:0:0:
320,192,107000,1,0,0:0:0:0:
448,192,107000,1,0,0:0:0:0:
192,192,107089,1,0,0:0:0:0:
448,192,107265,1,0,0:0:0:0:
192,192,107353,1,0,0:0:0:0:
448,192,107441,1,0,0:0:0:0:
320,192,107529,1,0,0:0:0:0:
64,192,107706,1,0,0:0:0:0:
320,192,107794,1,0,0:0:0:0:
320,192,107970,1,0,0:0:0:0:
64,192,108059,1,0,0:0:0:0:
320,192,108147,1,0,0:0:0:0:
448,192,108235,1,0,0:0:0:0:
320,192,108323,1,0,0:0:0:0:
448,192,108500,1,0,0:0:0:0:
192,192,108588,1,0,0:0:0:0:
192,192,108764,1,0,0:0:0:0:
448,192,108852,1,0,0:0:0:0:
64,192,108852,1,0,0:0:0:0:
192,192,108940,1,0,0:0:0:0:
64,192,109029,1,0,0:0:0:0:
192,192,109117,1,0,0:0:0:0:
320,192,109205,1,0,0:0:0:0:
64,192,109205,1,0,0:0:0:0:
448,192,109293,1,0,0:0:0:0:
320,192,109381,1,0,0:0:0:0:
192,192,109470,1,0,0:0:0:0:
64,192,109558,1,0,0:0:0:0:
448,192,109646,1,0,0:0:0:0:
320,192,109734,1,0,0:0:0:0:
192,192,109822,1,0,0:0:0:0:
448,192,109822,1,0,0:0:0:0:
320,192,109910,1,0,0:0:0:0:
64,192,110263,1,0,0:0:0:0:
192,192,110440,1,0,0:0:0:0:
448,192,110528,1,0,0:0:0:0:
64,192,110616,1,0,0:0:0:0:
448,192,110704,1,0,0:0:0:0:
320,192,110792,1,0,0:0:0:0:
192,192,110880,1,0,0:0:0:0:
64,192,110969,1,0,0:0:0:0:
320,192,111057,1,0,0:0:0:0:
448,192,111145,1,0,0:0:0:0:
192,192,111321,1,0,0:0:0:0:
64,192,111498,1,0,0:0:0:0:
192,192,111586,1,0,0:0:0:0:
64,192,111674,1,0,0:0:0:0:
448,192,111762,1,0,0:0:0:0:
192,192,111850,1,0,0:0:0:0:
320,192,111939,1,0,0:0:0:0:
64,192,112027,1,0,0:0:0:0:
320,192,112115,1,0,0:0:0:0:
192,192,112203,1,0,0:0:0:0:
320,192,112291,1,0,0:0:0:0:
448,192,112380,1,0,0:0:0:0:
448,192,112556,1,0,0:0:0:0:
320,192,112732,1,0,0:0:0:0:
64,192,112909,1,0,0:0:0:0:
448,192,113085,1,0,0:0:0:0:
192,192,113173,1,0,0:0:0:0:
320,192,113350,1,0,0:0:0:0:
192,192,113438,1,0,0:0:0:0:
192,192,113614,1,0,0:0:0:0:
64,192,113614,1,0,0:0:0:0:
192,192,113791,1,0,0:0:0:0:
320,192,113879,1,0,0:0:0:0:
64,192,113967,1,0,0:0:0:0:
320,192,114055,1,0,0:0:0:0:
448,192,114143,1,0,0:0:0:0:
192,192,114320,1,0,0:0:0:0:
64,192,114408,1,0,0:0:0:0:
64,192,114584,1,0,0:0:0:0:
448,192,114672,1,0,0:0:0:0:
320,192,114761,1,0,0:0:0:0:
448,192,114849,1,0,0:0:0:0:
64,192,114849,1,0,0:0:0:0:
320,192,114937,1,0,0:0:0:0:
192,192,115113,1,0,0:0:0:0:
64,192,115201,1,0,0:0:0:0:
192,192,115290,1,0,0:0:0:0:
64,192,115378,1,0,0:0:0:0:
448,192,115466,1,0,0:0:0:0:
192,192,115554,1,0,0:0:0:0:
320,192,115554,1,0,0:0:0:0:
64,192,115731,1,0,0:0:0:0:
320,192,115819,1,0,0:0:0:0:
64,192,115995,1,0,0:0:0:0:
320,192,116083,1,0,0:0:0:0:
192,192,116171,1,0,0:0:0:0:
320,192,116260,1,0,0:0:0:0:
320,192,116436,1,0,0:0:0:0:
192,192,116524,1,0,0:0:0:0:
448,192,116612,1,0,0:0:0:0:
192,192,116701,1,0,0:0:0:0:
448,192,116789,1,0,0:0:0:0:
320,192,116877,1,0,0:0:0:0:
192,192,116965,1,0,0:0:0:0:
64,192,117141,1,0,0:0:0:0:
320,192,117230,1,0,0:0:0:0:
320,192,117406,1,0,0:0:0:0:
320,192,117582,1,0,0:0:0:0:
64,192,117671,1,0,0:0:0:0:
192,192,117847,1,0,0:0:0:0:
320,192,117935,1,0,0:0:0:0:
192,192,118023,1,0,0:0:0:0:
448,192,118023,1,0,0:0:0:0:
320,192,118111,1,0,0:0:0:0:
64,192,118200,1,0,0:0:0:0:
192,192,118288,1,0,0:0:0:0:
64,192,118376,1,0,0:0:0:0:
320,192,118729,1,0,0:0:0:0:
64,192,118817,1,0,0:0:0:0:
320,192,118905,1,0,0:0:0:0:
192,192,118993,1,0,0:0:0:0:
448,192,119082,1,0,0:0:0:0:
320,192,119082,1,0,0:0:0:0:
64,192,119346,1,0,0:0:0:0:
320,192,119434,1,0,0:0:0:0:
192,192,119522,1,0,0:0:0:0:
64,192,119611,1,0,0:0:0:0:
448,192,119699,1,0,0:0:0:0:
320,192,119787,1,0,0:0:0:0:
192,192,119787,1,0,0:0:0:0:
448,192,119875,1,0,0:0:0:0:
320,192,119963,1,0,0:0:0:0:
64,192,120052,1,0,0:0:0:0:
192,192,120140,1,0,0:0:0:0:
448,192,120228,1,0,0:0:0:0:
320,192,120404,1,0,0:0:0:0:
64,192,120492,1,0,0:0:0:0:
448,192,120581,1,0,0:0:0:0:
64,192,120669,1,0,0:0:0:0:
320,192,120757,1,0,0:0:0:0:
64,192,120845,1,0,0:0:0:0:
448,192,120933,1,0,0:0:0:0:
320,192,121022,1,0,0:0:0:0:
448,192,121110,1,0,0:0:0:0:
192,192,121198,1,0,0:0:0:0:
320,192,121286,1,0,0:0:0:0:
192,192,121374,1,0,0:0:0:0:
64,192,121462,1,0,0:0:0:0:
192,192,121551,1,0,0:0:0:0:
320,192,121639,1,0,0:0:0:0:
64,192,121727,1,0,0:0:0:0:
448,192,121815,1,0,0:0:0:0:
320,192,122080,1,0,0:0:0:0:
192,192,122168,1,0,0:0:0:0:
448,192,122256,1,0,0:0:0:0:
64,192,122344,1,0,0:0:0:0:
192,192,122432,1,0,0:0:0:0:
320,192,122521,1,0,0:0:0:0:
64,192,122609,1,0,0:0:0:0:
448,192,122697,1,0,0:0:0:0:
320,192,122785,1,0,0:0:0:0:
64,192,122873,1,0,0:0:0:0:
448,192,122962,1,0,0:0:0:0:
320,192,123050,1,0,0:0:0:0:
448,192,123138,1,0,0:0:0:0:
320,192,123226,1,0,0:0:0:0:
448,192,123314,1,0,0:0:0:0:
64,192,123403,1,0,0:0:0:0:
320,192,123491,1,0,0:0:0:0:
64,192,123579,1,0,0:0:0:0:
192,192,123755,1,0,0:0:0:0:
448,192,123843,1,0,0:0:0:0:
192,192,123932,1,0,0:0:0:0:
448,192,124020,1,0,0:0:0:0:
192,192,124108,1,0,0:0:0:0:
448,192,124196,1,0,0:0:0:0:
64,192,124284,1,0,0:0:0:0:
320,192,124373,1,0,0:0:0:0:
64,192,124549,1,0,0:0:0:0:
320,192,124637,1,0,0:0:0:0:
64,192,124725,1,0,0:0:0:0:
192,192,124902,1,0,0:0:0:0:
448,192,124990,1,0,0:0:0:0:
64,192,125078,1,0,0:0:0:0:
192,192,125166,1,0,0:0:0:0:
64,192,125254,1,0,0:0:0:0:
320,192,125254,1,0,0:0:0:0:
192,192,125343,1,0,0:0:0:0:
64,192,125431,1,0,0:0:0:0:
320,192,125431,1,0,0:0:0:0:
192,192,125607,1,0,0:0:0:0:
320,192,125695,1,0,0:0:0:0:
64,192,125783,1,0,0:0:0:0:
448,192,125872,1,0,0:0:0:0:
64,192,125960,1,0,0:0:0:0:
192,192,126048,1,0,0:0:0:0:
448,192,126136,1,0,0:0:0:0:
64,192,126136,1,0,0:0:0:0:
192,192,126313,1,0,0:0:0:0:
320,192,126401,1,0,0:0:0:0:
192,192,126489,1,0,0:0:0:0:
448,192,126577,1,0,0:0:0:0:
320,192,126665,1,0,0:0:0:0:
64,192,126753,1,0,0:0:0:0:
192,192,126842,1,0,0:0:0:0:
448,192,126842,1,0,0:0:0:0:
320,192,127018,1,0,0:0:0:0:
192,192,127106,1,0,0:0:0:0:
448,192,127194,1,0,0:0:0:0:
192,192,127283,1,0,0:0:0:0:
448,192,127459,1,0,0:0:0:0:
64,192,127547,1,0,0:0:0:0:
64,192,127723,1,0,0:0:0:0:
320,192,127812,1,0,0:0:0:0:
448,192,127900,1,0,0:0:0:0:
192,192,127988,1,0,0:0:0:0:
320,192,128076,1,0,0:0:0:0:
192,192,128164,1,0,0:0:0:0:
448,192,128253,1,0,0:0:0:0:
192,192,128341,1,0,0:0:0:0:
320,192,128429,1,0,0:0:0:0:
192,192,128517,1,0,0:0:0:0:
64,192,128605,1,0,0:0:0:0:
448,192,128694,1,0,0:0:0:0:
64,192,128782,1,0,0:0:0:0:
320,192,128870,1,0,0:0:0:0:
64,192,128958,1,0,0:0:0:0:
192,192,129046,1,0,0:0:0:0:
64,192,129134,1,0,0:0:0:0:
320,192,129223,1,0,0:0:0:0:
192,192,129311,1,0,0:0:0:0:
448,192,129399,1,0,0:0:0:0:
64,192,129487,1,0,0:0:0:0:
448,192,129575,1,0,0:0:0:0:
320,192,129664,1,0,0:0:0:0:
192,192,129752,1,0,0:0:0:0:
448,192,129840,1,0,0:0:0:0:
320,192,129928,1,0,0:0:0:0:
64,192,130016,1,0,0:0:0:0:
64,192,130193,1,0,0:0:0:0:
320,192,130281,1,0,0:0:0:0:
192,192,130369,1,0,0:0:0:0:
448,192,130369,1,0,0:0:0:0:
320,192,130457,1,0,0:0:0:0:
192,192,130545,1,0,0:0:0:0:
64,192,130634,1,0,0:0:0:0:
448,192,130722,1,0,0:0:0:0:
320,192,130810,1,0,0:0:0:0:
192,192,130898,1,0,0:0:0:0:
320,192,130986,1,0,0:0:0:0:
64,192,131074,1,0,0:0:0:0:
448,192,131251,1,0,0:0:0:0:
64,192,131427,1,0,0:0:0:0:
192,192,131515,1,0,0:0:0:0:
320,192,131604,1,0,0:0:0:0:
64,192,131604,1,0,0:0:0:0:
448,192,131780,1,0,0:0:0:0:
64,192,131780,1,0,0:0:0:0:
448,192,131956,1,0,0:0:0:0:
192,192,132044,1,0,0:0:0:0:
448,192,132133,1,0,0:0:0:0:
320,192,132133,1,0,0:0:0:0:
64,192,132221,1,0,0:0:0:0:
448,192,132309,1,0,0:0:0:0:
192,192,132309,1,0,0:0:0:0:
64,192,132485,1,0,0:0:0:0:
192,192,132662,1,0,0:0:0:0:
64,192,132750,1,0,0:0:0:0:
320,192,132838,1,0,0:0:0:0:
64,192,132926,1,0,0:0:0:0:
320,192,133014,1,0,0:0:0:0:
64,192,133103,1,0,0:0:0:0:
192,192,133191,1,0,0:0:0:0:
448,192,133191,1,0,0:0:0:0:
320,192,133367,1,0,0:0:0:0:
448,192,133455,1,0,0:0:0:0:
192,192,133544,1,0,0:0:0:0:
448,192,133632,1,0,0:0:0:0:
64,192,133720,1,0,0:0:0:0:
192,192,133808,1,0,0:0:0:0:
64,192,133896,1,0,0:0:0:0:
192,192,134073,1,0,0:0:0:0:
320,192,134073,1,0,0:0:0:0:
64,192,134161,1,0,0:0:0:0:
320,192,134249,1,0,0:0:0:0:
448,192,134337,1,0,0:0:0:0:
320,192,134425,1,0,0:0:0:0:
64,192,134514,1,0,0:0:0:0:
448,192,134602,1,0,0:0:0:0:
320,192,134602,1,0,0:0:0:0:
192,192,134690,1,0,0:0:0:0:
448,192,134778,1,0,0:0:0:0:
320,192,134866,1,0,0:0:0:0:
192,192,134955,1,0,0:0:0:0:
448,192,135043,1,0,0:0:0:0:
192,192,135131,1,0,0:0:0:0:
320,192,135219,1,0,0:0:0:0:
448,192,135307,1,0,0:0:0:0:
192,192,135307,1,0,0:0:0:0:
64,192,135395,1,0,0:0:0:0:
192,192,135484,1,0,0:0:0:0:
64,192,135572,1,0,0:0:0:0:
320,192,135660,1,0,0:0:0:0:
448,192,135836,1,0,0:0:0:0:
320,192,135925,1,0,0:0:0:0:
64,192,136013,1,0,0:0:0:0:
192,192,136013,1,0,0:0:0:0:
320,192,136101,1,0,0:0:0:0:
192,192,136189,1,0,0:0:0:0:
64,192,136277,1,0,0:0:0:0:
192,192,136365,1,0,0:0:0:0:
64,192,136454,1,0,0:0:0:0:
448,192,136542,1,0,0:0:0:0:
64,192,136630,1,0,0:0:0:0:
448,192,136718,1,0,0:0:0:0:
320,192,136895,1,0,0:0:0:0:
64,192,136983,1,0,0:0:0:0:
192,192,136983,1,0,0:0:0:0:
320,192,137071,1,0,0:0:0:0:
64,192,137247,1,0,0:0:0:0:
192,192,137335,1,0,0:0:0:0:
320,192,137335,1,0,0:0:0:0:
448,192,137600,1,0,0:0:0:0:
64,192,137688,1,0,0:0:0:0:
192,192,137776,1,0,0:0:0:0:
320,192,137865,1,0,0:0:0:0:
192,192,137953,1,0,0:0:0:0:
448,192,137953,1,0,0:0:0:0:
320,192,138041,1,0,0:0:0:0:
64,192,138041,1,0,0:0:0:0:
320,192,138217,1,0,0:0:0:0:
192,192,138305,1,0,0:0:0:0:
448,192,138394,1,0,0:0:0:0:
320,192,138482,1,0,0:0:0:0:
64,192,138570,1,0,0:0:0:0:
192,192,138658,1,0,0:0:0:0:
448,192,138746,1,0,0:0:0:0:
320,192,138835,1,0,0:0:0:0:
320,192,139099,1,0,0:0:0:0:
448,192,139187,1,0,0:0:0:0:
192,192,139276,1,0,0:0:0:0:
64,192,139364,1,0,0:0:0:0:
448,192,139452,1,0,0:0:0:0:
192,192,139540,1,0,0:0:0:0:
448,192,139628,1,0,0:0:0:0:
192,192,139716,1,0,0:0:0:0:
64,192,139893,1,0,0:0:0:0:
192,192,140246,1,0,0:0:0:0:
64,192,140598,1,0,0:0:0:0:
448,192,140951,1,0,0:0:0:0:
320,192,141304,1,0,0:0:0:0:
192,192,141304,1,0,0:0:0:0:
320,192,141480,1,0,0:0:0:0:
64,192,141656,1,0,0:0:0:0:
64,192,141833,1,0,0:0:0:0:
320,192,141921,1,0,0:0:0:0:
448,192,142009,1,0,0:0:0:0:
64,192,142186,1,0,0:0:0:0:
64,192,142362,1,0,0:0:0:0:
192,192,142450,1,0,0:0:0:0:
64,192,142538,1,0,0:0:0:0:
192,192,142715,1,0,0:0:0:0:
448,192,142803,1,0,0:0:0:0:
64,192,142891,1,0,0:0:0:0:
320,192,143067,1,0,0:0:0:0:
192,192,143244,1,0,0:0:0:0:
64,192,143332,1,0,0:0:0:0:
448,192,143420,1,0,0:0:0:0:
64,192,143597,1,0,0:0:0:0:
64,192,143773,1,0,0:0:0:0:
192,192,143949,1,0,0:0:0:0:
320,192,144037,1,0,0:0:0:0:
192,192,144126,1,0,0:0:0:0:
448,192,144302,1,0,0:0:0:0:
192,192,144478,1,0,0:0:0:0:
192,192,144655,1,0,0:0:0:0:
320,192,144743,1,0,0:0:0:0:
64,192,144831,1,0,0:0:0:0:
192,192,144919,1,0,0:0:0:0:
448,192,145007,1,0,0:0:0:0:
448,192,145184,1,0,0:0:0:0:
320,192,145360,1,0,0:0:0:0:
448,192,145448,1,0,0:0:0:0:
448,192,145625,1,0,0:0:0:0:
320,192,145713,1,0,0:0:0:0:
64,192,145801,1,0,0:0:0:0:
448,192,145889,1,0,0:0:0:0:
192,192,146066,1,0,0:0:0:0:
320,192,146154,1,0,0:0:0:0:
192,192,146242,1,0,0:0:0:0:
64,192,146418,1,0,0:0:0:0:
448,192,146507,1,0,0:0:0:0:
64,192,146595,1,0,0:0:0:0:
448,192,146771,1,0,0:0:0:0:
64,192,146947,1,0,0:0:0:0:
320,192,147300,1,0,0:0:0:0:
192,192,147565,1,0,0:0:0:0:
448,192,147653,1,0,0:0:0:0:
64,192,147653,1,0,0:0:0:0:
320,192,147741,1,0,0:0:0:0:
64,192,147829,1,0,0:0:0:0:
320,192,147917,1,0,0:0:0:0:
192,192,148006,1,0,0:0:0:0:
320,192,148182,1,0,0:0:0:0:
192,192,148270,1,0,0:0:0:0:
64,192,148358,1,0,0:0:0:0:
320,192,148447,1,0,0:0:0:0:
64,192,148535,1,0,0:0:0:0:
320,192,148623,1,0,0:0:0:0:
192,192,148711,1,0,0:0:0:0:
448,192,149064,1,0,0:0:0:0:
320,192,149064,1,0,0:0:0:0:
64,192,149152,1,0,0:0:0:0:
448,192,149240,1,0,0:0:0:0:
64,192,149417,1,0,0:0:0:0:
320,192,149593,1,0,0:0:0:0:
64,192,149681,1,0,0:0:0:0:
192,192,149769,1,0,0:0:0:0:
448,192,149858,1,0,0:0:0:0:
64,192,149946,1,0,0:0:0:0:
64,192,150122,1,0,0:0:0:0:
320,192,150122,1,0,0:0:0:0:
320,192,150298,1,0,0:0:0:0:
448,192,150387,1,0,0:0:0:0:
192,192,150475,1,0,0:0:0:0:
448,192,150563,1,0,0:0:0:0:
192,192,150651,1,0,0:0:0:0:
64,192,150828,1,0,0:0:0:0:
192,192,150828,1,0,0:0:0:0:
320,192,151004,1,0,0:0:0:0:
64,192,151092,1,0,0:0:0:0:
320,192,151268,1,0,0:0:0:0:
192,192,151357,1,0,0:0:0:0:
64,192,151445,1,0,0:0:0:0:
320,192,151533,1,0,0:0:0:0:
448,192,151709,1,0,0:0:0:0:
64,192,151798,1,0,0:0:0:0:
192,192,151886,1,0,0:0:0:0:
64,192,151974,1,0,0:0:0:0:
448,192,152062,1,0,0:0:0:0:
320,192,152150,1,0,0:0:0:0:
448,192,152238,1,0,0:0:0:0:
320,192,152503,1,0,0:0:0:0:
64,192,152944,1,0,0:0:0:0:
64,192,153208,1,0,0:0:0:0:
192,192,153297,1,0,0:0:0:0:
320,192,153385,1,0,0:0:0:0:
448,192,153473,1,0,0:0:0:0:
448,192,153649,1,0,0:0:0:0:
192,192,154355,1,0,0:0:0:0:
192,192,154619,1,0,0:0:0:0:
64,192,154708,1,0,0:0:0:0:
320,192,154796,1,0,0:0:0:0:
448,192,154884,1,0,0:0:0:0:
320,192,155060,1,0,0:0:0:0:
64,192,155060,1,0,0:0:0:0:
448,192,155413,1,0,0:0:0:0:
448,192,155589,1,0,0:0:0:0:
448,192,155766,1,0,0:0:0:0:
448,192,155942,1,0,0:0:0:0:
320,192,156119,1,0,0:0:0:0:
448,192,156295,1,0,0:0:0:0:
192,192,156471,1,0,0:0:0:0:
64,192,156648,1,0,0:0:0:0:
448,192,156736,1,0,0:0:0:0:
320,192,156824,1,0,0:0:0:0:
192,192,156912,1,0,0:0:0:0:
448,192,156912,1,0,0:0:0:0:
320,192,157089,1,0,0:0:0:0:
192,192,157177,1,0,0:0:0:0:
448,192,157353,1,0,0:0:0:0:
192,192,157529,1,0,0:0:0:0:
64,192,157618,1,0,0:0:0:0:
448,192,157706,1,0,0:0:0:0:
320,192,157706,1,0,0:0:0:0:
64,192,157794,1,0,0:0:0:0:
448,192,157882,1,0,0:0:0:0:
192,192,157882,1,0,0:0:0:0:
320,192,157970,1,0,0:0:0:0:
192,192,158059,1,0,0:0:0:0:
320,192,158147,1,0,0:0:0:0:
64,192,158147,1,0,0:0:0:0:
448,192,158235,1,0,0:0:0:0:
448,192,158588,1,0,0:0:0:0:
192,192,158852,1,0,0:0:0:0:
320,192,158940,1,0,0:0:0:0:
192,192,159029,1,0,0:0:0:0:
320,192,159117,1,0,0:0:0:0:
192,192,159293,1,0,0:0:0:0:
320,192,159999,1,0,0:0:0:0:
192,192,159999,1,0,0:0:0:0:
192,192,160175,1,0,0:0:0:0:
64,192,160263,1,0,0:0:0:0:
192,192,160351,1,0,0:0:0:0:
320,192,160440,1,0,0:0:0:0:
64,192,160528,1,0,0:0:0:0:
320,192,160704,1,0,0:0:0:0:
448,192,160880,1,0,0:0:0:0:
64,192,160969,1,0,0:0:0:0:
320,192,162115,1,0,0:0:0:0:
64,192,162380,1,0,0:0:0:0:
192,192,162556,1,0,0:0:0:0:
320,192,162732,1,0,0:0:0:0:
64,192,162820,1,0,0:0:0:0:
320,192,162909,1,0,0:0:0:0:
64,192,162997,1,0,0:0:0:0:
192,192,163173,1,0,0:0:0:0:
64,192,163350,1,0,0:0:0:0:
64,192,163526,1,0,0:0:0:0:
448,192,163614,1,0,0:0:0:0:
192,192,163702,1,0,0:0:0:0:
64,192,163879,1,0,0:0:0:0:
192,192,164231,1,0,0:0:0:0:
448,192,164496,1,0,0:0:0:0:
320,192,164584,1,0,0:0:0:0:
64,192,164672,1,0,0:0:0:0:
192,192,164761,1,0,0:0:0:0:
192,192,164937,1,0,0:0:0:0:
64,192,164937,1,0,0:0:0:0:
448,192,165025,1,0,0:0:0:0:
192,192,165290,1,0,0:0:0:0:
448,192,165466,1,0,0:0:0:0:
320,192,165466,1,0,0:0:0:0:
192,192,165642,1,0,0:0:0:0:
448,192,165731,1,0,0:0:0:0:
320,192,165819,1,0,0:0:0:0:
64,192,165907,1,0,0:0:0:0:
320,192,165995,1,0,0:0:0:0:
448,192,166083,1,0,0:0:0:0:
64,192,166171,1,0,0:0:0:0:
448,192,166348,1,0,0:0:0:0:
192,192,166612,1,0,0:0:0:0:
192,192,166877,1,0,0:0:0:0:
192,192,167053,1,0,0:0:0:0:
192,192,167494,1,0,0:0:0:0:
320,192,167494,1,0,0:0:0:0:
320,192,167759,1,0,0:0:0:0:
448,192,167759,1,0,0:0:0:0:
320,192,168023,1,0,0:0:0:0:
448,192,168111,1,0,0:0:0:0:
320,192,168200,1,0,0:0:0:0:
192,192,168288,1,0,0:0:0:0:
64,192,168376,1,0,0:0:0:0:
448,192,168464,1,0,0:0:0:0:
192,192,168552,1,0,0:0:0:0:
320,192,168641,1,0,0:0:0:0:
64,192,168729,1,0,0:0:0:0:
192,192,168729,1,0,0:0:0:0:
320,192,168817,1,0,0:0:0:0:
448,192,168817,1,0,0:0:0:0:
192,192,168905,1,0,0:0:0:0:
64,192,168993,1,0,0:0:0:0:
320,192,169082,1,0,0:0:0:0:
192,192,169170,1,0,0:0:0:0:
320,192,169258,1,0,0:0:0:0:
64,192,169346,1,0,0:0:0:0:
192,192,169434,1,0,0:0:0:0:
448,192,169522,1,0,0:0:0:0:
320,192,169522,1,0,0:0:0:0:
192,192,169875,1,0,0:0:0:0:
192,192,170140,1,0,0:0:0:0:
64,192,170316,1,0,0:0:0:0:
320,192,170404,1,0,0:0:0:0:
320,192,170581,1,0,0:0:0:0:
320,192,170933,1,0,0:0:0:0:
320,192,171110,1,0,0:0:0:0:
64,192,171286,1,0,0:0:0:0:
192,192,171462,1,0,0:0:0:0:
320,192,171551,1,0,0:0:0:0:
448,192,171639,1,0,0:0:0:0:
320,192,171727,1,0,0:0:0:0:
192,192,171815,1,0,0:0:0:0:
320,192,171992,1,0,0:0:0:0:
448,192,172256,1,0,0:0:0:0:
320,192,172521,1,0,0:0:0:0:
448,192,172521,1,0,0:0:0:0:
64,192,172697,1,0,0:0:0:0:
320,192,173138,1,0,0:0:0:0:
192,192,173138,1,0,0:0:0:0:
192,192,173403,1,0,0:0:0:0:
192,192,173667,1,0,0:0:0:0:
64,192,173755,1,0,0:0:0:0:
192,192,173843,1,0,0:0:0:0:
448,192,173932,1,0,0:0:0:0:
64,192,174020,1,0,0:0:0:0:
320,192,174108,1,0,0:0:0:0:
192,192,174373,1,0,0:0:0:0:
320,192,174461,1,0,0:0:0:0:
64,192,174549,1,0,0:0:0:0:
448,192,174637,1,0,0:0:0:0:
64,192,174725,1,0,0:0:0:0:
320,192,174813,1,0,0:0:0:0:
64,192,174902,1,0,0:0:0:0:
320,192,175078,1,0,0:0:0:0:
192,192,175166,1,0,0:0:0:0:
448,192,175519,1,0,0:0:0:0:
320,192,175783,1,0,0:0:0:0:
192,192,175960,1,0,0:0:0:0:
192,192,176224,1,0,0:0:0:0:
448,192,176224,1,0,0:0:0:0:
64,192,176313,1,0,0:0:0:0:
320,192,176577,1,0,0:0:0:0:
320,192,176930,1,0,0:0:0:0:
192,192,177018,1,0,0:0:0:0:
448,192,177106,1,0,0:0:0:0:
64,192,177194,1,0,0:0:0:0:
192,192,177283,1,0,0:0:0:0:
64,192,177371,1,0,0:0:0:0:
448,192,177371,1,0,0:0:0:0:
320,192,177459,1,0,0:0:0:0:
448,192,177635,1,0,0:0:0:0:
64,192,177900,1,0,0:0:0:0:
192,192,178164,1,0,0:0:0:0:
320,192,178341,1,0,0:0:0:0:
320,192,178517,1,0,0:0:0:0:
192,192,178782,1,0,0:0:0:0:
64,192,178782,1,0,0:0:0:0:
192,192,179046,1,0,0:0:0:0:
192,192,179311,1,0,0:0:0:0:
448,192,179399,1,0,0:0:0:0:
64,192,179487,1,0,0:0:0:0:
320,192,179575,1,0,0:0:0:0:
192,192,179664,1,0,0:0:0:0:
320,192,179752,1,0,0:0:0:0:
64,192,179840,1,0,0:0:0:0:
192,192,179928,1,0,0:0:0:0:
64,192,180016,1,0,0:0:0:0:
320,192,180104,1,0,0:0:0:0:
448,192,180193,1,0,0:0:0:0:
192,192,180281,1,0,0:0:0:0:
64,192,180281,1,0,0:0:0:0:
448,192,180369,1,0,0:0:0:0:
64,192,180457,1,0,0:0:0:0:
448,192,180545,1,0,0:0:0:0:
448,192,180722,1,0,0:0:0:0:
192,192,180810,1,0,0:0:0:0:
448,192,181163,1,0,0:0:0:0:
448,192,181427,1,0,0:0:0:0:
320,192,181604,1,0,0:0:0:0:
448,192,181692,1,0,0:0:0:0:
320,192,181868,1,0,0:0:0:0:
64,192,182221,1,0,0:0:0:0:
320,192,182397,1,0,0:0:0:0:
320,192,182574,1,0,0:0:0:0:
64,192,182750,1,0,0:0:0:0:
192,192,182838,1,0,0:0:0:0:
448,192,182926,1,0,0:0:0:0:
320,192,183014,1,0,0:0:0:0:
192,192,183103,1,0,0:0:0:0:
64,192,183279,1,0,0:0:0:0:
192,192,183544,1,0,0:0:0:0:
448,192,183808,1,0,0:0:0:0:
64,192,183985,1,0,0:0:0:0:
448,192,183985,1,0,0:0:0:0:
320,192,184073,1,0,0:0:0:0:
320,192,184337,1,0,0:0:0:0:
64,192,184425,1,0,0:0:0:0:
192,192,184690,1,0,0:0:0:0:
320,192,184955,1,0,0:0:0:0:
448,192,185043,1,0,0:0:0:0:
64,192,185131,1,0,0:0:0:0:
448,192,185307,1,0,0:0:0:0:
64,192,185307,1,0,0:0:0:0:
192,192,185395,1,0,0:0:0:0:
448,192,185660,1,0,0:0:0:0:
320,192,185748,1,0,0:0:0:0:
64,192,185836,1,0,0:0:0:0:
320,192,185925,1,0,0:0:0:0:
192,192,186013,1,0,0:0:0:0:
448,192,186101,1,0,0:0:0:0:
64,192,186189,1,0,0:0:0:0:
448,192,186365,1,0,0:0:0:0:
64,192,186718,1,0,0:0:0:0:
448,192,186806,1,0,0:0:0:0:
320,192,187071,1,0,0:0:0:0:
448,192,187247,1,0,0:0:0:0:
64,192,187247,1,0,0:0:0:0:
448,192,187512,1,0,0:0:0:0:
192,192,187512,1,0,0:0:0:0:
448,192,187865,1,0,0:0:0:0:
64,192,188129,1,0,0:0:0:0:
320,192,188217,1,0,0:0:0:0:
64,192,188305,1,0,0:0:0:0:
192,192,188305,1,0,0:0:0:0:
448,192,188394,1,0,0:0:0:0:
320,192,188482,1,0,0:0:0:0:
448,192,188570,1,0,0:0:0:0:
64,192,188658,1,0,0:0:0:0:
448,192,188746,1,0,0:0:0:0:
448,192,188923,1,0,0:0:0:0:
448,192,189187,1,0,0:0:0:0:
64,192,189187,1,0,0:0:0:0:
320,192,189452,1,0,0:0:0:0:
192,192,189628,1,0,0:0:0:0:
64,192,190069,1,0,0:0:0:0:
64,192,190334,1,0,0:0:0:0:
448,192,190598,1,0,0:0:0:0:
192,192,190686,1,0,0:0:0:0:
64,192,190775,1,0,0:0:0:0:
448,192,190863,1,0,0:0:0:0:
192,192,190951,1,0,0:0:0:0:
320,192,191039,1,0,0:0:0:0:
448,192,191304,1,0,0:0:0:0:
320,192,191392,1,0,0:0:0:0:
64,192,191480,1,0,0:0:0:0:
192,192,191480,1,0,0:0:0:0:
320,192,191568,1,0,0:0:0:0:
192,192,191656,1,0,0:0:0:0:
448,192,191745,1,0,0:0:0:0:
64,192,191833,1,0,0:0:0:0:
448,192,191921,1,0,0:0:0:0:
320,192,192009,1,0,0:0:0:0:
448,192,192097,1,0,0:0:0:0:
192,192,192450,1,0,0:0:0:0:
320,192,192715,1,0,0:0:0:0:
320,192,192891,1,0,0:0:0:0:
192,192,192891,1,0,0:0:0:0:
64,192,192979,1,0,0:0:0:0:
192,192,193156,1,0,0:0:0:0:
64,192,193156,1,0,0:0:0:0:
64,192,193508,1,0,0:0:0:0:
448,192,193685,1,0,0:0:0:0:
192,192,193861,1,0,0:0:0:0:
448,192,193949,1,0,0:0:0:0:
64,192,194037,1,0,0:0:0:0:
448,192,194126,1,0,0:0:0:0:
320,192,194214,1,0,0:0:0:0:
448,192,194302,1,0,0:0:0:0:
64,192,194390,1,0,0:0:0:0:
320,192,194478,1,0,0:0:0:0:
448,192,194567,1,0,0:0:0:0:
192,192,194831,1,0,0:0:0:0:
320,192,195096,1,0,0:0:0:0:
320,192,195272,1,0,0:0:0:0:
448,192,195272,1,0,0:0:0:0:
448,192,195713,1,0,0:0:0:0:
192,192,195801,1,0,0:0:0:0:
448,192,195977,1,0,0:0:0:0:
320,192,196242,1,0,0:0:0:0:
448,192,196330,1,0,0:0:0:0:
320,192,196418,1,0,0:0:0:0:
192,192,196507,1,0,0:0:0:0:
64,192,196595,1,0,0:0:0:0:
448,192,196683,1,0,0:0:0:0:
320,192,196947,1,0,0:0:0:0:
448,192,197036,1,0,0:0:0:0:
64,192,197124,1,0,0:0:0:0:
320,192,197212,1,0,0:0:0:0:
448,192,197212,1,0,0:0:0:0:
192,192,197300,1,0,0:0:0:0:
320,192,197388,1,0,0:0:0:0:
192,192,197477,1,0,0:0:0:0:
448,192,197565,1,0,0:0:0:0:
320,192,197653,1,0,0:0:0:0:
64,192,197741,1,0,0:0:0:0:
320,192,198094,1,0,0:0:0:0:
448,192,198358,1,0,0:0:0:0:
192,192,198447,1,0,0:0:0:0:
448,192,198535,1,0,0:0:0:0:
320,192,198799,1,0,0:0:0:0:
192,192,199152,1,0,0:0:0:0:
320,192,199505,1,0,0:0:0:0:
320,192,199681,1,0,0:0:0:0:
64,192,199769,1,0,0:0:0:0:
320,192,199858,1,0,0:0:0:0:
448,192,199946,1,0,0:0:0:0:
64,192,200034,1,0,0:0:0:0:
448,192,200210,1,0,0:0:0:0:
320,192,200475,1,0,0:0:0:0:
192,192,200828,1,0,0:0:0:0:
64,192,200828,1,0,0:0:0:0:
448,192,200916,1,0,0:0:0:0:
64,192,201004,1,0,0:0:0:0:
448,192,201268,1,0,0:0:0:0:
64,192,201621,1,0,0:0:0:0:
64,192,201886,1,0,0:0:0:0:
320,192,201974,1,0,0:0:0:0:
448,192,202062,1,0,0:0:0:0:
320,192,202150,1,0,0:0:0:0:
448,192,202238,1,0,0:0:0:0:
64,192,202327,1,0,0:0:0:0:
448,192,202415,1,0,0:0:0:0:
192,192,202591,1,0,0:0:0:0:
320,192,202679,1,0,0:0:0:0:
64,192,202768,1,0,0:0:0:0:
448,192,202856,1,0,0:0:0:0:
320,192,202856,1,0,0:0:0:0:
192,192,202944,1,0,0:0:0:0:
64,192,202944,1,0,0:0:0:0:
448,192,203032,1,0,0:0:0:0:
320,192,203120,1,0,0:0:0:0:
192,192,203385,1,0,0:0:0:0:
448,192,203738,1,0,0:0:0:0:
192,192,203738,1,0,0:0:0:0:
320,192,204002,1,0,0:0:0:0:
64,192,204002,1,0,0:0:0:0:
192,192,204090,1,0,0:0:0:0:
320,192,204179,1,0,0:0:0:0:
448,192,204443,1,0,0:0:0:0:
192,192,204443,1,0,0:0:0:0:
448,192,204796,1,0,0:0:0:0:
320,192,205149,1,0,0:0:0:0:
320,192,205325,1,0,0:0:0:0:
448,192,205413,1,0,0:0:0:0:
192,192,205501,1,0,0:0:0:0:
64,192,205589,1,0,0:0:0:0:
448,192,205678,1,0,0:0:0:0:
320,192,205678,1,0,0:0:0:0:
320,192,205854,1,0,0:0:0:0:
448,192,205942,1,0,0:0:0:0:
320,192,206207,1,0,0:0:0:0:
320,192,206471,1,0,0:0:0:0:
192,192,206559,1,0,0:0:0:0:
448,192,206648,1,0,0:0:0:0:
320,192,206912,1,0,0:0:0:0:
320,192,207177,1,0,0:0:0:0:
192,192,207265,1,0,0:0:0:0:
320,192,207618,1,0,0:0:0:0:
320,192,207970,1,0,0:0:0:0:
320,192,208323,1,0,0:0:0:0:
448,192,208676,1,0,0:0:0:0:
192,192,208676,1,0,0:0:0:0:
64,192,208764,1,0,0:0:0:0:
448,192,208852,1,0,0:0:0:0:
64,192,209029,1,0,0:0:0:0:
320,192,209205,1,0,0:0:0:0:
448,192,209293,1,0,0:0:0:0:
64,192,209381,1,0,0:0:0:0:
64,192,209558,1,0,0:0:0:0:
448,192,209646,1,0,0:0:0:0:
320,192,209734,1,0,0:0:0:0:
192,192,209734,1,0,0:0:0:0:
448,192,209822,1,0,0:0:0:0:
64,192,209822,1,0,0:0:0:0:
320,192,209999,1,0,0:0:0:0:
448,192,210087,1,0,0:0:0:0:
192,192,210351,1,0,0:0:0:0:
320,192,210440,1,0,0:0:0:0:
448,192,210704,1,0,0:0:0:0:
64,192,210704,1,0,0:0:0:0:
320,192,210969,1,0,0:0:0:0:
64,192,211057,1,0,0:0:0:0:
320,192,211145,1,0,0:0:0:0:
64,192,211233,1,0,0:0:0:0:
192,192,211233,1,0,0:0:0:0:
320,192,211321,1,0,0:0:0:0:
64,192,211586,1,0,0:0:0:0:
192,192,211674,1,0,0:0:0:0:
320,192,211762,1,0,0:0:0:0:
64,192,211850,1,0,0:0:0:0:
320,192,211939,1,0,0:0:0:0:
64,192,212027,1,0,0:0:0:0:
64,192,212203,1,0,0:0:0:0:
448,192,212203,1,0,0:0:0:0:
64,192,212468,1,0,0:0:0:0:
64,192,212644,1,0,0:0:0:0:
192,192,212644,1,0,0:0:0:0:
64,192,212820,1,0,0:0:0:0:
448,192,212909,1,0,0:0:0:0:
192,192,212909,1,0,0:0:0:0:
448,192,213085,1,0,0:0:0:0:
448,192,213350,1,0,0:0:0:0:
192,192,213438,1,0,0:0:0:0:
64,192,213526,1,0,0:0:0:0:
448,192,213614,1,0,0:0:0:0:
320,192,213702,1,0,0:0:0:0:
192,192,213791,1,0,0:0:0:0:
64,192,213879,1,0,0:0:0:0:
448,192,213967,1,0,0:0:0:0:
192,192,214055,1,0,0:0:0:0:
320,192,214231,1,0,0:0:0:0:
192,192,214320,1,0,0:0:0:0:
448,192,214320,1,0,0:0:0:0:
64,192,214408,1,0,0:0:0:0:
64,192,214584,1,0,0:0:0:0:
448,192,214672,1,0,0:0:0:0:
64,192,214849,1,0,0:0:0:0:
192,192,214937,1,0,0:0:0:0:
448,192,215025,1,0,0:0:0:0:
320,192,215290,1,0,0:0:0:0:
64,192,215378,1,0,0:0:0:0:
192,192,215466,1,0,0:0:0:0:
320,192,215466,1,0,0:0:0:0:
64,192,215554,1,0,0:0:0:0:
448,192,215642,1,0,0:0:0:0:
320,192,215731,1,0,0:0:0:0:
448,192,215907,1,0,0:0:0:0:
64,192,215995,1,0,0:0:0:0:
320,192,216083,1,0,0:0:0:0:
64,192,216171,1,0,0:0:0:0:
320,192,216348,1,0,0:0:0:0:
448,192,216436,1,0,0:0:0:0:
64,192,216436,1,0,0:0:0:0:
320,192,216524,1,0,0:0:0:0:
448,192,216612,1,0,0:0:0:0:
192,192,216701,1,0,0:0:0:0:
64,192,216789,1,0,0:0:0:0:
448,192,216877,1,0,0:0:0:0:
448,192,217053,1,0,0:0:0:0:
192,192,217141,1,0,0:0:0:0:
64,192,217318,1,0,0:0:0:0:
448,192,217406,1,0,0:0:0:0:
64,192,217494,1,0,0:0:0:0:
192,192,217582,1,0,0:0:0:0:
448,192,217671,1,0,0:0:0:0:
320,192,217759,1,0,0:0:0:0:
64,192,217847,1,0,0:0:0:0:
192,192,218023,1,0,0:0:0:0:
320,192,218111,1,0,0:0:0:0:
192,192,218288,1,0,0:0:0:0:
448,192,218376,1,0,0:0:0:0:
320,192,218464,1,0,0:0:0:0:
192,192,218464,1,0,0:0:0:0:
64,192,218552,1,0,0:0:0:0:
448,192,218552,1,0,0:0:0:0:
448,192,218729,1,0,0:0:0:0:
64,192,218817,1,0,0:0:0:0:
320,192,218905,1,0,0:0:0:0:
64,192,218993,1,0,0:0:0:0:
320,192,219082,1,0,0:0:0:0:
64,192,219170,1,0,0:0:0:0:
192,192,219258,1,0,0:0:0:0:
448,192,219346,1,0,0:0:0:0:
192,192,219434,1,0,0:0:0:0:
448,192,219522,1,0,0:0:0:0:
320,192,219699,1,0,0:0:0:0:
448,192,219875,1,0,0:0:0:0:
64,192,219875,1,0,0:0:0:0:
320,192,219963,1,0,0:0:0:0:
192,192,219963,1,0,0:0:0:0:
320,192,220140,1,0,0:0:0:0:
64,192,220228,1,0,0:0:0:0:
192,192,220316,1,0,0:0:0:0:
448,192,220492,1,0,0:0:0:0:
320,192,220581,1,0,0:0:0:0:
64,192,220669,1,0,0:0:0:0:
320,192,220933,1,0,0:0:0:0:
64,192,221022,1,0,0:0:0:0:
320,192,221110,1,0,0:0:0:0:
448,192,221198,1,0,0:0:0:0:
64,192,221286,1,0,0:0:0:0:
320,192,221374,1,0,0:0:0:0:
448,192,221551,1,0,0:0:0:0:
192,192,221639,1,0,0:0:0:0:
64,192,221727,1,0,0:0:0:0:
448,192,221815,1,0,0:0:0:0:
192,192,221903,1,0,0:0:0:0:
320,192,221992,1,0,0:0:0:0:
448,192,222080,1,0,0:0:0:0:
320,192,222256,1,0,0:0:0:0:
64,192,222344,1,0,0:0:0:0:
448,192,222521,1,0,0:0:0:0:
192,192,222697,1,0,0:0:0:0:
320,192,222785,1,0,0:0:0:0:
192,192,222961,1,0,0:0:0:0:
320,192,223049,1,0,0:0:0:0:
192,192,223137,1,0,0:0:0:0:
64,192,223226,1,0,0:0:0:0:
64,192,223403,1,0,0:0:0:0:
320,192,223491,1,0,0:0:0:0:
192,192,223579,1,0,0:0:0:0:
320,192,223667,1,0,0:0:0:0:
448,192,223667,1,0,0:0:0:0:
64,192,223755,1,0,0:0:0:0:
320,192,223843,1,0,0:0:0:0:
64,192,223932,1,0,0:0:0:0:
192,192,223932,1,0,0:0:0:0:
448,192,224020,1,0,0:0:0:0:
192,192,224108,1,0,0:0:0:0:
448,192,224196,1,0,0:0:0:0:
192,192,224284,1,0,0:0:0:0:
448,192,224549,1,0,0:0:0:0:
448,192,224725,1,0,0:0:0:0:
320,192,224813,1,0,0:0:0:0:
448,192,224902,1,0,0:0:0:0:
320,192,224990,1,0,0:0:0:0:
64,192,225078,1,0,0:0:0:0:
192,192,225166,1,0,0:0:0:0:
448,192,225254,1,0,0:0:0:0:
64,192,225431,1,0,0:0:0:0:
448,192,225519,1,0,0:0:0:0:
192,192,225607,1,0,0:0:0:0:
320,192,225695,1,0,0:0:0:0:
192,192,225783,1,0,0:0:0:0:
448,192,225872,1,0,0:0:0:0:
192,192,225960,1,0,0:0:0:0:
448,192,226136,1,0,0:0:0:0:
64,192,226224,1,0,0:0:0:0:
448,192,226313,1,0,0:0:0:0:
448,192,226577,1,0,0:0:0:0:
320,192,226577,1,0,0:0:0:0:
64,192,226665,1,0,0:0:0:0:
320,192,226753,1,0,0:0:0:0:
448,192,226753,1,0,0:0:0:0:
192,192,226842,1,0,0:0:0:0:
448,192,226930,1,0,0:0:0:0:
64,192,227018,1,0,0:0:0:0:
448,192,227283,1,0,0:0:0:0:
192,192,227371,1,0,0:0:0:0:
448,192,227547,1,0,0:0:0:0:
192,192,227635,1,0,0:0:0:0:
448,192,227723,1,0,0:0:0:0:
192,192,227812,1,0,0:0:0:0:
320,192,227900,1,0,0:0:0:0:
64,192,227988,1,0,0:0:0:0:
320,192,228076,1,0,0:0:0:0:
64,192,228164,1,0,0:0:0:0:
448,192,228164,1,0,0:0:0:0:
320,192,228341,1,0,0:0:0:0:
448,192,228341,1,0,0:0:0:0:
64,192,228429,1,0,0:0:0:0:
320,192,228605,1,0,0:0:0:0:
448,192,228694,1,0,0:0:0:0:
64,192,228782,1,0,0:0:0:0:
320,192,228870,1,0,0:0:0:0:
192,192,228958,1,0,0:0:0:0:
64,192,229046,1,0,0:0:0:0:
448,192,229134,1,0,0:0:0:0:
320,192,229134,1,0,0:0:0:0:
320,192,229311,1,0,0:0:0:0:
64,192,229399,1,0,0:0:0:0:
192,192,229575,1,0,0:0:0:0:
448,192,229664,1,0,0:0:0:0:
192,192,229752,1,0,0:0:0:0:
320,192,229752,1,0,0:0:0:0:
448,192,229840,1,0,0:0:0:0:
192,192,230016,1,0,0:0:0:0:
448,192,230104,1,0,0:0:0:0:
64,192,230193,1,0,0:0:0:0:
192,192,230281,1,0,0:0:0:0:
64,192,230369,1,0,0:0:0:0:
448,192,230457,1,0,0:0:0:0:
64,192,230545,1,0,0:0:0:0:
192,192,230545,1,0,0:0:0:0:
320,192,230634,1,0,0:0:0:0:
64,192,230722,1,0,0:0:0:0:
448,192,230810,1,0,0:0:0:0:
64,192,230898,1,0,0:0:0:0:
448,192,230986,1,0,0:0:0:0:
64,192,231074,1,0,0:0:0:0:
448,192,231163,1,0,0:0:0:0:
320,192,231163,1,0,0:0:0:0:
64,192,231251,1,0,0:0:0:0:
448,192,231427,1,0,0:0:0:0:
64,192,231515,1,0,0:0:0:0:
448,192,231604,1,0,0:0:0:0:
64,192,231780,1,0,0:0:0:0:
192,192,231868,1,0,0:0:0:0:
320,192,231956,1,0,0:0:0:0:
64,192,232133,1,0,0:0:0:0:
192,192,232221,1,0,0:0:0:0:
64,192,232309,1,0,0:0:0:0:
448,192,232397,1,0,0:0:0:0:
192,192,232397,1,0,0:0:0:0:
64,192,232485,1,0,0:0:0:0:
320,192,232485,1,0,0:0:0:0:
192,192,232574,1,0,0:0:0:0:
320,192,232662,1,0,0:0:0:0:
448,192,232750,1,0,0:0:0:0:
320,192,232838,1,0,0:0:0:0:
64,192,232926,1,0,0:0:0:0:
448,192,232926,1,0,0:0:0:0:
320,192,233014,1,0,0:0:0:0:
64,192,233191,1,0,0:0:0:0:
320,192,233279,1,0,0:0:0:0:
192,192,233367,1,0,0:0:0:0:
64,192,233367,1,0,0:0:0:0:
448,192,233544,1,0,0:0:0:0:
192,192,233632,1,0,0:0:0:0:
448,192,233720,1,0,0:0:0:0:
192,192,233808,1,0,0:0:0:0:
64,192,233896,1,0,0:0:0:0:
64,192,234073,1,0,0:0:0:0:
64,192,234249,1,0,0:0:0:0:
448,192,234337,1,0,0:0:0:0:
64,192,234425,1,0,0:0:0:0:
448,192,234514,1,0,0:0:0:0:
192,192,234602,1,0,0:0:0:0:
320,192,234690,1,0,0:0:0:0:
192,192,234778,1,0,0:0:0:0:
64,192,234778,1,0,0:0:0:0:
320,192,234866,1,0,0:0:0:0:
64,192,234955,1,0,0:0:0:0:
192,192,235043,1,0,0:0:0:0:
448,192,235131,1,0,0:0:0:0:
192,192,235219,1,0,0:0:0:0:
64,192,235307,1,0,0:0:0:0:
320,192,235395,1,0,0:0:0:0:
64,192,235484,1,0,0:0:0:0:
320,192,235572,1,0,0:0:0:0:
448,192,235660,1,0,0:0:0:0:
64,192,235836,1,0,0:0:0:0:
448,192,236013,1,0,0:0:0:0:
320,192,236101,1,0,0:0:0:0:
64,192,236189,1,0,0:0:0:0:
320,192,236277,1,0,0:0:0:0:
448,192,236365,1,0,0:0:0:0:
192,192,236454,1,0,0:0:0:0:
320,192,236454,1,0,0:0:0:0:
64,192,236542,1,0,0:0:0:0:
448,192,236542,1,0,0:0:0:0:
192,192,236630,1,0,0:0:0:0:
64,192,236718,1,0,0:0:0:0:
320,192,236806,1,0,0:0:0:0:
64,192,236895,1,0,0:0:0:0:
448,192,236895,1,0,0:0:0:0:
192,192,236983,1,0,0:0:0:0:
448,192,237071,1,0,0:0:0:0:
192,192,237159,1,0,0:0:0:0:
64,192,237247,1,0,0:0:0:0:
64,192,237424,1,0,0:0:0:0:
448,192,237512,1,0,0:0:0:0:
192,192,237512,1,0,0:0:0:0:
64,192,237600,1,0,0:0:0:0:
448,192,237688,1,0,0:0:0:0:
320,192,237776,1,0,0:0:0:0:
448,192,237865,1,0,0:0:0:0:
192,192,237865,1,0,0:0:0:0:
320,192,237953,1,0,0:0:0:0:
192,192,238041,1,0,0:0:0:0:
448,192,238041,1,0,0:0:0:0:
64,192,238129,1,0,0:0:0:0:
192,192,238217,1,0,0:0:0:0:
448,192,238305,1,0,0:0:0:0:
320,192,238482,1,0,0:0:0:0:
192,192,238570,1,0,0:0:0:0:
320,192,238658,1,0,0:0:0:0:
64,192,238746,1,0,0:0:0:0:
64,192,238923,1,0,0:0:0:0:
448,192,239011,1,0,0:0:0:0:
320,192,239011,1,0,0:0:0:0:
64,192,239099,1,0,0:0:0:0:
320,192,239187,1,0,0:0:0:0:
192,192,239276,1,0,0:0:0:0:
320,192,239364,1,0,0:0:0:0:
448,192,239452,1,0,0:0:0:0:
192,192,239540,1,0,0:0:0:0:
64,192,239628,1,0,0:0:0:0:
320,192,239716,1,0,0:0:0:0:
192,192,239893,1,0,0:0:0:0:
448,192,239981,1,0,0:0:0:0:
64,192,239981,1,0,0:0:0:0:
320,192,240069,1,0,0:0:0:0:
192,192,240069,1,0,0:0:0:0:
448,192,240157,1,0,0:0:0:0:
64,192,240246,1,0,0:0:0:0:
448,192,240422,1,0,0:0:0:0:
320,192,240598,1,0,0:0:0:0:
192,192,240686,1,0,0:0:0:0:
320,192,240775,1,0,0:0:0:0:
64,192,240863,1,0,0:0:0:0:
320,192,240951,1,0,0:0:0:0:
192,192,241039,1,0,0:0:0:0:
64,192,241127,1,0,0:0:0:0:
448,192,241127,1,0,0:0:0:0:
192,192,241216,1,0,0:0:0:0:
448,192,241304,1,0,0:0:0:0:
320,192,241480,1,0,0:0:0:0:
320,192,241656,1,0,0:0:0:0:
448,192,241745,1,0,0:0:0:0:
320,192,241833,1,0,0:0:0:0:
192,192,241921,1,0,0:0:0:0:
320,192,242009,1,0,0:0:0:0:
192,192,242097,1,0,0:0:0:0:
448,192,242186,1,0,0:0:0:0:
320,192,242186,1,0,0:0:0:0:
192,192,242274,1,0,0:0:0:0:
64,192,242362,1,0,0:0:0:0:
448,192,242450,1,0,0:0:0:0:
192,192,242538,1,0,0:0:0:0:
64,192,242538,1,0,0:0:0:0:
448,192,242626,1,0,0:0:0:0:
64,192,242715,1,0,0:0:0:0:
320,192,242803,1,0,0:0:0:0:
448,192,243243,1,0,0:0:0:0:
320,192,243596,1,0,0:0:0:0:
448,192,243949,1,0,0:0:0:0:
192,192,244301,1,0,0:0:0:0:
448,192,244654,1,0,0:0:0:0:
320,192,245007,1,0,0:0:0:0:
448,192,245360,1,0,0:0:0:0:
64,192,245712,1,0,0:0:0:0:
320,192,246065,1,0,0:0:0:0:
192,192,246418,1,0,0:0:0:0:
320,192,246771,1,0,0:0:0:0:
192,192,247123,1,0,0:0:0:0:
448,192,247476,1,0,0:0:0:0:
320,192,247829,1,0,0:0:0:0:
192,192,248182,1,0,0:0:0:0:
64,192,248534,1,0,0:0:0:0:
448,192,248887,1,0,0:0:0:0:
320,192,249240,1,0,0:0:0:0:
448,192,249592,1,0,0:0:0:0:
192,192,249945,1,0,0:0:0:0:
448,192,250298,1,0,0:0:0:0:
320,192,250651,1,0,0:0:0:0:
448,192,251003,1,0,0:0:0:0:
64,192,251356,1,0,0:0:0:0:
320,192,251709,1,0,0:0:0:0:
64,192,252062,1,0,0:0:0:0:
320,192,252414,1,0,0:0:0:0:
192,192,252767,1,0,0:0:0:0:
320,192,252944,1,0,0:0:0:0:
192,192,253120,1,0,0:0:0:0:
448,192,253297,1,0,0:0:0:0:
192,192,253473,1,0,0:0:0:0:
320,192,253561,1,0,0:0:0:0:
192,192,253649,1,0,0:0:0:0:
64,192,253738,1,0,0:0:0:0:
448,192,253826,1,0,0:0:0:0:
320,192,253826,1,0,0:0:0:0:
192,192,253914,1,0,0:0:0:0:
64,192,254002,1,0,0:0:0:0:
320,192,254090,1,0,0:0:0:0:
192,192,254179,1,0,0:0:0:0:
320,192,254443,1,0,0:0:0:0:
192,192,254531,1,0,0:0:0:0:
192,192,254708,1,0,0:0:0:0:
448,192,254796,1,0,0:0:0:0:
64,192,254884,1,0,0:0:0:0:
192,192,254972,1,0,0:0:0:0:
448,192,254972,1,0,0:0:0:0:
320,192,255060,1,0,0:0:0:0:
448,192,255149,1,0,0:0:0:0:
64,192,255237,1,0,0:0:0:0:
448,192,255325,1,0,0:0:0:0:
320,192,255413,1,0,0:0:0:0:
64,192,255501,1,0,0:0:0:0:
448,192,255589,1,0,0:0:0:0:
64,192,255678,1,0,0:0:0:0:
192,192,255766,1,0,0:0:0:0:
320,192,255854,1,0,0:0:0:0:
448,192,255942,1,0,0:0:0:0:
64,192,255942,1,0,0:0:0:0:
320,192,256030,1,0,0:0:0:0:
64,192,256119,1,0,0:0:0:0:
320,192,256207,1,0,0:0:0:0:
448,192,256383,1,0,0:0:0:0:
320,192,256471,1,0,0:0:0:0:
64,192,256559,1,0,0:0:0:0:
320,192,256648,1,0,0:0:0:0:
448,192,256824,1,0,0:0:0:0:
320,192,256912,1,0,0:0:0:0:
448,192,257000,1,0,0:0:0:0:
192,192,257089,1,0,0:0:0:0:
64,192,257177,1,0,0:0:0:0:
64,192,257353,1,0,0:0:0:0:
448,192,257353,1,0,0:0:0:0:
192,192,257441,1,0,0:0:0:0:
448,192,257618,1,0,0:0:0:0:
320,192,257794,1,0,0:0:0:0:
448,192,257882,1,0,0:0:0:0:
192,192,257882,1,0,0:0:0:0:
64,192,257970,1,0,0:0:0:0:
192,192,258059,1,0,0:0:0:0:
448,192,258147,1,0,0:0:0:0:
320,192,258235,1,0,0:0:0:0:
64,192,258411,1,0,0:0:0:0:
64,192,258588,1,0,0:0:0:0:
448,192,258588,1,0,0:0:0:0:
320,192,258676,1,0,0:0:0:0:
64,192,258764,1,0,0:0:0:0:
448,192,258852,1,0,0:0:0:0:
192,192,258940,1,0,0:0:0:0:
448,192,259029,1,0,0:0:0:0:
320,192,259117,1,0,0:0:0:0:
64,192,259117,1,0,0:0:0:0:
448,192,259205,1,0,0:0:0:0:
192,192,259293,1,0,0:0:0:0:
320,192,259381,1,0,0:0:0:0:
192,192,259470,1,0,0:0:0:0:
448,192,259558,1,0,0:0:0:0:
64,192,259646,1,0,0:0:0:0:
320,192,259734,1,0,0:0:0:0:
448,192,259822,1,0,0:0:0:0:
192,192,260174,1,0,0:0:0:0:
64,192,260527,1,0,0:0:0:0:
192,192,260880,1,0,0:0:0:0:
448,192,261233,1,0,0:0:0:0:
192,192,261585,1,0,0:0:0:0:
64,192,261938,1,0,0:0:0:0:
192,192,262291,1,0,0:0:0:0:
64,192,262644,1,0,0:0:0:0:
320,192,262996,1,0,0:0:0:0:
64,192,263349,1,0,0:0:0:0:
320,192,263702,1,0,0:0:0:0:
64,192,264055,1,0,0:0:0:0:
448,192,264408,1,0,0:0:0:0:
320,192,264760,1,0,0:0:0:0:
192,192,265113,1,0,0:0:0:0:
64,192,265465,1,0,0:0:0:0:
448,192,265818,1,0,0:0:0:0:
320,192,266171,1,0,0:0:0:0:
448,192,266524,1,0,0:0:0:0:
192,192,266876,1,0,0:0:0:0:
448,192,267229,1,0,0:0:0:0:
320,192,267582,1,0,0:0:0:0:
448,192,267935,1,0,0:0:0:0:
64,192,268287,1,0,0:0:0:0:
320,192,268640,1,0,0:0:0:0:
64,192,268993,1,0,0:0:0:0:
320,192,269346,1,0,0:0:0:0:
64,192,269698,1,0,0:0:0:0:
448,192,270051,1,0,0:0:0:0:
320,192,270404,1,0,0:0:0:0:
192,192,270756,1,0,0:0:0:0:
64,192,271109,1,0,0:0:0:0:
448,192,271462,1,0,0:0:0:0:
320,192,271815,1,0,0:0:0:0:
448,192,272167,1,0,0:0:0:0:
192,192,272520,1,0,0:0:0:0:
448,192,272873,1,0,0:0:0:0:
320,192,273226,1,0,0:0:0:0:
448,192,273578,1,0,0:0:0:0:
64,192,273931,1,0,0:0:0:0:
320,192,274284,1,0,0:0:0:0:
64,192,274637,1,0,0:0:0:0:
320,192,274989,1,0,0:0:0:0:
64,192,275342,1,0,0:0:0:0:
320,192,275695,1,0,0:0:0:0:
192,192,276048,1,0,0:0:0:0:
64,192,276400,1,0,0:0:0:0:
