osu file format v14

[General]
AudioFilename: video.mp3
AudioLeadIn: 0
PreviewTime: 154690
Countdown: 0
SampleSet: Normal
StackLeniency: 0.7
Mode: 1
LetterboxInBreaks: 0
WidescreenStoryboard: 0

[Editor]
DistanceSpacing: 1
BeatDivisor: 12
GridSize: 32
TimelineZoom: 4.299997

[Metadata]
Title:T69 Collapse
TitleUnicode:T69 Collapse
Artist:Aphex Twin
ArtistUnicode:Aphex Twin
Creator:Nifty
Version:Phenomlomenamental
Source:
Tags:richard d james experimental electronic instrumental analog idm weirdcore
BeatmapID:2054366
BeatmapSetID:981648

[Difficulty]
HPDrainRate:6
CircleSize:2
OverallDifficulty:7
ApproachRate:10
SliderMultiplier:1.4
SliderTickRate:1

[Events]
//Background and Video events
0,0,"audio.jpg",0,40
//Break Periods
2,194594,199408
//Storyboard Layer 0 (Background)
//Storyboard Layer 1 (Fail)
//Storyboard Layer 2 (Pass)
//Storyboard Layer 3 (Foreground)
//Storyboard Layer 4 (Overlay)
//Storyboard Sound Samples

[TimingPoints]
5,400.126668444563,4,1,0,50,1,0
5,-88.20736139448,4,1,0,50,0,0
36817,-88.495575221239,4,1,0,50,0,0
37017,-90.293453724605,4,1,0,50,0,0
37216,-92.1658986175115,4,1,0,50,0,0
37417,-94.1176470588235,4,1,0,50,0,0
37617,-96.1538461538461,4,1,0,50,0,0
37817,-98.2800982800983,4,1,0,50,0,0
37917,-99.3788819875776,4,1,0,50,0,0
38017,-100.502512562814,4,1,0,50,0,0
38117,-101.651842439644,4,1,0,50,0,0
38217,-102.827763496144,4,1,0,50,0,0
38317,-104.031209362809,4,1,0,50,0,0
38417,-105.263157894737,4,1,0,50,0,0
62425,-105.263157894737,4,1,0,50,0,0
62625,-103.225806451613,4,1,0,50,0,0
62825,-101.26582278481,4,1,0,50,0,0
62925,-100.313479623824,4,1,0,50,0,0
63025,-99.3788819875776,4,1,0,50,0,0
63125,-98.4615384615385,4,1,0,50,0,0
63325,-96.6767371601208,4,1,0,50,0,0
63425,-95.8083832335329,4,1,0,50,0,0
63525,-94.9554896142433,4,1,0,50,0,0
63625,-94.1176470588235,4,1,0,50,0,0
63725,-93.2944606413994,4,1,0,50,0,0
63825,-92.485549132948,4,1,0,50,0,0
63925,-91.743119266055,4,1,0,50,0,0
64025,-90.9090909090909,4,1,0,50,0,0
68927,-90.9090909090909,4,1,0,50,0,0
69027,-90.3614185658378,4,1,0,50,0,0
69127,-89.8203861737683,4,1,0,50,0,0
69227,-89.2857142857143,4,1,0,50,0,0
69327,-88.7573701901272,4,1,0,50,0,0
69427,-88.2353200692118,4,1,0,50,0,0
69527,-87.719298245614,4,1,0,50,0,0
69627,-87.2092769740474,4,1,0,50,0,0
69727,-86.705227371453,4,1,0,50,0,0
69827,-86.2068965517241,4,1,0,50,0,0
69927,-85.7142612244968,4,1,0,50,0,0
70027,-85.227296939573,4,1,0,50,0,0
70127,-84.7457627118644,4,1,0,50,0,0
70227,-84.2696392501013,4,1,0,50,0,0
70327,-83.7989060890799,4,1,0,50,0,0
70427,-83.3333333333333,4,1,0,60,0,0
89733,-90.9090909090909,4,1,0,50,0,0
107629,-100,4,1,0,50,0,0
108029,-111.111111111111,4,1,0,50,0,0
108429,-125,4,1,0,50,0,0
108629,-90.9090909090909,4,1,0,50,0,0
114031,-100,4,1,0,50,0,0
114431,-111.111111111111,4,1,0,50,0,0
114831,-90.9090909090908,4,1,0,50,0,0
115533,402.684563758389,4,1,0,50,1,8
115533,-90.9090909090909,4,1,0,70,0,0
115630,-92.485549132948,4,1,0,70,0,0
115730,-94.1176470588235,4,1,0,70,0,0
115830,-95.8083832335329,4,1,0,70,0,0
115930,-97.5609756097561,4,1,0,70,0,0
116024,400.126668444563,4,1,0,50,1,8
116024,-99.3788819875776,4,1,0,70,0,0
116157,-101.910828025478,4,1,0,70,0,0
116290,-104.575163398693,4,1,0,70,0,0
116424,-107.38255033557,4,1,0,70,0,0
116557,-110.344827586207,4,1,0,70,0,0
116624,-111.888111888112,4,1,0,70,0,0
116841,393.736842105263,5,1,0,70,1,8
116842,393.736842105263,5,1,0,70,1,0
116842,-118.683640882323,4,1,0,70,0,0
117137,571.428571428571,5,1,0,70,1,8
117137,-87.5277087222481,4,1,0,70,0,0
117708,425.531914893617,5,1,0,70,1,8
117708,-108.695652173913,5,1,0,70,0,8
118360,437.956204379562,5,1,0,70,1,8
118360,-106.382978723404,5,1,0,70,0,8
118444,-107.52688172043,5,1,0,70,0,8
118553,-108.695652173913,5,1,0,70,0,8
118663,-109.89010989011,5,1,0,70,0,8
118810,387.096774193548,5,1,0,70,1,0
118810,-125,5,1,0,70,0,0
118920,-122.942405171449,5,1,0,70,0,0
119050,-120.951452505993,5,1,0,70,0,0
119181,-119.023955951614,5,1,0,70,0,0
119311,-117.156929363744,5,1,0,70,0,0
119441,-115.347438018054,5,1,0,70,0,0
119572,-113.593120800604,5,1,0,70,0,0
119702,-111.891366909695,5,1,0,70,0,0
119833,-110.239848839119,5,1,0,70,0,0
119963,-108.636374500001,5,1,0,70,0,0
120093,-107.078877513543,5,1,0,70,0,0
120224,-105.565408326999,5,1,0,70,0,0
120354,-104.09412607256,5,1,0,70,0,0
120485,-102.66318570025,5,1,0,70,0,0
120615,-101.271155544393,5,1,0,70,0,0
120745,376.221253690227,5,1,0,70,1,8
120755,376.221253690227,5,1,0,70,1,8
120755,-103.886406171823,5,1,0,70,0,0
120890,376.221253690227,5,1,0,70,1,0
120890,-102.514980974446,5,1,0,70,0,0
121015,-101.179292919808,5,1,0,70,0,0
121125,294.868371524078,5,1,0,70,1,8
121125,-127.63898120005,5,1,0,70,0,0
121223,-126.015607160146,5,1,0,70,0,0
121321,-124.433008228641,5,1,0,70,0,0
121419,268.479652242694,5,1,0,70,1,8
121419,-134.968425900079,5,1,0,70,0,0
121508,-133.314922606165,5,1,0,70,0,0
121597,-131.70144324046,5,1,0,70,0,0
121687,245.418222574871,5,1,0,70,1,8
121687,-142.354267988703,5,1,0,70,0,0
121768,-140.67210518437,5,1,0,70,0,0
121850,-139.029112165593,5,1,0,70,0,0
121932,-137.424173538407,5,1,0,70,0,0
122014,-135.855866551744,5,1,0,70,0,0
122096,-134.322951217855,5,1,0,70,0,0
122177,400.126668444563,4,1,0,70,1,0
122177,-81.4679253392138,5,1,0,70,0,0
122452,-90.9090909090909,4,1,0,70,0,0
122552,-92.4855491329482,4,1,0,70,0,0
122652,-94.1176470588236,4,1,0,70,0,0
122752,-95.8083832335328,4,1,0,70,0,0
122852,-97.560975609756,4,1,0,70,0,0
122977,-99.3788819875776,4,1,0,70,0,0
123085,-101.910828025478,4,1,0,70,0,0
123219,-104.575163398693,4,1,0,70,0,0
123377,416.666666666667,4,1,0,70,1,8
123377,-104.166666666667,4,1,0,70,0,0
123485,-106.382978723404,4,1,0,70,0,0
123552,-108.695652173913,4,1,0,70,0,0
123777,393.736957463284,5,1,0,70,1,0
123777,-118.683640882323,4,1,0,70,0,0
124072,571.428571428571,5,1,0,70,1,8
124072,-87.5277087222481,4,1,0,70,0,0
124643,437.956204379562,5,1,0,70,1,8
124643,-106.283941039565,5,1,0,70,0,8
125384,-107.52688172043,5,1,0,70,0,8
125493,-108.695652173913,5,1,0,70,0,8
125603,-109.89010989011,5,1,0,70,0,8
125745,391.169875579638,5,1,0,70,1,0
125745,-125,5,1,0,70,0,0
125850,-122.942405171449,5,1,0,70,0,0
125980,-120.951452505993,5,1,0,70,0,0
126111,-119.023955951614,5,1,0,70,0,0
126241,-117.156929363744,5,1,0,70,0,0
126371,-115.347438018054,5,1,0,70,0,0
126502,-113.593120800604,5,1,0,70,0,0
126632,-111.891366909695,5,1,0,70,0,0
126763,-110.239848839119,5,1,0,70,0,0
126893,-108.636374500001,5,1,0,70,0,0
127023,-107.078877513543,5,1,0,70,0,0
127154,-105.565408326999,5,1,0,70,0,0
127284,-104.09412607256,5,1,0,70,0,0
127415,-102.66318570025,5,1,0,70,0,0
127545,-101.271155544393,5,1,0,70,0,0
127700,376.221253690227,5,1,0,70,1,8
127700,-103.886406171823,5,1,0,70,0,0
127825,376.221253690227,5,1,0,70,1,0
127825,-102.514980974446,5,1,0,70,0,0
127925,-101.179292919808,5,1,0,70,0,0
128060,294.868371524078,5,1,0,70,1,8
128060,-127.63898120005,5,1,0,70,0,0
128133,-126.015607160146,5,1,0,70,0,0
128231,-124.433008228641,5,1,0,70,0,0
128354,268.479652242694,5,1,0,70,1,8
128354,-134.968425900079,5,1,0,70,0,0
128418,-133.314922606165,5,1,0,70,0,0
128507,-131.70144324046,5,1,0,70,0,0
128622,245.418222574871,5,1,0,70,1,8
128622,-142.354267988703,5,1,0,70,0,0
128678,-140.67210518437,5,1,0,70,0,0
128760,-139.029112165593,5,1,0,70,0,0
128842,-137.424173538407,5,1,0,70,0,0
128924,-135.855866551744,5,1,0,70,0,0
129006,-134.322951217855,5,1,0,70,0,0
129112,400.126668444563,4,1,0,70,1,0
129112,-81.4679253392138,5,1,0,70,0,0
129387,-90.9090909090909,4,1,0,70,0,0
129487,-92.485549132948,4,1,0,70,0,0
129587,-94.1176470588235,4,1,0,70,0,0
129687,-95.8083832335329,4,1,0,70,0,0
129787,-97.5609756097561,4,1,0,70,0,0
129887,-99.3788819875776,4,1,0,70,0,0
130020,-101.910828025478,4,1,0,70,0,0
130154,-104.575163398693,4,1,0,70,0,0
130312,416.666666666667,4,1,0,70,1,8
130312,-104.166666666667,4,1,0,70,0,0
130420,-106.382978723404,4,1,0,70,0,0
130487,-108.695652173913,4,1,0,70,0,0
130712,400.126668444563,4,1,0,70,1,8
130736,393.736842105263,5,1,0,70,1,0
130736,-118.683640882323,4,1,0,70,0,0
131031,571.428571428571,5,1,0,70,1,8
131031,-87.5277087222481,4,1,0,70,0,0
131578,437.956204379562,5,1,0,70,1,8
131578,-106.283941039565,5,1,0,70,0,8
132319,-107.52688172043,5,1,0,70,0,8
132428,-108.695652173913,5,1,0,70,0,8
132538,-109.89010989011,5,1,0,70,0,8
132680,391.169875579638,5,1,0,70,1,0
132680,-125,5,1,0,70,0,0
132785,-122.942405171449,5,1,0,70,0,0
132915,-120.951452505993,5,1,0,70,0,0
133046,-119.023955951614,5,1,0,70,0,0
133176,-117.156929363744,5,1,0,70,0,0
133306,-115.347438018054,5,1,0,70,0,0
133437,-113.593120800604,5,1,0,70,0,0
133567,-111.891366909695,5,1,0,70,0,0
133698,-110.239848839119,5,1,0,70,0,0
133828,-108.636374500001,5,1,0,70,0,0
133958,-107.078877513543,5,1,0,70,0,0
134089,-105.565408326999,5,1,0,70,0,0
134219,-104.09412607256,5,1,0,70,0,0
134350,-102.66318570025,5,1,0,70,0,0
134480,-101.271155544393,5,1,0,70,0,0
134635,376.221253690227,5,1,0,70,1,8
134635,-103.886406171823,5,1,0,70,0,0
134760,376.221253690227,5,1,0,70,1,0
134760,-102.514980974446,5,1,0,70,0,0
134860,-101.179292919808,5,1,0,70,0,0
134995,294.868371524078,5,1,0,70,1,8
134995,-127.63898120005,5,1,0,70,0,0
135068,-126.015607160146,5,1,0,70,0,0
135166,-124.433008228641,5,1,0,70,0,0
135289,268.479652242694,5,1,0,70,1,8
135289,-134.968425900079,5,1,0,70,0,0
135353,-133.314922606165,5,1,0,70,0,0
135442,-131.70144324046,5,1,0,70,0,0
135557,245.418222574871,5,1,0,70,1,8
135557,-142.354267988703,5,1,0,70,0,0
135613,-140.67210518437,5,1,0,70,0,0
135695,-139.029112165593,5,1,0,70,0,0
135777,-137.424173538407,5,1,0,70,0,0
135859,-135.855866551744,5,1,0,70,0,0
135941,-134.322951217855,5,1,0,70,0,0
136047,400.126668444563,4,1,0,70,1,0
136047,-81.4679253392138,5,1,0,70,0,0
136322,-90.9090909090909,4,1,0,70,0,0
136422,-92.485549132948,4,1,0,70,0,0
136522,-94.1176470588235,4,1,0,70,0,0
136622,-95.8083832335329,4,1,0,70,0,0
136722,-97.5609756097561,4,1,0,70,0,0
136822,-99.3788819875776,4,1,0,70,0,0
136955,-101.910828025478,4,1,0,70,0,0
137089,-104.575163398693,4,1,0,70,0,0
137222,-107.38255033557,4,1,0,70,0,0
137272,-108.695652173913,4,1,0,70,0,0
137355,-110.344827586207,4,1,0,70,0,0
137422,-111.888111888112,4,1,0,70,0,0
137647,393.736957463284,5,1,0,70,1,8
137671,393.736957463284,5,1,0,70,1,0
137671,-118.683640882323,4,1,0,70,0,0
137966,571.428571428571,5,1,0,70,1,8
137966,-87.5277087222481,4,1,0,70,0,0
138403,-81.9672131147541,4,1,0,70,0,0
138537,437.956204379562,5,1,0,70,1,8
138537,-106.283941039565,5,1,0,70,0,8
138622,437.956204379562,5,1,0,70,1,8
138622,-106.283941039565,5,1,0,70,0,8
139254,-107.52688172043,5,1,0,70,0,8
139363,-108.695652173913,5,1,0,70,0,8
139473,-109.89010989011,5,1,0,70,0,8
139615,391.169875579638,5,1,0,70,1,0
139615,-125,5,1,0,70,0,0
139720,-122.942405171449,5,1,0,70,0,0
139850,-120.951452505993,5,1,0,70,0,0
139981,-119.023955951614,5,1,0,70,0,0
140111,-117.156929363744,5,1,0,70,0,0
140241,-115.347438018054,5,1,0,70,0,0
140372,-113.593120800604,5,1,0,70,0,0
140502,-111.891366909695,5,1,0,70,0,0
140633,-110.239848839119,5,1,0,70,0,0
140763,-108.636374500001,5,1,0,70,0,0
140893,-107.078877513543,5,1,0,70,0,0
141024,-105.565408326999,5,1,0,70,0,0
141154,-104.09412607256,5,1,0,70,0,0
141285,-102.66318570025,5,1,0,70,0,0
141415,-101.271155544393,5,1,0,70,0,0
141570,376.221253690227,5,1,0,70,1,8
141570,-103.886406171823,5,1,0,70,0,0
141695,376.221253690227,5,1,0,70,1,0
141695,-102.514980974446,5,1,0,70,0,0
141795,-101.179292919808,5,1,0,70,0,0
141930,294.868371524078,5,1,0,70,1,8
141930,-127.63898120005,5,1,0,70,0,0
142003,-126.015607160146,5,1,0,70,0,0
142101,-124.433008228641,5,1,0,70,0,0
142224,268.479652242694,5,1,0,70,1,8
142224,-134.968425900079,5,1,0,70,0,0
142288,-133.314922606165,5,1,0,70,0,0
142377,-131.70144324046,5,1,0,70,0,0
142492,245.418222574871,5,1,0,70,1,8
142492,-142.354267988703,5,1,0,70,0,0
142548,-140.67210518437,5,1,0,70,0,0
142630,-139.029112165593,5,1,0,70,0,0
142712,-137.424173538407,5,1,0,70,0,0
142794,-135.855866551744,5,1,0,70,0,0
142876,-134.322951217855,5,1,0,70,0,0
142982,400.126668444563,4,1,0,70,1,0
142982,-81.4679253392138,5,1,0,70,0,0
143382,-90.9090909090909,5,1,0,70,0,0
143482,-91.8005577801891,5,1,0,70,0,0
143582,-92.7097674375484,5,1,0,70,0,0
143682,-93.637079534399,5,1,0,70,0,0
143882,-95.5485826323252,5,1,0,70,0,0
143982,-96.5339485763656,5,1,0,70,0,0
144082,-97.5397547655486,5,1,0,70,0,0
144182,-98.5668381729651,5,1,0,70,0,0
144382,-100.687190072243,5,1,0,70,0,0
144582,-102.900772784804,5,1,0,70,0,0
145182,-110.16673735699,5,1,0,70,0,0
145382,-112.822248547414,5,1,0,70,0,0
145482,-114.198531863674,5,1,0,70,0,0
145532,-114.899474449804,5,1,0,70,0,0
145582,-115.608941195512,5,1,0,70,0,0
145632,-116.327223827538,5,1,0,70,0,0
145682,-117.054487693476,5,1,0,70,0,0
145782,-118.536781963443,5,1,0,70,0,0
145882,-120.056955019461,5,1,0,70,0,0
145982,-121.616773385385,5,1,0,70,0,0
146082,-123.217504771598,5,1,0,70,0,0
146183,-124.861092035111,5,1,0,70,0,0
146283,-123.076923076923,5,1,0,70,0,0
146383,-121.212121212121,5,1,0,70,0,0
146483,-119.402985074627,5,1,0,70,0,0
146583,-117.647058823529,5,1,0,70,0,0
146683,-115.942028985507,5,1,0,70,0,0
146783,-114.285714285714,5,1,0,70,0,0
146883,-112.676056338028,5,1,0,70,0,0
146983,-111.111111111111,5,1,0,70,0,0
147083,-109.58904109589,5,1,0,70,0,0
147183,-108.108108108108,5,1,0,70,0,0
147283,-106.666666666667,5,1,0,70,0,0
147383,-105.263157894737,5,1,0,70,0,0
147483,-103.896103896104,5,1,0,70,0,0
147583,-102.564102564103,5,1,0,70,0,0
147683,-101.26582278481,5,1,0,70,0,0
147783,-100,5,1,0,70,0,0
147883,-98.7654320987654,5,1,0,70,0,0
147983,-97.5609756097561,5,1,0,70,0,0
148083,-96.3855421686747,5,1,0,70,0,0
148183,-95.2380952380952,5,1,0,70,0,0
148283,-94.1176470588235,5,1,0,70,0,0
148383,-93.0232558139535,5,1,0,70,0,0
148483,-91.9540229885058,5,1,0,70,0,0
148583,-90.9090909090909,5,1,0,70,0,0
148683,-89.8876404494382,5,1,0,70,0,0
148783,-88.8888888888889,5,1,0,70,0,0
148883,-87.9120879120879,5,1,0,70,0,0
148983,-86.9565217391304,5,1,0,70,0,0
149083,-86.0215053763441,5,1,0,70,0,0
149183,-85.1063829787234,5,1,0,70,0,0
149283,-84.2105263157895,5,1,0,70,0,0
149384,-83.3333333333333,5,1,0,70,0,0
149684,-90.9090909090909,5,1,0,70,0,0
149784,-91.7696398500484,5,1,0,70,0,0
149884,-92.6466364638632,5,1,0,70,0,0
149984,-93.5406443453745,5,1,0,70,0,0
150084,-94.4519848612359,5,1,0,70,0,0
150284,-96.3289982073174,5,1,0,70,0,0
150384,-97.2957616020331,5,1,0,70,0,0
150484,-98.2821267072834,5,1,0,70,0,0
150584,-99.2887943659566,5,1,0,70,0,0
150684,-100.316196651847,5,1,0,70,0,0
150784,-101.36508358058,5,1,0,70,0,0
150984,-103.530064613113,5,1,0,70,0,0
151584,-110.618123009565,5,1,0,70,0,0
151634,-111.252772975366,5,1,0,70,0,0
151684,-111.894872529361,5,1,0,70,0,0
151734,-112.544300250186,5,1,0,70,0,0
151784,-113.201438563881,5,1,0,70,0,0
151884,-114.538877931336,5,1,0,70,0,0
151934,-115.219585486019,5,1,0,70,0,0
151984,-115.908297990961,5,1,0,70,0,0
152034,-116.959064327485,5,1,0,70,0,0
152084,-117.310859700904,5,1,0,70,0,0
152184,-118.747921911367,5,1,0,70,0,0
152284,-120.220484368332,5,1,0,70,0,0
152384,-121.730027145796,5,1,0,70,0,0
152485,-123.277960982525,5,1,0,70,0,0
152585,407.094296608905,4,1,0,70,1,0
152585,-125,4,1,0,70,0,0
152686,-122.047220069445,4,1,0,70,0,0
152788,-119.230723372799,4,1,0,70,0,0
152890,-116.541287664687,4,1,0,70,0,0
152992,-113.970634326359,4,1,0,70,0,0
153093,-111.510815433989,4,1,0,70,0,0
153195,-109.154933420948,4,1,0,70,0,0
153297,-106.896536979788,4,1,0,70,0,0
153399,-104.729697886241,4,1,0,70,0,0
153500,-102.648959036906,4,1,0,70,0,0
153602,-100.649389863399,4,1,0,70,0,0
153704,-98.7261366586929,4,1,0,70,0,0
153806,-96.8750060546879,4,1,0,70,0,0
153908,-95.0920157890783,4,1,0,70,0,0
154009,-93.3734714762719,4,1,0,70,0,0
154111,-91.715941055999,4,1,0,70,0,0
154213,408.994296608905,4,1,0,70,1,8
154213,-89.6976739180914,4,1,0,70,0,0
154315,-88.1599863426421,4,1,0,70,0,0
154417,-86.67413136896,4,1,0,70,0,0
154519,-85.2375316640198,4,1,0,70,0,0
154631,601.797495624248,4,1,0,70,1,8
154631,-56.9847219444086,4,1,0,70,0,0
154755,601.797495624248,4,1,0,70,1,8
154755,-56.070521219279,4,1,0,70,0,0
154891,-55.1852352379101,4,1,0,70,0,0
155042,-54.3274263055473,4,1,0,70,0,0
155222,725.513905683192,4,1,0,70,1,8
155222,-44.3736290269115,4,1,0,70,0,0
155403,772.200772200772,4,1,0,70,1,8
155403,-41.0623118762346,4,1,0,70,0,0
155596,825.309491059147,4,1,0,70,1,8
155596,-37.8493514855538,4,1,0,70,0,0
155802,1096.89213893967,4,1,0,70,1,8
155802,-28.0613664046627,4,1,0,70,0,0
156076,1250,4,1,0,70,1,8
156076,-24.2690918179438,4,1,0,70,0,0
156388,1333.33333333333,4,1,0,70,1,8
156388,-22.4287787654856,4,1,0,70,0,0
156721,1764.70588235294,4,1,0,70,1,8
156721,-16.7086230043479,4,1,0,70,0,0
157162,2400,4,1,0,70,1,8
157162,-12.1159016847888,4,1,0,70,0,0
157762,377.358490566038,4,1,0,70,1,1
157762,-71.4285714285714,4,1,0,70,0,1
157856,-72.463768115942,4,1,0,70,0,1
157950,-73.5294117647059,4,1,0,70,0,1
158045,-74.6268656716418,4,1,0,70,0,1
158139,370.37037037037,4,1,0,70,1,9
158139,-77.1869639794168,4,1,0,70,0,1
158185,-78.125,4,1,0,70,0,1
158254,-79.3650793650794,4,1,0,70,0,1
158324,-80.6451612903226,4,1,0,70,0,1
158416,-81.9672131147541,4,1,0,70,0,1
158509,-83.3333333333333,4,1,0,70,0,1
158570,-84.2696392501013,4,1,0,70,0,1
158632,-85.227296939573,4,1,0,70,0,1
158694,363.636363636364,4,1,0,70,1,9
158694,-87.8033205619412,4,1,0,70,0,1
158784,-89.3437296946068,4,1,0,70,0,1
158875,-90.9391534391533,4,1,0,70,0,1
158966,-92.5925925925925,4,1,0,70,0,1
159057,387.096774193548,4,1,0,70,1,1
159057,-88.5916780978508,4,1,0,70,0,1
159347,-93.8029532800774,4,1,0,70,0,1
159444,-95.6790123456789,4,1,0,70,0,1
159637,-99.6656378600822,4,1,0,70,0,1
159734,-101.786183346467,4,1,0,70,0,1
159831,-103.998926462694,4,1,0,70,0,1
159927,-106.310013717421,4,1,0,70,0,1
160024,-108.726150392817,4,1,0,70,0,1
160121,-111.254665518231,4,1,0,70,0,1
160218,-113.903586125808,4,1,0,70,0,1
160315,-116.681722372779,4,1,0,70,0,1
160411,-119.598765432099,4,1,0,70,0,1
160508,-122.665400443178,4,1,0,70,0,1
160605,-125,4,1,0,70,0,1
160702,-122.144714614982,4,1,0,70,0,1
160798,-119.416816037201,4,1,0,70,0,1
160895,-116.808238251427,4,1,0,70,0,1
160992,-114.31118935077,4,1,0,70,0,1
161089,-111.918666466705,4,1,0,70,0,1
161186,-109.624120814551,4,1,0,70,0,1
161282,-107.421885490419,4,1,0,70,0,1
161379,-105.306388938617,4,1,0,70,0,1
161476,-103.272498946621,4,1,0,70,0,1
161573,-101.315788140582,4,1,0,70,0,1
161669,-99.4318464295018,4,1,0,70,0,1
161766,-97.6165932589885,4,1,0,70,0,1
161863,-95.866523122526,4,1,0,70,0,1
161960,-94.1780983181675,4,1,0,70,0,1
162057,-92.5481180802929,4,1,0,70,0,1
162153,-90.9735166995536,4,1,0,70,0,1
162250,-89.4516790974683,4,1,0,70,0,1
162347,-87.9799194631817,4,1,0,70,0,1
162444,-86.5557310713436,4,1,0,70,0,1
162540,-85.1769892659958,4,1,0,70,0,1
162637,-83.8414825857049,4,1,0,70,0,1
162734,-82.5471406083229,4,1,0,70,0,1
162831,-81.2922211473584,4,1,0,70,0,1
162927,-80.0748860334185,4,1,0,70,0,1
163024,-78.8934717230019,4,1,0,70,0,1
163121,-77.746350975017,4,1,0,70,0,1
163218,-76.6321694184002,4,1,0,70,0,1
163315,-75.5494713047998,4,1,0,70,0,1
163411,-74.4968852852262,4,1,0,70,0,1
163508,-73.4732803395053,4,1,0,70,0,1
163605,-72.4774232826475,4,1,0,70,0,1
163702,377.358490566038,4,1,0,70,1,1
163702,-71.4285714285714,4,1,0,70,0,1
163772,-72.463768115942,4,1,0,70,0,1
163866,-73.5294117647059,4,1,0,70,0,1
163961,-74.6268656716418,4,1,0,70,0,1
164079,370.37037037037,4,1,0,70,1,9
164079,-77.1869639794168,4,1,0,70,0,1
164101,-78.125,4,1,0,70,0,1
164170,-79.3650793650794,4,1,0,70,0,1
164240,-80.6451612903226,4,1,0,70,0,1
164332,-81.9672131147541,4,1,0,70,0,1
164425,-83.3333333333333,4,1,0,70,0,1
164486,-84.2696392501013,4,1,0,70,0,1
164548,-85.227296939573,4,1,0,70,0,1
164634,363.636363636364,4,1,0,70,1,9
164634,-87.8033205619412,4,1,0,70,0,1
164700,-89.3437296946068,4,1,0,70,0,1
164791,-90.9391534391533,4,1,0,70,0,1
164882,-92.5925925925925,4,1,0,70,0,1
164997,387.096774193548,4,1,0,70,1,1
164997,-88.5916780978508,4,1,0,70,0,1
165263,-93.8029532800774,4,1,0,70,0,1
165360,-95.6790123456789,4,1,0,70,0,1
165553,-99.6656378600822,4,1,0,70,0,1
165747,-103.998926462694,4,1,0,70,0,1
165843,-106.310013717421,4,1,0,70,0,1
165940,-108.726150392817,4,1,0,70,0,1
166061,-111.111111111111,4,1,0,70,0,1
166134,-113.903586125808,4,1,0,70,0,1
166231,-116.681722372779,4,1,0,70,0,1
166327,-119.598765432099,4,1,0,70,0,1
166424,-122.665400443178,4,1,0,70,0,1
166521,-125,4,1,0,70,0,1
166618,-122.144714614982,4,1,0,70,0,1
166714,-119.416816037201,4,1,0,70,0,1
166811,-116.808238251427,4,1,0,70,0,1
166908,-114.31118935077,4,1,0,70,0,1
167005,-111.918666466705,4,1,0,70,0,1
167102,-109.624120814551,4,1,0,70,0,1
167198,-107.421885490419,4,1,0,70,0,1
167295,-105.306388938617,4,1,0,70,0,1
167392,-103.272498946621,4,1,0,70,0,1
167489,-101.315788140582,4,1,0,70,0,1
167585,-99.4318464295018,4,1,0,70,0,1
167682,-97.6165932589885,4,1,0,70,0,1
167779,-95.866523122526,4,1,0,70,0,1
167876,-94.1780983181675,4,1,0,70,0,1
167973,-92.5481180802929,4,1,0,70,0,1
168069,-90.9735166995536,4,1,0,70,0,1
168166,-89.4516790974683,4,1,0,70,0,1
168263,-87.9799194631817,4,1,0,70,0,1
168360,-86.5557310713436,4,1,0,70,0,1
168456,-85.1769892659958,4,1,0,70,0,1
168553,-83.8414825857049,4,1,0,70,0,1
168650,-82.5471406083229,4,1,0,70,0,1
168747,-81.2922211473584,4,1,0,70,0,1
168843,-80.0748860334185,4,1,0,70,0,1
168940,-78.8934717230019,4,1,0,70,0,1
169037,-77.746350975017,4,1,0,70,0,1
169134,-76.6321694184002,4,1,0,70,0,1
169231,-75.5494713047998,4,1,0,70,0,1
169327,-74.4968852852262,4,1,0,70,0,1
169424,-73.4732803395053,4,1,0,70,0,1
169521,-72.4774232826475,4,1,0,70,0,1
169642,428.571428571429,3,1,0,70,1,0
169642,-64.5161290322581,3,1,0,70,0,0
170927,512.820512820513,3,1,0,70,1,0
170927,-68.8235294117647,3,1,0,70,0,0
172465,517.241379310345,3,1,0,70,1,0
172465,-93.8511326860842,3,1,0,70,0,0
174016,387.096774193548,4,1,0,70,1,0
174016,-167.567567567567,4,1,0,70,0,0
174306,-143.518518518518,4,1,0,70,0,0
174596,-125.506072874494,4,1,0,70,0,0
174886,-111.510791366906,4,1,0,70,0,0
175177,-100.323624595469,4,1,0,70,0,0
175564,413.793103448276,4,1,0,70,1,1
175564,-66.6666666666667,4,1,0,70,0,1
175667,-68.0851063829787,4,1,0,70,0,1
175770,-69.5652173913043,4,1,0,70,0,1
175874,-71.1111111111111,4,1,0,70,0,1
175926,-71.9101123595506,4,1,0,70,0,1
175977,-72.7272727272727,4,1,0,70,0,1
176029,-73.5632183908046,4,1,0,70,0,1
176081,-74.4186046511628,4,1,0,70,0,1
176150,-75.5905321346691,4,1,0,70,0,1
176219,-76.800019660805,4,1,0,70,0,1
176288,-78.0487804878049,4,1,0,70,0,1
176339,-79.0123456790123,4,1,0,70,0,1
176391,-80,4,1,0,70,0,1
176443,-81.2017864393017,4,1,0,70,0,1
176495,-82.0512820512821,4,1,0,70,0,1
176564,-83.4782376408382,4,1,0,70,0,1
176667,-85.7142612244968,4,1,0,70,0,1
176727,-86.9565217391304,4,1,0,70,0,1
176805,-88.8888888888889,4,1,0,70,0,1
177012,-94.1176470588235,4,1,0,70,0,1
177115,-96.969696969697,4,1,0,70,0,1
177219,387.096774193548,4,1,0,70,1,1
177219,-106.896551724138,4,1,0,70,0,1
177993,-100,4,1,0,70,0,1
178089,-98.7679683626444,4,1,0,70,0,1
178186,-97.5659252957223,4,1,0,70,0,1
178283,-96.3927890482369,4,1,0,70,0,1
178380,-95.2475292790905,4,1,0,70,0,1
178477,-94.1291640388942,4,1,0,70,0,1
178573,-93.0367569619405,4,1,0,70,0,1
178670,-91.9694146514635,4,1,0,70,0,1
178767,-90.9262842428386,4,1,0,70,0,1
178864,-89.9065511307547,4,1,0,70,0,1
178960,-88.909436847627,4,1,0,70,0,1
179057,-87.9341970816399,4,1,0,70,0,1
179251,-86.0465236343987,4,1,0,70,0,1
179348,-85.1327560197372,4,1,0,70,0,1
179444,-84.2381919114488,4,1,0,70,0,1
179541,-83.36223224051,4,1,0,70,0,1
179638,-82.5043025993806,4,1,0,70,0,1
179735,-81.6638519859016,4,1,0,70,0,1
179831,-80.8403516231934,4,1,0,70,0,1
179928,-80.0332938502417,4,1,0,70,0,1
180025,-79.2421910782802,4,1,0,70,0,1
180122,-78.4665748084631,4,1,0,70,0,1
180219,-77.7059947066676,4,1,0,70,0,1
180315,-76.9600177315881,4,1,0,70,0,1
180412,-76.2282273125739,4,1,0,70,0,1
180509,-75.5102225739321,4,1,0,70,0,1
180606,-74.8056176026595,4,1,0,70,0,1
180702,-74.1140407567933,4,1,0,70,0,1
180799,-73.4351340117761,4,1,0,70,0,1
180896,-72.7685523424197,4,1,0,70,0,1
180993,-72.1139631382266,4,1,0,70,0,1
181089,-71.4710456499863,4,1,0,70,0,1
181186,-70.839490465713,4,1,0,70,0,1
181283,-70.2189990141253,4,1,0,70,0,1
181380,-69.6092830939934,4,1,0,70,0,1
181477,-69.0100644277962,4,1,0,70,0,1
181573,-68.421074238234,4,1,0,70,0,1
181670,-67.8420528462455,4,1,0,70,0,1
181767,-67.2727492892634,4,1,0,70,0,1
181864,413.793103448276,4,1,0,70,1,1
181864,-62.5,4,1,0,70,0,1
181941,-63.6182902584493,4,1,0,70,0,1
182019,-64.7773279352227,4,1,0,70,0,1
182105,-66.1157024793389,4,1,0,70,0,1
182174,-67.2268907563025,4,1,0,70,0,1
182226,-68.0851063829787,4,1,0,70,0,1
182278,-68.9655172413793,4,1,0,70,0,1
182329,-70.1754385964912,4,1,0,70,0,1
182415,-71.9424460431655,4,1,0,70,0,1
182485,-72.7272727272727,4,1,0,70,0,1
182536,-73.7327188940092,4,1,0,70,0,1
182588,-74.7663551401869,4,1,0,70,0,1
182692,-76.9230769230769,4,1,0,70,0,1
182761,-78.4313725490196,4,1,0,70,0,1
182864,-80.8080808080808,4,1,0,70,0,1
183002,-84.2105263157895,4,1,0,70,0,1
183139,-87.9120879120879,4,1,0,70,0,1
183312,-93.0232558139535,4,1,0,70,0,1
183519,384.615384615385,4,1,0,70,1,1
183519,-107.586206896552,4,1,0,70,0,1
184384,-100,4,1,0,70,0,1
184480,-98.3827837998973,4,1,0,70,0,1
184672,-95.3002673172498,4,1,0,70,0,1
184769,-93.8303715776545,4,1,0,70,0,1
184865,-92.4050445761935,4,1,0,70,0,1
184961,-91.0224552397076,4,1,0,70,0,1
185057,382.165605095541,4,1,0,70,1,1
185057,-89.2857142857143,4,1,0,70,0,1
185120,-88.6590059374936,4,1,0,70,0,1
185184,-88.0411116775089,4,1,0,70,0,1
185248,-87.431693989071,4,1,0,70,0,1
185311,-86.8306550417786,4,1,0,70,0,1
185375,-86.2378975890471,4,1,0,70,0,1
185439,-85.6531049250535,4,1,0,70,0,1
185502,-85.0761899819383,4,1,0,70,0,1
185630,-83.9454354669465,4,1,0,70,0,1
185821,-82.3045267489712,4,1,0,70,0,1
185916,-81.5078960774325,4,1,0,70,0,1
186012,-80.7265388496468,4,1,0,70,0,1
186107,-79.960019990005,4,1,0,70,0,1
186299,-78.4698381559588,4,1,0,70,0,1
186394,-77.7453838678329,4,1,0,70,0,1
186490,-77.0341839191141,4,1,0,70,0,1
186585,-76.3358778625954,4,1,0,70,0,1
186681,-75.6501182033097,4,1,0,70,0,1
186872,-74.3149094287041,4,1,0,70,0,1
186967,-73.6648250460405,4,1,0,70,0,1
187063,-73.0260155180283,4,1,0,70,0,1
187158,-72.3981900452489,4,1,0,70,0,1
187254,-71.7810677433827,4,1,0,70,0,1
187349,-71.1743772241993,4,1,0,70,0,1
187445,-70.577856197618,4,1,0,70,0,1
187541,-69.9912510936133,4,1,0,70,0,1
187636,-69.41431670282,4,1,0,70,0,1
187732,-68.8468158347677,4,1,0,70,0,1
187827,-68.2885189927443,4,1,0,70,0,1
187923,-67.7392040643522,4,1,0,70,0,1
188018,-67.1986560268795,4,1,0,70,0,1
188114,413.793103448276,4,1,0,70,1,1
188114,-61.5711252653927,4,1,0,70,0,1
188424,-62.5,4,1,0,70,0,1
188527,-64.3442675692023,4,1,0,70,0,1
188631,-66.300686875116,4,1,0,70,0,1
188734,-68.3798088100546,4,1,0,70,0,1
188786,-69.4690480656344,4,1,0,70,0,1
188838,-70.593500738761,4,1,0,70,0,1
188889,-71.7550054497927,4,1,0,70,0,1
188941,-72.9553710108915,4,1,0,70,0,1
189045,-75.480755803904,4,1,0,70,0,1
189148,-78.1872443765779,4,1,0,70,0,1
189217,-80,4,1,0,70,0,1
189286,-81.9672131147541,4,1,0,70,0,1
189355,-84.2274782040343,4,1,0,70,0,1
189562,-91.2791032010669,4,1,0,70,0,1
189665,-95.2669475136279,4,1,0,70,0,1
189769,392.156862745098,4,1,0,70,1,1
189769,-104.166666666667,4,1,0,70,0,1
190357,359.281437125748,4,1,0,70,1,9
190357,-116.279069767442,4,1,0,70,0,1
190693,379.746835443038,4,1,0,70,1,9
190693,-95.2380952380952,4,1,0,70,0,1
190774,-94.3396226415094,4,1,0,70,0,1
190863,-93.4579439252336,4,1,0,70,0,1
190953,-92.5925925925926,4,1,0,70,0,1
191075,384.615384615385,4,1,0,70,1,9
191075,-91.9977876890977,4,1,0,70,0,1
191169,-90.7601633187248,4,1,0,70,0,1
191265,-89.5553958650171,4,1,0,70,0,1
191361,-88.3821940223597,4,1,0,70,0,1
191459,387.096774193548,5,1,0,70,1,1
191459,-86.6801067807201,4,1,0,70,0,1
191553,-85.5735641287322,4,1,0,70,0,1
191650,-84.4948402925954,4,1,0,70,0,1
191747,-83.443049279053,4,1,0,70,0,1
191942,-81.4161151381446,4,1,0,70,0,1
192039,-80.4391324817046,4,1,0,70,0,1
192136,-79.4853191230949,4,1,0,70,0,1
192233,-78.553860525421,4,1,0,70,0,1
192329,-77.6439149374343,4,1,0,70,0,1
192426,-76.7548725243439,4,1,0,70,0,1
192523,-75.8859591485122,4,1,0,70,0,1
192620,-75.0364988422763,4,1,0,70,0,1
192717,-74.2058455697934,4,1,0,70,0,1
192813,-73.3933815884557,4,1,0,70,0,1
192910,-72.5984591309596,4,1,0,70,0,1
193007,-71.8206273252854,4,1,0,70,0,1
193104,-71.0592864681231,4,1,0,70,0,1
193200,-70.3139176193067,4,1,0,70,0,1
193297,-69.5840233861217,4,1,0,70,0,1
193394,363.636363636364,4,1,0,70,1,1
193394,-73.3122962884552,4,1,0,70,0,1
193484,-72.56675554379,4,1,0,70,0,1
193575,-71.8361732966265,4,1,0,70,0,1
193666,-71.1202062217016,4,1,0,70,0,1
193757,-70.4183699181019,4,1,0,70,0,1
193848,-69.7302501332681,4,1,0,70,0,1
193939,-69.0554486500481,4,1,0,70,0,1
194030,-68.3935825182354,4,1,0,70,0,1
194121,-67.7442368807557,4,1,0,70,0,1
194212,-67.107150955901,4,1,0,70,0,1
194303,-66.4819360642172,4,1,0,70,0,1
194394,1395.3488372093,4,1,0,70,1,8
194394,-17,4,1,0,70,0,0
194742,-17,4,1,0,30,0,0
199858,387.196774193548,4,1,0,30,1,0
199858,-125.461458712051,4,1,0,35,0,0
208569,-117.647058823529,4,1,0,40,0,0
214765,-111.111111111111,4,1,0,40,0,0
220960,-105.263157894737,4,1,0,40,0,0
227155,-100,4,1,0,50,0,0
289784,-111.111111111111,4,1,0,40,0,0
302271,-125,4,1,0,40,0,0
308466,-142.857142857143,4,1,0,40,0,0

[HitObjects]
281,113,5,5,0,0:0:0:0:
293,114,205,1,0,0:0:0:0:
281,120,405,1,8,0:0:0:0:
281,120,605,1,0,0:0:0:0:
281,120,805,1,8,0:0:0:0:
287,119,1005,1,8,0:0:0:0:
312,93,1106,1,0,0:0:0:0:
312,93,1156,1,0,0:0:0:0:
311,96,1206,1,8,0:0:0:0:
298,103,1306,1,8,0:0:0:0:
297,103,1406,1,0,0:0:0:0:
286,108,1506,1,0,0:0:0:0:
298,103,1606,1,0,0:0:0:0:
314,109,1706,1,0,0:0:0:0:
292,93,1806,1,8,0:0:0:0:
300,100,2006,1,8,0:0:0:0:
300,100,2206,1,0,0:0:0:0:
313,112,2273,1,0,0:0:0:0:
301,114,2339,1,0,0:0:0:0:
308,94,2406,1,8,0:0:0:0:
309,98,2506,1,0,0:0:0:0:
308,94,2606,1,8,0:0:0:0:
309,98,2706,1,0,0:0:0:0:
308,94,2806,1,8,0:0:0:0:
309,98,2906,1,8,0:0:0:0:
308,94,3006,1,8,0:0:0:0:
309,98,3106,1,0,0:0:0:0:
308,94,3206,1,0,0:0:0:0:
308,94,3406,1,8,0:0:0:0:
308,94,3506,1,0,0:0:0:0:
300,107,3606,1,8,0:0:0:0:
300,107,3806,1,0,0:0:0:0:
301,99,4006,1,8,0:0:0:0:
299,108,4207,1,8,0:0:0:0:
300,92,4307,1,0,0:0:0:0:
299,93,4357,1,0,0:0:0:0:
298,93,4407,1,8,0:0:0:0:
300,92,4507,1,0,0:0:0:0:
298,93,4607,1,0,0:0:0:0:
298,92,4807,1,8,0:0:0:0:
298,92,4907,1,0,0:0:0:0:
298,92,5007,1,0,0:0:0:0:
298,92,5107,1,0,0:0:0:0:
298,92,5207,1,8,0:0:0:0:
289,91,5307,1,0,0:0:0:0:
289,91,5407,1,8,0:0:0:0:
304,100,5507,1,0,0:0:0:0:
301,86,5707,1,0,0:0:0:0:
288,83,5807,1,8,0:0:0:0:
289,83,5907,1,0,0:0:0:0:
288,83,6007,1,8,0:0:0:0:
303,85,6107,1,0,0:0:0:0:
304,87,6207,1,8,0:0:0:0:
286,87,6307,1,8,0:0:0:0:
288,73,6407,1,0,0:0:0:0:
287,83,6607,1,0,0:0:0:0:
287,83,6807,1,8,0:0:0:0:
287,83,6907,1,0,0:0:0:0:
292,88,7107,1,0,0:0:0:0:
292,88,7307,1,8,0:0:0:0:
292,88,7408,1,8,0:0:0:0:
299,80,7508,1,0,0:0:0:0:
298,80,7558,1,0,0:0:0:0:
299,79,7608,1,8,0:0:0:0:
291,66,7708,1,8,0:0:0:0:
291,66,7808,1,0,0:0:0:0:
291,66,8008,1,0,0:0:0:0:
291,66,8108,1,0,0:0:0:0:
290,65,8408,1,8,0:0:0:0:
290,65,8608,1,8,0:0:0:0:
290,65,8808,1,0,0:0:0:0:
290,65,9008,1,8,0:0:0:0:
290,65,9108,1,0,0:0:0:0:
290,65,9208,1,8,0:0:0:0:
290,65,9308,1,8,0:0:0:0:
290,65,9508,1,8,0:0:0:0:
290,65,9608,1,0,0:0:0:0:
289,67,10008,1,8,0:0:0:0:
289,67,10108,1,0,0:0:0:0:
289,67,10208,1,0,0:0:0:0:
289,67,10408,1,8,0:0:0:0:
289,67,10609,1,8,0:0:0:0:
289,67,10709,1,0,0:0:0:0:
289,67,10759,1,0,0:0:0:0:
289,67,10809,1,8,0:0:0:0:
289,67,10909,1,0,0:0:0:0:
289,67,11009,1,8,0:0:0:0:
288,64,11409,1,0,0:0:0:0:
288,64,11609,1,8,0:0:0:0:
288,64,11709,1,0,0:0:0:0:
288,65,12009,1,0,0:0:0:0:
288,65,12209,1,8,0:0:0:0:
288,65,12409,1,8,0:0:0:0:
288,65,12609,1,8,0:0:0:0:
288,65,12709,1,0,0:0:0:0:
288,65,12809,1,0,0:0:0:0:
288,65,13009,1,8,0:0:0:0:
288,65,13109,1,0,0:0:0:0:
288,65,13309,1,8,0:0:0:0:
281,61,13409,1,0,0:0:0:0:
288,65,13509,1,0,0:0:0:0:
281,61,13609,1,8,0:0:0:0:
323,73,13709,1,0,0:0:0:0:
292,61,13910,1,8,0:0:0:0:
292,61,14010,1,0,0:0:0:0:
292,61,14210,1,8,0:0:0:0:
292,61,14310,1,8,0:0:0:0:
292,61,14410,1,0,0:0:0:0:
292,61,14510,1,0,0:0:0:0:
289,60,14810,1,0,0:0:0:0:
289,60,14910,1,8,0:0:0:0:
289,60,15110,1,8,0:0:0:0:
289,60,15210,1,0,0:0:0:0:
289,60,15310,1,8,0:0:0:0:
289,60,15410,1,8,0:0:0:0:
289,60,15510,1,0,0:0:0:0:
289,60,15610,1,8,0:0:0:0:
289,60,15710,1,0,0:0:0:0:
289,60,15810,1,8,0:0:0:0:
289,60,16010,1,0,0:0:0:0:
289,60,16210,1,0,0:0:0:0:
289,60,16410,1,8,0:0:0:0:
289,60,16510,1,0,0:0:0:0:
289,60,16710,1,8,0:0:0:0:
289,60,16911,1,0,0:0:0:0:
289,60,17011,1,8,0:0:0:0:
289,60,17111,1,0,0:0:0:0:
289,60,17211,1,8,0:0:0:0:
289,60,17311,1,8,0:0:0:0:
289,60,17411,1,8,0:0:0:0:
293,53,17511,1,0,0:0:0:0:
289,60,17611,1,0,0:0:0:0:
289,60,17811,1,0,0:0:0:0:
289,60,17911,1,0,0:0:0:0:
296,68,18011,1,8,0:0:0:0:
289,60,18111,1,0,0:0:0:0:
292,52,18211,1,8,0:0:0:0:
289,60,18311,1,8,0:0:0:0:
289,51,18511,1,8,0:0:0:0:
289,51,18711,1,0,0:0:0:0:
289,51,18811,1,8,0:0:0:0:
289,51,18911,1,8,0:0:0:0:
289,51,19011,1,0,0:0:0:0:
289,51,19111,1,8,0:0:0:0:
281,50,19211,1,8,0:0:0:0:
289,51,19311,1,0,0:0:0:0:
294,58,19361,1,0,0:0:0:0:
294,58,19411,1,8,0:0:0:0:
306,61,19511,1,0,0:0:0:0:
306,61,19611,1,8,0:0:0:0:
312,53,19811,1,0,0:0:0:0:
312,53,19911,1,8,0:0:0:0:
312,53,20112,1,8,0:0:0:0:
312,53,20212,1,0,0:0:0:0:
312,53,20412,1,8,0:0:0:0:
312,53,20612,1,0,0:0:0:0:
312,53,20812,1,0,0:0:0:0:
304,59,20912,1,0,0:0:0:0:
310,61,21012,1,8,0:0:0:0:
299,61,21212,1,8,0:0:0:0:
308,56,21412,1,0,0:0:0:0:
308,56,21512,1,8,0:0:0:0:
308,56,21612,1,0,0:0:0:0:
308,56,21711,1,8,0:0:0:0:
308,56,21812,1,8,0:0:0:0:
308,56,21912,1,0,0:0:0:0:
308,56,22012,1,8,0:0:0:0:
308,56,22112,1,8,0:0:0:0:
308,56,22212,1,0,0:0:0:0:
308,56,22312,1,8,0:0:0:0:
308,56,22412,1,0,0:0:0:0:
316,54,22612,1,8,0:0:0:0:
316,54,22712,1,0,0:0:0:0:
316,54,22812,1,8,0:0:0:0:
316,54,22912,1,0,0:0:0:0:
316,54,23012,1,0,0:0:0:0:
316,54,23112,1,8,0:0:0:0:
316,54,23313,1,8,0:0:0:0:
290,48,23413,1,8,0:0:0:0:
291,47,23513,1,0,0:0:0:0:
290,48,23563,1,0,0:0:0:0:
307,49,23613,1,8,0:0:0:0:
307,56,23713,1,0,0:0:0:0:
307,56,23813,1,8,0:0:0:0:
295,54,24013,1,8,0:0:0:0:
295,54,24213,1,0,0:0:0:0:
295,54,24413,1,8,0:0:0:0:
295,54,24513,1,0,0:0:0:0:
295,54,24613,1,8,0:0:0:0:
295,54,24713,1,8,0:0:0:0:
295,54,24813,1,0,0:0:0:0:
295,54,24913,1,8,0:0:0:0:
295,54,25013,1,0,0:0:0:0:
295,54,25113,1,8,0:0:0:0:
295,54,25213,1,8,0:0:0:0:
295,54,25313,1,0,0:0:0:0:
295,54,25413,1,8,0:0:0:0:
295,54,25613,1,0,0:0:0:0:
301,60,25713,1,8,0:0:0:0:
301,60,25813,1,8,0:0:0:0:
301,60,25913,1,0,0:0:0:0:
301,60,26013,1,0,0:0:0:0:
301,60,26113,1,8,0:0:0:0:
301,60,26213,1,0,0:0:0:0:
301,60,26314,1,8,0:0:0:0:
307,57,26514,1,8,0:0:0:0:
307,57,26614,1,0,0:0:0:0:
307,57,26714,1,0,0:0:0:0:
307,57,26764,1,0,0:0:0:0:
307,57,26814,1,8,0:0:0:0:
299,51,27014,1,0,0:0:0:0:
299,51,27114,1,0,0:0:0:0:
299,51,27214,1,8,0:0:0:0:
299,51,27414,1,0,0:0:0:0:
299,51,27614,1,8,0:0:0:0:
299,51,27714,1,0,0:0:0:0:
299,51,27814,1,0,0:0:0:0:
299,51,27914,1,8,0:0:0:0:
299,51,28014,1,0,0:0:0:0:
299,51,28114,1,8,0:0:0:0:
302,57,28214,1,8,0:0:0:0:
302,57,28314,1,0,0:0:0:0:
302,57,28414,1,8,0:0:0:0:
302,57,28514,1,0,0:0:0:0:
302,57,28614,1,8,0:0:0:0:
302,57,28814,1,0,0:0:0:0:
302,57,28914,1,8,0:0:0:0:
302,57,29014,1,8,0:0:0:0:
302,57,29114,1,0,0:0:0:0:
302,57,29214,1,0,0:0:0:0:
302,57,29414,1,0,0:0:0:0:
302,57,29515,1,8,0:0:0:0:
302,57,29615,1,8,0:0:0:0:
302,57,29715,1,0,0:0:0:0:
302,57,29815,1,8,0:0:0:0:
309,65,29915,1,0,0:0:0:0:
308,65,29965,1,0,0:0:0:0:
306,64,30015,1,8,0:0:0:0:
287,59,30215,1,0,0:0:0:0:
287,59,30315,1,0,0:0:0:0:
287,59,30415,1,8,0:0:0:0:
295,62,30615,1,0,0:0:0:0:
295,62,30715,1,8,0:0:0:0:
295,62,30815,1,0,0:0:0:0:
295,62,30915,1,8,0:0:0:0:
295,62,31115,1,8,0:0:0:0:
295,62,31215,1,0,0:0:0:0:
295,62,31315,1,8,0:0:0:0:
295,62,31415,1,0,0:0:0:0:
295,62,31515,1,8,0:0:0:0:
295,62,31615,1,0,0:0:0:0:
295,62,31715,1,8,0:0:0:0:
295,62,31815,1,0,0:0:0:0:
295,62,31915,1,0,0:0:0:0:
295,62,32015,1,0,0:0:0:0:
295,62,32115,1,8,0:0:0:0:
295,62,32215,1,8,0:0:0:0:
295,62,32315,1,0,0:0:0:0:
295,62,32415,1,8,0:0:0:0:
295,62,32616,1,0,0:0:0:0:
295,62,32716,1,8,0:0:0:0:
295,62,32916,1,8,0:0:0:0:
295,62,33016,1,8,0:0:0:0:
286,50,33116,1,0,0:0:0:0:
287,52,33166,1,0,0:0:0:0:
287,52,33216,1,8,0:0:0:0:
296,59,33416,1,0,0:0:0:0:
296,59,33516,1,0,0:0:0:0:
296,59,33616,1,8,0:0:0:0:
296,59,33816,1,0,0:0:0:0:
296,59,34016,1,0,0:0:0:0:
296,59,34116,1,8,0:0:0:0:
296,59,34216,1,0,0:0:0:0:
296,59,34316,1,8,0:0:0:0:
281,52,34516,1,8,0:0:0:0:
290,52,34616,1,0,0:0:0:0:
290,52,34716,1,0,0:0:0:0:
290,52,34816,1,8,0:0:0:0:
290,52,34916,1,0,0:0:0:0:
290,52,35016,1,8,0:0:0:0:
290,52,35216,1,0,0:0:0:0:
290,52,35316,1,8,0:0:0:0:
290,52,35416,1,8,0:0:0:0:
290,52,35516,1,0,0:0:0:0:
290,52,35616,1,8,0:0:0:0:
290,52,35817,1,0,0:0:0:0:
290,52,35917,1,0,0:0:0:0:
290,52,36017,1,8,0:0:0:0:
290,52,36117,1,8,0:0:0:0:
290,52,36217,1,8,0:0:0:0:
291,62,36317,1,0,0:0:0:0:
291,62,36367,1,0,0:0:0:0:
291,62,36417,1,8,0:0:0:0:
297,54,36517,1,8,0:0:0:0:
297,54,36617,1,0,0:0:0:0:
297,54,36717,1,0,0:0:0:0:
297,54,36817,1,0,0:0:0:0:
297,54,37017,1,0,0:0:0:0:
297,54,37216,1,8,0:0:0:0:
297,54,37417,1,0,0:0:0:0:
297,54,37617,1,0,0:0:0:0:
297,54,37817,1,8,0:0:0:0:
297,54,37917,1,0,0:0:0:0:
297,54,38017,1,8,0:0:0:0:
297,54,38117,1,8,0:0:0:0:
297,54,38217,1,8,0:0:0:0:
297,54,38317,1,8,0:0:0:0:
297,54,38417,1,0,0:0:0:0:
290,53,38817,1,8,0:0:0:0:
298,50,39018,1,0,0:0:0:0:
293,47,39118,1,0,0:0:0:0:
293,47,39318,1,0,0:0:0:0:
291,55,39418,1,8,0:0:0:0:
301,49,39518,1,0,0:0:0:0:
301,49,39568,1,0,0:0:0:0:
301,49,39618,1,8,0:0:0:0:
301,49,39818,1,0,0:0:0:0:
301,49,39918,1,0,0:0:0:0:
301,49,40018,1,8,0:0:0:0:
301,49,40118,1,0,0:0:0:0:
301,49,40218,1,0,0:0:0:0:
301,49,40418,1,8,0:0:0:0:
301,49,40518,1,0,0:0:0:0:
293,47,40718,1,0,0:0:0:0:
293,47,40918,1,0,0:0:0:0:
293,47,41018,1,8,0:0:0:0:
293,47,41118,1,0,0:0:0:0:
293,47,41218,1,8,0:0:0:0:
293,47,41318,1,0,0:0:0:0:
293,47,41418,1,8,0:0:0:0:
293,47,41518,1,8,0:0:0:0:
293,47,41618,1,0,0:0:0:0:
294,48,42018,1,8,0:0:0:0:
294,48,42219,1,0,0:0:0:0:
294,48,42319,1,0,0:0:0:0:
294,48,42519,1,0,0:0:0:0:
294,48,42619,1,8,0:0:0:0:
294,48,42719,1,0,0:0:0:0:
294,48,42769,1,0,0:0:0:0:
294,48,42819,1,8,0:0:0:0:
300,52,43019,1,0,0:0:0:0:
300,52,43119,1,0,0:0:0:0:
300,52,43419,1,0,0:0:0:0:
283,50,43619,1,8,0:0:0:0:
303,59,43719,1,0,0:0:0:0:
303,59,43919,1,0,0:0:0:0:
303,59,44019,1,0,0:0:0:0:
303,59,44119,1,0,0:0:0:0:
303,59,44219,1,8,0:0:0:0:
303,59,44319,1,0,0:0:0:0:
303,59,44419,1,8,0:0:0:0:
303,59,44519,1,0,0:0:0:0:
303,59,44619,1,8,0:0:0:0:
303,59,44719,1,8,0:0:0:0:
303,59,44819,1,0,0:0:0:0:
302,57,45219,1,8,0:0:0:0:
302,57,45420,1,0,0:0:0:0:
302,57,45520,1,0,0:0:0:0:
302,57,45720,1,0,0:0:0:0:
302,57,45820,1,8,0:0:0:0:
302,57,45920,1,0,0:0:0:0:
302,57,45970,1,0,0:0:0:0:
302,57,46020,1,8,0:0:0:0:
302,57,46220,1,0,0:0:0:0:
343,55,46320,1,0,0:0:0:0:
320,60,46420,1,8,0:0:0:0:
320,61,46520,1,0,0:0:0:0:
320,60,46620,1,0,0:0:0:0:
320,60,46820,1,8,0:0:0:0:
320,60,46920,1,8,0:0:0:0:
320,60,47020,1,0,0:0:0:0:
320,60,47120,1,0,0:0:0:0:
320,60,47320,1,0,0:0:0:0:
320,60,47420,1,8,0:0:0:0:
320,60,47520,1,0,0:0:0:0:
320,60,47620,1,8,0:0:0:0:
323,66,47720,1,0,0:0:0:0:
323,66,47820,1,8,0:0:0:0:
323,66,47920,1,8,0:0:0:0:
323,66,48020,1,0,0:0:0:0:
323,67,48421,1,8,0:0:0:0:
323,67,48521,1,0,0:0:0:0:
323,67,48621,1,0,0:0:0:0:
323,67,48721,1,0,0:0:0:0:
323,67,48921,1,0,0:0:0:0:
323,67,49021,1,8,0:0:0:0:
323,67,49121,1,0,0:0:0:0:
323,67,49171,1,0,0:0:0:0:
323,67,49221,1,8,0:0:0:0:
312,59,49321,1,0,0:0:0:0:
312,59,49421,1,8,0:0:0:0:
312,59,49521,1,0,0:0:0:0:
312,59,49821,1,0,0:0:0:0:
312,59,50021,1,8,0:0:0:0:
312,59,50121,1,0,0:0:0:0:
312,59,50221,1,8,0:0:0:0:
312,59,50421,1,0,0:0:0:0:
312,59,50621,1,0,0:0:0:0:
312,59,50821,1,8,0:0:0:0:
312,59,50921,1,0,0:0:0:0:
312,59,51021,1,8,0:0:0:0:
312,59,51121,1,8,0:0:0:0:
312,59,51221,1,0,0:0:0:0:
312,54,51622,1,8,0:0:0:0:
312,54,51822,1,0,0:0:0:0:
312,54,51922,1,0,0:0:0:0:
312,54,52122,1,0,0:0:0:0:
312,54,52222,1,8,0:0:0:0:
312,54,52322,1,0,0:0:0:0:
312,54,52372,1,0,0:0:0:0:
312,54,52422,1,8,0:0:0:0:
312,54,52622,1,0,0:0:0:0:
312,54,52722,1,0,0:0:0:0:
312,54,52822,1,8,0:0:0:0:
312,54,52922,1,0,0:0:0:0:
312,54,53022,1,0,0:0:0:0:
312,54,53222,1,8,0:0:0:0:
312,54,53322,1,0,0:0:0:0:
306,46,53422,1,0,0:0:0:0:
306,46,53522,1,0,0:0:0:0:
306,46,53722,1,0,0:0:0:0:
306,46,53822,1,8,0:0:0:0:
306,46,53922,1,0,0:0:0:0:
306,46,54022,1,8,0:0:0:0:
306,46,54122,1,0,0:0:0:0:
306,46,54222,1,8,0:0:0:0:
306,46,54322,1,8,0:0:0:0:
306,46,54422,1,0,0:0:0:0:
306,45,54823,1,8,0:0:0:0:
306,45,55023,1,0,0:0:0:0:
306,45,55123,1,0,0:0:0:0:
306,45,55323,1,0,0:0:0:0:
306,45,55423,1,8,0:0:0:0:
306,45,55523,1,0,0:0:0:0:
306,45,55573,1,0,0:0:0:0:
305,47,55623,1,8,0:0:0:0:
306,45,55723,1,0,0:0:0:0:
306,45,55823,1,0,0:0:0:0:
301,51,55923,1,0,0:0:0:0:
300,52,56023,1,0,0:0:0:0:
300,52,56223,1,0,0:0:0:0:
300,52,56423,1,8,0:0:0:0:
300,52,56523,1,0,0:0:0:0:
300,52,56723,1,0,0:0:0:0:
300,52,56823,1,0,0:0:0:0:
300,52,56923,1,0,0:0:0:0:
300,52,57023,1,8,0:0:0:0:
300,52,57123,1,0,0:0:0:0:
300,52,57223,1,8,0:0:0:0:
301,54,57323,1,0,0:0:0:0:
300,52,57423,1,8,0:0:0:0:
301,54,57523,1,8,0:0:0:0:
300,52,57623,1,0,0:0:0:0:
303,51,58024,1,8,0:0:0:0:
303,51,58224,1,0,0:0:0:0:
303,51,58324,1,0,0:0:0:0:
303,51,58524,1,0,0:0:0:0:
303,51,58624,1,8,0:0:0:0:
303,51,58724,1,0,0:0:0:0:
303,51,58774,1,0,0:0:0:0:
303,51,58824,1,8,0:0:0:0:
303,51,59024,1,0,0:0:0:0:
303,51,59124,1,0,0:0:0:0:
303,51,59224,1,8,0:0:0:0:
303,51,59324,1,0,0:0:0:0:
303,51,59424,1,0,0:0:0:0:
303,51,59624,1,8,0:0:0:0:
303,51,59724,1,8,0:0:0:0:
303,51,59824,1,0,0:0:0:0:
303,51,59924,1,0,0:0:0:0:
303,51,60124,1,0,0:0:0:0:
303,51,60224,1,8,0:0:0:0:
303,51,60324,1,0,0:0:0:0:
303,51,60424,1,8,0:0:0:0:
303,51,60524,1,0,0:0:0:0:
303,51,60624,1,8,0:0:0:0:
303,51,60724,1,8,0:0:0:0:
303,51,60824,1,0,0:0:0:0:
302,51,61225,1,8,0:0:0:0:
302,51,61325,1,0,0:0:0:0:
302,51,61425,1,0,0:0:0:0:
302,51,61525,1,0,0:0:0:0:
302,51,61725,1,0,0:0:0:0:
302,51,61825,1,8,0:0:0:0:
302,51,61925,1,0,0:0:0:0:
302,51,61975,1,0,0:0:0:0:
302,51,62025,1,8,0:0:0:0:
302,51,62125,1,0,0:0:0:0:
302,51,62225,1,8,0:0:0:0:
302,51,62325,1,0,0:0:0:0:
302,51,62425,1,0,0:0:0:0:
302,51,62625,1,0,0:0:0:0:
302,51,62825,1,8,0:0:0:0:
302,51,62925,1,0,0:0:0:0:
302,51,63025,1,8,0:0:0:0:
302,51,63125,1,0,0:0:0:0:
302,51,63325,1,8,0:0:0:0:
302,51,63425,1,0,0:0:0:0:
302,51,63525,1,8,0:0:0:0:
302,51,63625,1,8,0:0:0:0:
302,51,63725,1,8,0:0:0:0:
302,51,63825,1,0,0:0:0:0:
313,82,63925,1,8,0:0:0:0:
302,51,64025,1,0,0:0:0:0:
302,51,64226,1,0,0:0:0:0:
302,51,64426,1,8,0:0:0:0:
302,51,64626,1,0,0:0:0:0:
302,51,64726,1,8,0:0:0:0:
302,51,64826,1,0,0:0:0:0:
302,51,65026,1,8,0:0:0:0:
302,51,65126,1,0,0:0:0:0:
302,51,65176,1,0,0:0:0:0:
302,51,65226,1,8,0:0:0:0:
311,60,65426,1,0,0:0:0:0:
294,60,65526,1,0,0:0:0:0:
298,52,65626,1,0,0:0:0:0:
298,51,65826,1,0,0:0:0:0:
298,51,66026,1,8,0:0:0:0:
298,51,66126,1,0,0:0:0:0:
298,51,66226,1,8,0:0:0:0:
298,51,66326,1,8,0:0:0:0:
298,51,66426,1,8,0:0:0:0:
298,51,66526,1,0,0:0:0:0:
298,51,66626,1,8,0:0:0:0:
303,54,66726,1,0,0:0:0:0:
298,51,66826,1,8,0:0:0:0:
306,64,67026,1,8,0:0:0:0:
306,64,67226,1,0,0:0:0:0:
302,54,67326,1,0,0:0:0:0:
306,64,67427,1,8,0:0:0:0:
306,64,67527,1,8,0:0:0:0:
306,64,67627,1,0,0:0:0:0:
306,64,67727,1,8,0:0:0:0:
306,64,67927,1,8,0:0:0:0:
306,64,68027,1,0,0:0:0:0:
322,77,68077,1,0,0:0:0:0:
322,77,68127,1,0,0:0:0:0:
306,64,68227,1,8,0:0:0:0:
305,69,68327,1,8,0:0:0:0:
306,64,68427,1,0,0:0:0:0:
305,69,68477,1,0,0:0:0:0:
305,69,68527,1,0,0:0:0:0:
305,69,68727,1,8,0:0:0:0:
305,69,68927,1,8,0:0:0:0:
305,69,69027,1,0,0:0:0:0:
305,69,69127,1,0,0:0:0:0:
305,69,69227,1,8,0:0:0:0:
305,69,69327,1,0,0:0:0:0:
305,69,69427,1,0,0:0:0:0:
305,69,69527,1,0,0:0:0:0:
305,69,69627,1,0,0:0:0:0:
305,69,69727,1,8,0:0:0:0:
305,69,69827,1,0,0:0:0:0:
305,69,69927,1,0,0:0:0:0:
305,69,70027,1,8,0:0:0:0:
305,69,70127,1,0,0:0:0:0:
305,69,70227,1,8,0:0:0:0:
305,69,70327,1,8,0:0:0:0:
305,69,70427,1,0,0:0:0:0:
305,69,70628,1,8,0:0:0:0:
305,69,70728,1,0,0:0:0:0:
305,69,70828,1,8,0:0:0:0:
305,69,70928,1,0,0:0:0:0:
305,69,71028,1,0,0:0:0:0:
305,69,71127,1,8,0:0:0:0:
305,69,71327,1,8,0:0:0:0:
305,69,71428,1,8,0:0:0:0:
299,63,71528,1,0,0:0:0:0:
305,69,71578,1,0,0:0:0:0:
299,64,71628,1,8,0:0:0:0:
301,71,71728,1,0,0:0:0:0:
299,64,71828,1,0,0:0:0:0:
299,64,71928,1,0,0:0:0:0:
299,64,72028,1,0,0:0:0:0:
299,64,72228,1,0,0:0:0:0:
299,64,72428,1,8,0:0:0:0:
299,64,72528,1,0,0:0:0:0:
299,64,72628,1,8,0:0:0:0:
299,64,72828,1,0,0:0:0:0:
299,64,72928,1,0,0:0:0:0:
299,64,73028,1,8,0:0:0:0:
299,64,73128,1,0,0:0:0:0:
299,64,73228,1,8,0:0:0:0:
299,64,73328,1,8,0:0:0:0:
299,64,73428,1,0,0:0:0:0:
299,64,73528,1,8,0:0:0:0:
299,64,73628,1,0,0:0:0:0:
299,64,73829,1,0,0:0:0:0:
299,64,74029,1,8,0:0:0:0:
299,64,74129,1,0,0:0:0:0:
299,64,74329,1,8,0:0:0:0:
299,64,74429,1,0,0:0:0:0:
299,64,74479,1,0,0:0:0:0:
292,62,74529,1,0,0:0:0:0:
299,64,74629,1,8,0:0:0:0:
299,64,74729,1,8,0:0:0:0:
292,62,74829,1,0,0:0:0:0:
299,64,74879,1,0,0:0:0:0:
292,62,74929,1,0,0:0:0:0:
292,62,75029,1,8,0:0:0:0:
292,62,75129,1,0,0:0:0:0:
292,62,75329,1,8,0:0:0:0:
292,62,75429,1,0,0:0:0:0:
300,56,75529,1,0,0:0:0:0:
299,64,75629,1,8,0:0:0:0:
299,64,75729,1,8,0:0:0:0:
299,64,75929,1,0,0:0:0:0:
299,64,76029,1,8,0:0:0:0:
299,64,76129,1,0,0:0:0:0:
299,64,76229,1,0,0:0:0:0:
299,64,76329,1,0,0:0:0:0:
299,64,76429,1,8,0:0:0:0:
299,64,76529,1,0,0:0:0:0:
299,64,76629,1,8,0:0:0:0:
299,64,76729,1,8,0:0:0:0:
316,67,76779,1,0,0:0:0:0:
317,68,76830,1,0,0:0:0:0:
301,68,77330,1,0,0:0:0:0:
292,74,77430,1,0,0:0:0:0:
273,62,77630,1,0,0:0:0:0:
273,62,77830,1,8,0:0:0:0:
283,65,77930,1,0,0:0:0:0:
282,66,77980,1,0,0:0:0:0:
282,66,78030,1,8,0:0:0:0:
285,76,78230,1,0,0:0:0:0:
285,76,78330,1,0,0:0:0:0:
285,76,78430,1,0,0:0:0:0:
285,76,78530,1,0,0:0:0:0:
285,76,78630,1,8,0:0:0:0:
285,76,78830,1,8,0:0:0:0:
285,76,78930,1,0,0:0:0:0:
285,76,79030,1,0,0:0:0:0:
285,76,79130,1,0,0:0:0:0:
285,76,79230,1,8,0:0:0:0:
285,76,79430,1,8,0:0:0:0:
285,76,79530,1,0,0:0:0:0:
299,57,79630,1,8,0:0:0:0:
283,68,79830,1,8,0:0:0:0:
297,60,80031,1,0,0:0:0:0:
292,66,80131,1,8,0:0:0:0:
292,66,80231,1,8,0:0:0:0:
292,66,80331,1,8,0:0:0:0:
292,66,80431,1,0,0:0:0:0:
292,66,80531,1,8,0:0:0:0:
292,66,80631,1,0,0:0:0:0:
292,66,80731,1,0,0:0:0:0:
292,66,80831,1,8,0:0:0:0:
292,66,81031,1,8,0:0:0:0:
292,66,81131,1,0,0:0:0:0:
292,66,81181,1,0,0:0:0:0:
292,66,81231,1,8,0:0:0:0:
292,66,81331,1,0,0:0:0:0:
292,66,81431,1,0,0:0:0:0:
292,66,81531,1,0,0:0:0:0:
292,66,81631,1,0,0:0:0:0:
292,66,81731,1,0,0:0:0:0:
278,63,81831,1,8,0:0:0:0:
279,63,81881,1,8,0:0:0:0:
279,63,81931,1,0,0:0:0:0:
278,63,82031,1,8,0:0:0:0:
279,63,82131,1,0,0:0:0:0:
285,68,82231,1,0,0:0:0:0:
284,68,82331,1,8,0:0:0:0:
285,68,82381,1,8,0:0:0:0:
285,68,82431,1,0,0:0:0:0:
286,77,82531,1,8,0:0:0:0:
281,74,82631,1,0,0:0:0:0:
287,70,82831,1,8,0:0:0:0:
287,70,82931,1,0,0:0:0:0:
285,64,83031,1,8,0:0:0:0:
285,64,83131,1,8,0:0:0:0:
288,71,83232,1,0,0:0:0:0:
288,71,83432,1,8,0:0:0:0:
288,71,83532,1,0,0:0:0:0:
288,71,83632,1,8,0:0:0:0:
288,71,83732,1,8,0:0:0:0:
295,70,83832,1,0,0:0:0:0:
288,71,83932,1,8,0:0:0:0:
297,76,84232,1,8,0:0:0:0:
297,76,84282,1,0,0:0:0:0:
297,76,84332,1,0,0:0:0:0:
297,76,84432,1,8,0:0:0:0:
297,76,84632,1,0,0:0:0:0:
297,76,84732,1,0,0:0:0:0:
297,76,84832,1,0,0:0:0:0:
297,76,84932,1,0,0:0:0:0:
297,76,85032,1,8,0:0:0:0:
290,72,85232,1,0,0:0:0:0:
290,72,85332,1,8,0:0:0:0:
290,72,85632,1,0,0:0:0:0:
290,72,85832,1,8,0:0:0:0:
290,72,85932,1,0,0:0:0:0:
290,72,86032,1,8,0:0:0:0:
290,72,86132,1,8,0:0:0:0:
290,72,86333,1,8,0:0:0:0:
290,72,86433,1,0,0:0:0:0:
290,72,86833,1,8,0:0:0:0:
290,72,86933,1,0,0:0:0:0:
290,72,87033,1,0,0:0:0:0:
290,72,87133,1,0,0:0:0:0:
290,72,87233,1,8,0:0:0:0:
281,68,87333,1,0,0:0:0:0:
281,67,87433,1,8,0:0:0:0:
281,68,87533,1,0,0:0:0:0:
281,67,87583,1,0,0:0:0:0:
281,67,87633,1,8,0:0:0:0:
281,67,87833,1,8,0:0:0:0:
281,67,87933,1,0,0:0:0:0:
281,67,88033,1,8,0:0:0:0:
281,67,88133,1,0,0:0:0:0:
281,67,88233,1,0,0:0:0:0:
281,67,88333,1,8,0:0:0:0:
281,67,88433,1,8,0:0:0:0:
281,67,88533,1,0,0:0:0:0:
281,67,88633,1,8,0:0:0:0:
281,67,88733,1,8,0:0:0:0:
281,67,88833,1,0,0:0:0:0:
281,67,88933,1,8,0:0:0:0:
285,83,89033,1,0,0:0:0:0:
281,67,89133,1,8,0:0:0:0:
281,67,89233,1,8,0:0:0:0:
289,87,89333,1,0,0:0:0:0:
289,88,89433,1,8,0:0:0:0:
278,94,89534,1,8,0:0:0:0:
281,78,89634,1,0,0:0:0:0:
282,68,90034,1,8,0:0:0:0:
279,77,90234,1,0,0:0:0:0:
279,77,90434,1,0,0:0:0:0:
279,77,90634,1,8,0:0:0:0:
279,77,90734,1,0,0:0:0:0:
279,77,90784,1,0,0:0:0:0:
279,77,90834,1,8,0:0:0:0:
279,77,90934,1,0,0:0:0:0:
279,77,91034,1,0,0:0:0:0:
279,77,91134,1,0,0:0:0:0:
279,77,91234,1,0,0:0:0:0:
281,78,91634,1,8,0:0:0:0:
281,78,91834,1,0,0:0:0:0:
281,78,92034,1,8,0:0:0:0:
281,78,92134,1,0,0:0:0:0:
281,78,92234,1,8,0:0:0:0:
281,78,92334,1,8,0:0:0:0:
281,78,92434,1,0,0:0:0:0:
281,78,92534,1,0,0:0:0:0:
281,78,92635,1,8,0:0:0:0:
281,78,92735,1,0,0:0:0:0:
281,78,92835,1,0,0:0:0:0:
266,133,93135,1,0,0:0:0:0:
243,111,93235,1,8,0:0:0:0:
243,111,93435,1,0,0:0:0:0:
243,111,93635,1,8,0:0:0:0:
243,111,93835,1,8,0:0:0:0:
243,111,93935,1,0,0:0:0:0:
243,111,93985,1,0,0:0:0:0:
243,111,94035,1,8,0:0:0:0:
267,105,94135,1,0,0:0:0:0:
267,105,94235,1,0,0:0:0:0:
267,105,94335,1,0,0:0:0:0:
258,101,94435,1,0,0:0:0:0:
262,109,94635,1,0,0:0:0:0:
262,109,94835,1,8,0:0:0:0:
262,109,95135,1,0,0:0:0:0:
262,109,95235,1,0,0:0:0:0:
262,109,95435,1,0,0:0:0:0:
262,109,95535,1,0,0:0:0:0:
262,109,95635,1,8,0:0:0:0:
250,108,95735,1,8,0:0:0:0:
262,109,95836,1,0,0:0:0:0:
262,109,95936,1,8,0:0:0:0:
311,140,96036,5,0,0:0:0:0:
267,109,96436,1,8,0:0:0:0:
277,119,96636,1,0,0:0:0:0:
259,104,97036,1,8,0:0:0:0:
259,104,97136,1,0,0:0:0:0:
259,104,97186,1,0,0:0:0:0:
259,104,97236,1,8,0:0:0:0:
263,91,97436,1,0,0:0:0:0:
263,91,97636,1,0,0:0:0:0:
263,91,97736,1,0,0:0:0:0:
244,136,98036,1,8,0:0:0:0:
271,88,98336,1,8,0:0:0:0:
263,108,98436,1,0,0:0:0:0:
263,108,98636,1,8,0:0:0:0:
263,108,98736,1,0,0:0:0:0:
263,108,98836,1,8,0:0:0:0:
263,108,98937,1,0,0:0:0:0:
263,108,99037,1,8,0:0:0:0:
263,108,99137,1,8,0:0:0:0:
263,108,99237,1,0,0:0:0:0:
263,102,99537,1,0,0:0:0:0:
263,102,99637,1,8,0:0:0:0:
263,102,99737,1,0,0:0:0:0:
263,102,99837,1,0,0:0:0:0:
263,102,99937,1,0,0:0:0:0:
263,102,100037,1,8,0:0:0:0:
263,102,100237,1,8,0:0:0:0:
267,92,100337,1,0,0:0:0:0:
267,92,100387,1,0,0:0:0:0:
267,92,100437,1,8,0:0:0:0:
267,92,100537,1,0,0:0:0:0:
267,92,100637,1,8,0:0:0:0:
267,92,100837,1,0,0:0:0:0:
267,92,100937,1,0,0:0:0:0:
267,92,101037,1,0,0:0:0:0:
267,92,101137,1,0,0:0:0:0:
267,92,101237,1,8,0:0:0:0:
267,92,101337,1,0,0:0:0:0:
267,92,101437,1,8,0:0:0:0:
267,92,101487,1,8,0:0:0:0:
267,92,101537,1,8,0:0:0:0:
267,92,101637,1,0,0:0:0:0:
267,92,101737,1,8,0:0:0:0:
267,92,101787,1,8,0:0:0:0:
267,92,101837,1,8,0:0:0:0:
267,92,101937,1,0,0:0:0:0:
267,92,102037,1,8,0:0:0:0:
273,88,102238,1,0,0:0:0:0:
273,88,102338,1,8,0:0:0:0:
273,88,102438,1,0,0:0:0:0:
273,88,102538,1,0,0:0:0:0:
273,88,102638,1,8,0:0:0:0:
273,88,102738,1,0,0:0:0:0:
273,88,102838,1,8,0:0:0:0:
273,88,102938,1,0,0:0:0:0:
273,73,102988,1,0,0:0:0:0:
288,95,103238,1,8,0:0:0:0:
288,95,103338,1,0,0:0:0:0:
288,95,103538,1,8,0:0:0:0:
288,95,103638,1,8,0:0:0:0:
288,95,103738,1,8,0:0:0:0:
288,95,103838,1,0,0:0:0:0:
288,95,103938,1,0,0:0:0:0:
288,95,104038,1,0,0:0:0:0:
288,95,104238,1,8,0:0:0:0:
288,95,104438,1,0,0:0:0:0:
288,95,104638,1,8,0:0:0:0:
288,95,104838,1,0,0:0:0:0:
288,95,104938,1,0,0:0:0:0:
282,93,105238,1,8,0:0:0:0:
282,93,105339,1,0,0:0:0:0:
282,93,105439,1,8,0:0:0:0:
290,99,105539,1,8,0:0:0:0:
291,99,105639,1,0,0:0:0:0:
304,101,105939,1,0,0:0:0:0:
304,101,106039,1,8,0:0:0:0:
296,96,106139,1,0,0:0:0:0:
294,86,106189,1,0,0:0:0:0:
294,85,106239,1,8,0:0:0:0:
294,85,106439,1,8,0:0:0:0:
294,85,106539,1,0,0:0:0:0:
303,80,106639,1,8,0:0:0:0:
303,80,106739,1,0,0:0:0:0:
303,80,106789,1,0,0:0:0:0:
303,80,106839,1,8,0:0:0:0:
291,88,106939,1,8,0:0:0:0:
291,87,107039,1,0,0:0:0:0:
291,88,107139,1,0,0:0:0:0:
291,87,107238,1,0,0:0:0:0:
291,87,107639,1,8,0:0:0:0:
301,79,108039,1,0,0:0:0:0:
293,76,108439,1,8,0:0:0:0:
293,76,108639,1,0,0:0:0:0:
293,76,108739,1,8,0:0:0:0:
293,76,108839,1,0,0:0:0:0:
304,85,109039,1,8,0:0:0:0:
303,85,109089,1,0,0:0:0:0:
301,82,109289,1,8,0:0:0:0:
301,82,109364,1,8,0:0:0:0:
310,86,109464,1,0,0:0:0:0:
307,81,109506,1,0,0:0:0:0:
310,86,109639,1,8,0:0:0:0:
307,81,109739,1,0,0:0:0:0:
310,86,109773,1,0,0:0:0:0:
307,81,109939,1,8,0:0:0:0:
307,81,110039,1,8,0:0:0:0:
307,81,110139,1,8,0:0:0:0:
307,81,110239,1,0,0:0:0:0:
307,81,110339,1,0,0:0:0:0:
307,81,110438,1,0,0:0:0:0:
307,81,110640,1,8,0:0:0:0:
307,81,110840,1,0,0:0:0:0:
307,81,111040,1,8,0:0:0:0:
307,81,111240,1,0,0:0:0:0:
301,88,111340,1,0,0:0:0:0:
301,88,111440,1,0,0:0:0:0:
301,88,111540,1,8,0:0:0:0:
301,75,111640,1,0,0:0:0:0:
300,79,111740,1,8,0:0:0:0:
301,75,111840,1,8,0:0:0:0:
301,75,112040,1,0,0:0:0:0:
301,75,112140,1,8,0:0:0:0:
301,75,112240,1,0,0:0:0:0:
301,75,112340,1,0,0:0:0:0:
301,75,112440,1,8,0:0:0:0:
301,75,112540,1,0,0:0:0:0:
323,99,112573,1,0,0:0:0:0:
301,75,112740,1,8,0:0:0:0:
301,75,112840,1,0,0:0:0:0:
305,80,113040,1,8,0:0:0:0:
305,80,113140,1,0,0:0:0:0:
317,93,113190,1,0,0:0:0:0:
317,93,113240,1,8,0:0:0:0:
305,80,113340,1,8,0:0:0:0:
299,78,113440,1,0,0:0:0:0:
305,80,113540,1,0,0:0:0:0:
299,78,113640,1,0,0:0:0:0:
298,79,114041,1,8,0:0:0:0:
296,80,114441,1,0,0:0:0:0:
296,80,114841,1,8,0:0:0:0:
296,80,114941,1,0,0:0:0:0:
296,80,115041,1,8,0:0:0:0:
296,80,115141,1,8,0:0:0:0:
314,124,115241,5,0,0:0:0:0:
293,78,115533,1,0,0:0:0:0:
293,78,115633,1,8,0:0:0:0:
296,86,115734,1,8,0:0:0:0:
296,86,115835,1,8,0:0:0:0:
296,86,115935,1,8,0:0:0:0:
296,86,116024,1,0,0:0:0:0:
296,86,116157,1,8,0:0:0:0:
296,86,116290,1,8,0:0:0:0:
296,86,116424,1,8,0:0:0:0:
296,86,116557,1,0,0:0:0:0:
296,86,116649,1,0,0:0:0:0:
287,142,116842,1,0,0:0:0:0:
290,87,117137,1,0,0:0:0:0:
258,104,117708,1,0,0:0:0:0:
274,98,117920,1,8,0:0:0:0:
274,98,118027,1,0,0:0:0:0:
274,98,118080,1,0,0:0:0:0:
274,98,118133,1,0,0:0:0:0:
274,98,118186,1,0,0:0:0:0:
274,98,118239,1,0,0:0:0:0:
274,98,118360,1,8,0:0:0:0:
274,98,118469,1,8,0:0:0:0:
274,98,118578,1,8,0:0:0:0:
274,98,118688,1,8,0:0:0:0:
302,154,118810,1,0,0:0:0:0:
321,152,118939,1,0,0:0:0:0:
321,152,119068,1,0,0:0:0:0:
321,152,119197,1,0,0:0:0:0:
321,152,119326,1,0,0:0:0:0:
321,152,119455,1,0,0:0:0:0:
332,155,119584,1,0,0:0:0:0:
334,148,119713,1,8,0:0:0:0:
334,148,119842,1,0,0:0:0:0:
334,148,119971,1,8,0:0:0:0:
334,148,120100,1,0,0:0:0:0:
334,148,120229,1,8,0:0:0:0:
352,156,120358,1,0,0:0:0:0:
352,156,120487,1,8,0:0:0:0:
352,156,120616,1,0,0:0:0:0:
300,113,120755,1,8,0:0:0:0:
310,112,120890,1,0,0:0:0:0:
315,105,121015,1,8,0:0:0:0:
315,105,121125,1,0,0:0:0:0:
315,105,121223,1,8,0:0:0:0:
315,105,121321,1,0,0:0:0:0:
315,105,121419,1,8,0:0:0:0:
296,97,121508,1,0,0:0:0:0:
306,93,121597,1,8,0:0:0:0:
286,94,121687,1,0,0:0:0:0:
293,96,121768,1,8,0:0:0:0:
296,90,121850,1,0,0:0:0:0:
296,90,121932,1,8,0:0:0:0:
296,90,122014,1,0,0:0:0:0:
292,101,122096,1,8,0:0:0:0:
296,90,122177,1,0,0:0:0:0:
289,101,122477,1,0,0:0:0:0:
289,101,122577,1,8,0:0:0:0:
289,101,122677,1,8,0:0:0:0:
289,101,122777,1,8,0:0:0:0:
289,101,122877,1,8,0:0:0:0:
285,88,122977,1,0,0:0:0:0:
259,108,123110,1,8,0:0:0:0:
281,103,123244,1,0,0:0:0:0:
281,103,123377,1,0,0:0:0:0:
281,103,123507,1,0,0:0:0:0:
314,87,123585,1,0,0:0:0:0:
276,92,123777,1,0,0:0:0:0:
294,103,124072,1,0,0:0:0:0:
283,98,124643,1,0,0:0:0:0:
283,98,124861,1,8,0:0:0:0:
318,80,124971,1,0,0:0:0:0:
318,80,125026,1,0,0:0:0:0:
314,83,125080,1,0,0:0:0:0:
318,80,125135,1,0,0:0:0:0:
318,80,125190,1,0,0:0:0:0:
314,83,125299,1,8,0:0:0:0:
309,86,125409,1,8,0:0:0:0:
314,83,125518,1,8,0:0:0:0:
309,86,125628,1,8,0:0:0:0:
302,154,125745,1,0,0:0:0:0:
321,152,125875,1,0,0:0:0:0:
321,152,126005,1,0,0:0:0:0:
321,152,126135,1,0,0:0:0:0:
321,152,126266,1,0,0:0:0:0:
321,152,126396,1,0,0:0:0:0:
332,155,126527,1,0,0:0:0:0:
334,148,126657,1,8,0:0:0:0:
334,148,126788,1,0,0:0:0:0:
334,148,126918,1,8,0:0:0:0:
334,148,127048,1,0,0:0:0:0:
334,148,127179,1,8,0:0:0:0:
352,156,127309,1,0,0:0:0:0:
352,156,127440,1,8,0:0:0:0:
352,156,127570,1,0,0:0:0:0:
300,113,127700,1,8,0:0:0:0:
310,112,127825,1,0,0:0:0:0:
315,105,127950,1,8,0:0:0:0:
315,105,128060,1,0,0:0:0:0:
315,105,128158,1,8,0:0:0:0:
315,105,128256,1,0,0:0:0:0:
315,105,128354,1,8,0:0:0:0:
296,97,128443,1,0,0:0:0:0:
306,93,128532,1,8,0:0:0:0:
286,94,128622,1,0,0:0:0:0:
293,96,128703,1,8,0:0:0:0:
296,90,128785,1,0,0:0:0:0:
296,90,128867,1,8,0:0:0:0:
296,90,128949,1,0,0:0:0:0:
292,101,129031,1,8,0:0:0:0:
296,90,129112,1,0,0:0:0:0:
294,114,129412,1,0,0:0:0:0:
296,93,129512,1,8,0:0:0:0:
297,94,129612,1,8,0:0:0:0:
296,93,129712,1,8,0:0:0:0:
296,93,129812,1,8,0:0:0:0:
294,112,129912,1,0,0:0:0:0:
286,107,130045,1,8,0:0:0:0:
287,108,130179,1,0,0:0:0:0:
287,108,130312,1,0,0:0:0:0:
287,108,130442,1,0,0:0:0:0:
299,95,130520,1,0,0:0:0:0:
316,112,130737,1,0,0:0:0:0:
316,112,131031,1,0,0:0:0:0:
313,104,131578,1,0,0:0:0:0:
313,104,131796,1,8,0:0:0:0:
321,95,131906,1,0,0:0:0:0:
321,95,131961,1,0,0:0:0:0:
321,95,132015,1,0,0:0:0:0:
321,95,132070,1,0,0:0:0:0:
321,95,132125,1,0,0:0:0:0:
321,95,132234,1,8,0:0:0:0:
321,95,132344,1,8,0:0:0:0:
321,95,132453,1,8,0:0:0:0:
321,95,132563,1,8,0:0:0:0:
302,154,132680,1,0,0:0:0:0:
321,152,132810,1,0,0:0:0:0:
321,152,132940,1,0,0:0:0:0:
321,152,133070,1,0,0:0:0:0:
321,152,133201,1,0,0:0:0:0:
321,152,133331,1,0,0:0:0:0:
332,155,133462,1,0,0:0:0:0:
334,148,133592,1,8,0:0:0:0:
334,148,133723,1,0,0:0:0:0:
334,148,133853,1,8,0:0:0:0:
334,148,133983,1,0,0:0:0:0:
334,148,134114,1,8,0:0:0:0:
352,156,134244,1,0,0:0:0:0:
352,156,134375,1,8,0:0:0:0:
352,156,134505,1,0,0:0:0:0:
300,113,134635,1,8,0:0:0:0:
310,112,134760,1,0,0:0:0:0:
315,105,134885,1,8,0:0:0:0:
315,105,134995,1,0,0:0:0:0:
315,105,135093,1,8,0:0:0:0:
315,105,135191,1,0,0:0:0:0:
315,105,135289,1,8,0:0:0:0:
296,97,135378,1,0,0:0:0:0:
306,93,135467,1,8,0:0:0:0:
286,94,135557,1,0,0:0:0:0:
293,96,135638,1,8,0:0:0:0:
296,90,135720,1,0,0:0:0:0:
296,90,135802,1,8,0:0:0:0:
296,90,135884,1,0,0:0:0:0:
292,101,135966,1,8,0:0:0:0:
296,90,136047,1,0,0:0:0:0:
293,95,136347,1,0,0:0:0:0:
286,88,136447,1,8,0:0:0:0:
286,88,136547,1,8,0:0:0:0:
286,88,136647,1,8,0:0:0:0:
286,88,136747,1,8,0:0:0:0:
277,92,136847,1,0,0:0:0:0:
287,92,136980,1,8,0:0:0:0:
287,92,137114,1,0,0:0:0:0:
281,88,137247,1,8,0:0:0:0:
281,88,137322,1,8,0:0:0:0:
287,92,137397,1,0,0:0:0:0:
281,88,137472,1,0,0:0:0:0:
297,92,137671,1,0,0:0:0:0:
312,120,137966,1,8,0:0:0:0:
284,90,138430,1,0,0:0:0:0:
284,90,138537,1,8,0:0:0:0:
307,89,138622,1,0,0:0:0:0:
307,89,138731,1,8,0:0:0:0:
307,79,138841,1,0,0:0:0:0:
248,77,138896,1,0,0:0:0:0:
248,77,138950,1,0,0:0:0:0:
289,78,139005,1,0,0:0:0:0:
290,79,139060,1,0,0:0:0:0:
284,55,139169,1,8,0:0:0:0:
288,62,139279,1,8,0:0:0:0:
288,62,139388,1,8,0:0:0:0:
288,62,139498,1,8,0:0:0:0:
302,154,139615,1,0,0:0:0:0:
321,152,139745,1,0,0:0:0:0:
321,152,139875,1,0,0:0:0:0:
321,152,140005,1,0,0:0:0:0:
321,152,140136,1,0,0:0:0:0:
321,152,140266,1,0,0:0:0:0:
332,155,140397,1,0,0:0:0:0:
334,148,140527,1,8,0:0:0:0:
334,148,140658,1,0,0:0:0:0:
334,148,140788,1,8,0:0:0:0:
334,148,140918,1,0,0:0:0:0:
334,148,141049,1,8,0:0:0:0:
352,156,141179,1,0,0:0:0:0:
352,156,141310,1,8,0:0:0:0:
352,156,141440,1,0,0:0:0:0:
300,113,141570,1,8,0:0:0:0:
310,112,141695,1,0,0:0:0:0:
315,105,141820,1,8,0:0:0:0:
315,105,141930,1,0,0:0:0:0:
315,105,142028,1,8,0:0:0:0:
315,105,142126,1,0,0:0:0:0:
315,105,142224,1,8,0:0:0:0:
296,97,142313,1,0,0:0:0:0:
306,93,142402,1,8,0:0:0:0:
286,94,142492,1,0,0:0:0:0:
293,96,142573,1,8,0:0:0:0:
296,90,142655,1,0,0:0:0:0:
296,90,142737,1,8,0:0:0:0:
296,90,142819,1,0,0:0:0:0:
292,101,142901,1,8,0:0:0:0:
308,76,143382,1,8,0:0:0:0:
308,76,143482,1,8,0:0:0:0:
308,76,143582,1,8,0:0:0:0:
308,76,143682,1,8,0:0:0:0:
308,76,143882,1,0,0:0:0:0:
308,76,143982,1,8,0:0:0:0:
308,76,144082,1,8,0:0:0:0:
308,76,144182,1,8,0:0:0:0:
308,76,144382,1,8,0:0:0:0:
310,82,144582,1,8,0:0:0:0:
309,83,145182,1,8,0:0:0:0:
309,83,145382,1,8,0:0:0:0:
309,83,145482,1,0,0:0:0:0:
309,83,145532,1,0,0:0:0:0:
309,83,145582,1,0,0:0:0:0:
309,83,145632,1,0,0:0:0:0:
309,83,145682,1,0,0:0:0:0:
300,73,145782,1,8,0:0:0:0:
300,73,145882,1,8,0:0:0:0:
300,73,145982,1,8,0:0:0:0:
300,73,146082,1,8,0:0:0:0:
300,73,146183,1,0,0:0:0:0:
300,73,146283,1,0,0:0:0:0:
300,73,146383,1,0,0:0:0:0:
300,73,146483,1,0,0:0:0:0:
300,73,146583,1,0,0:0:0:0:
300,73,146683,1,0,0:0:0:0:
300,73,146783,1,0,0:0:0:0:
300,73,146883,1,8,0:0:0:0:
300,73,146983,1,0,0:0:0:0:
308,75,147083,1,8,0:0:0:0:
308,75,147183,1,0,0:0:0:0:
308,75,147283,1,8,0:0:0:0:
308,75,147383,1,0,0:0:0:0:
308,75,147483,1,8,0:0:0:0:
308,75,147583,1,0,0:0:0:0:
308,75,147683,1,8,0:0:0:0:
308,75,147783,1,0,0:0:0:0:
308,75,147883,1,8,0:0:0:0:
308,75,147983,1,0,0:0:0:0:
308,75,148083,1,8,0:0:0:0:
308,75,148183,1,0,0:0:0:0:
308,75,148283,1,8,0:0:0:0:
308,75,148383,1,0,0:0:0:0:
308,75,148483,1,8,0:0:0:0:
308,75,148583,1,0,0:0:0:0:
300,71,148683,1,8,0:0:0:0:
300,71,148783,1,8,0:0:0:0:
300,71,148883,1,8,0:0:0:0:
300,71,148983,1,8,0:0:0:0:
300,71,149083,1,8,0:0:0:0:
300,71,149183,1,8,0:0:0:0:
300,71,149283,1,8,0:0:0:0:
300,71,149384,1,0,0:0:0:0:
300,71,149684,1,0,0:0:0:0:
300,71,149784,1,8,0:0:0:0:
300,71,149884,1,8,0:0:0:0:
300,71,149984,1,8,0:0:0:0:
300,71,150084,1,8,0:0:0:0:
300,71,150284,1,0,0:0:0:0:
300,71,150384,1,8,0:0:0:0:
299,87,150484,1,8,0:0:0:0:
300,71,150584,1,0,0:0:0:0:
299,87,150684,1,0,0:0:0:0:
299,87,150784,1,0,0:0:0:0:
299,87,150984,1,8,0:0:0:0:
313,72,151584,1,8,0:0:0:0:
313,72,151634,1,8,0:0:0:0:
313,72,151684,1,0,0:0:0:0:
313,72,151734,1,0,0:0:0:0:
313,72,151784,1,8,0:0:0:0:
321,67,151884,1,0,0:0:0:0:
321,67,151934,1,0,0:0:0:0:
321,67,151984,1,0,0:0:0:0:
322,101,152034,1,0,0:0:0:0:
315,58,152084,1,0,0:0:0:0:
314,58,152184,1,8,0:0:0:0:
315,58,152284,1,8,0:0:0:0:
314,58,152384,1,8,0:0:0:0:
314,58,152485,1,8,0:0:0:0:
324,63,152585,1,0,0:0:0:0:
314,58,152686,1,0,0:0:0:0:
316,61,152788,1,0,0:0:0:0:
314,58,152890,1,0,0:0:0:0:
316,61,152992,1,0,0:0:0:0:
314,58,153093,1,0,0:0:0:0:
306,61,153195,1,0,0:0:0:0:
306,61,153297,1,8,0:0:0:0:
306,61,153399,1,0,0:0:0:0:
306,61,153500,1,8,0:0:0:0:
306,61,153602,1,0,0:0:0:0:
306,61,153704,1,8,0:0:0:0:
306,61,153806,1,0,0:0:0:0:
306,61,153908,1,8,0:0:0:0:
316,61,154009,1,0,0:0:0:0:
306,61,154111,1,8,0:0:0:0:
298,103,154213,5,0,0:0:0:0:
304,113,154315,1,8,0:0:0:0:
304,113,154417,1,0,0:0:0:0:
304,113,154519,1,8,0:0:0:0:
278,134,154631,1,0,0:0:0:0:
274,126,154755,1,8,0:0:0:0:
282,127,154905,1,0,0:0:0:0:
282,127,155055,1,8,0:0:0:0:
282,127,155222,1,0,0:0:0:0:
271,149,155403,1,8,0:0:0:0:
246,153,155596,1,0,0:0:0:0:
276,144,155802,1,8,0:0:0:0:
261,124,156076,1,0,0:0:0:0:
265,121,156388,1,8,0:0:0:0:
269,122,156721,1,0,0:0:0:0:
294,125,157162,1,8,0:0:0:0:
284,110,157762,1,8,0:0:0:0:
284,110,157856,1,8,0:0:0:0:
284,110,157950,1,0,0:0:0:0:
284,110,158045,1,0,0:0:0:0:
284,110,158139,1,8,0:0:0:0:
289,117,158213,1,0,0:0:0:0:
289,117,158287,1,8,0:0:0:0:
289,117,158361,1,0,0:0:0:0:
289,117,158435,1,0,0:0:0:0:
286,97,158509,1,8,0:0:0:0:
285,104,158570,1,0,0:0:0:0:
285,105,158632,1,8,0:0:0:0:
283,112,158694,1,8,0:0:0:0:
283,112,158784,1,0,0:0:0:0:
283,112,158875,1,0,0:0:0:0:
283,112,158966,1,0,0:0:0:0:
284,124,159057,1,8,0:0:0:0:
293,120,159347,1,0,0:0:0:0:
294,121,159444,1,8,0:0:0:0:
302,122,159637,1,0,0:0:0:0:
303,121,159734,1,0,0:0:0:0:
302,122,159831,1,8,0:0:0:0:
303,121,159927,1,0,0:0:0:0:
302,122,160024,1,8,0:0:0:0:
303,121,160121,1,8,0:0:0:0:
302,122,160218,1,8,0:0:0:0:
303,121,160315,1,0,0:0:0:0:
285,117,160411,1,8,0:0:0:0:
285,117,160508,1,8,0:0:0:0:
297,118,160605,1,0,0:0:0:0:
285,117,160702,1,0,0:0:0:0:
281,117,160798,1,0,0:0:0:0:
285,117,160895,1,0,0:0:0:0:
287,144,160992,1,0,0:0:0:0:
287,144,161089,1,0,0:0:0:0:
287,144,161186,1,0,0:0:0:0:
287,144,161282,1,8,0:0:0:0:
287,144,161379,1,0,0:0:0:0:
287,144,161476,1,8,0:0:0:0:
287,144,161573,1,0,0:0:0:0:
287,144,161669,1,8,0:0:0:0:
287,144,161766,1,0,0:0:0:0:
287,144,161863,1,8,0:0:0:0:
287,144,161960,1,0,0:0:0:0:
287,144,162057,1,8,0:0:0:0:
287,144,162153,1,0,0:0:0:0:
287,144,162250,1,0,0:0:0:0:
287,144,162347,1,8,0:0:0:0:
287,144,162444,1,0,0:0:0:0:
287,144,162540,1,0,0:0:0:0:
287,144,162637,1,8,0:0:0:0:
287,144,162734,1,8,0:0:0:0:
287,144,162831,1,0,0:0:0:0:
287,144,162927,1,8,0:0:0:0:
287,144,163024,1,0,0:0:0:0:
287,144,163121,1,8,0:0:0:0:
287,144,163218,1,8,0:0:0:0:
292,134,163315,1,8,0:0:0:0:
292,134,163411,1,0,0:0:0:0:
284,134,163508,1,8,0:0:0:0:
284,134,163605,1,0,0:0:0:0:
291,142,163702,1,8,0:0:0:0:
267,145,163796,1,8,0:0:0:0:
279,134,163890,1,0,0:0:0:0:
280,134,163985,1,0,0:0:0:0:
295,143,164079,1,8,0:0:0:0:
283,120,164153,1,0,0:0:0:0:
283,120,164227,1,8,0:0:0:0:
280,116,164301,1,0,0:0:0:0:
283,120,164375,1,0,0:0:0:0:
302,130,164449,1,8,0:0:0:0:
302,130,164511,1,0,0:0:0:0:
302,130,164572,1,8,0:0:0:0:
302,130,164634,1,8,0:0:0:0:
302,130,164724,1,0,0:0:0:0:
302,130,164815,1,0,0:0:0:0:
302,130,164906,1,0,0:0:0:0:
302,130,164997,1,8,0:0:0:0:
302,113,165287,1,0,0:0:0:0:
302,113,165384,1,8,0:0:0:0:
302,113,165577,1,8,0:0:0:0:
302,113,165771,1,0,0:0:0:0:
302,113,165867,1,8,0:0:0:0:
302,113,165964,1,0,0:0:0:0:
371,142,166061,1,0,0:0:0:0:
302,113,166158,1,8,0:0:0:0:
302,113,166255,1,8,0:0:0:0:
302,113,166351,1,8,0:0:0:0:
302,113,166448,1,8,0:0:0:0:
302,113,166545,1,0,0:0:0:0:
264,126,166642,1,0,0:0:0:0:
296,96,166738,1,0,0:0:0:0:
302,113,166835,1,0,0:0:0:0:
302,113,166932,1,0,0:0:0:0:
308,108,167029,1,0,0:0:0:0:
302,113,167126,1,0,0:0:0:0:
315,115,167222,1,8,0:0:0:0:
302,113,167319,1,0,0:0:0:0:
307,109,167416,1,8,0:0:0:0:
302,113,167513,1,0,0:0:0:0:
307,109,167609,1,8,0:0:0:0:
302,113,167706,1,0,0:0:0:0:
307,109,167803,1,8,0:0:0:0:
302,113,167900,1,0,0:0:0:0:
299,109,167997,1,8,0:0:0:0:
302,113,168093,1,0,0:0:0:0:
299,109,168190,1,0,0:0:0:0:
302,113,168287,1,8,0:0:0:0:
299,109,168384,1,0,0:0:0:0:
302,113,168480,1,0,0:0:0:0:
299,109,168577,1,8,0:0:0:0:
302,113,168674,1,0,0:0:0:0:
299,109,168771,1,8,0:0:0:0:
302,113,168867,1,8,0:0:0:0:
299,109,168964,1,8,0:0:0:0:
302,113,169061,1,0,0:0:0:0:
299,109,169158,1,0,0:0:0:0:
302,113,169255,1,8,0:0:0:0:
299,109,169351,1,0,0:0:0:0:
302,113,169448,1,8,0:0:0:0:
299,109,169545,1,8,0:0:0:0:
302,113,169642,1,0,0:0:0:0:
380,112,170927,1,0,0:0:0:0:
305,116,171215,1,0,0:0:0:0:
271,127,172465,1,0,0:0:0:0:
283,113,174016,1,0,0:0:0:0:
286,107,174306,1,0,0:0:0:0:
286,107,174596,1,8,0:0:0:0:
286,107,174886,1,0,0:0:0:0:
286,107,175177,1,0,0:0:0:0:
266,137,175564,1,8,0:0:0:0:
298,106,175667,1,0,0:0:0:0:
301,97,175770,1,8,0:0:0:0:
292,80,175874,1,0,0:0:0:0:
292,80,175926,1,0,0:0:0:0:
291,81,175977,1,8,0:0:0:0:
276,96,176029,1,8,0:0:0:0:
277,95,176081,1,0,0:0:0:0:
316,66,176150,1,8,0:0:0:0:
316,66,176219,1,0,0:0:0:0:
333,78,176288,1,8,0:0:0:0:
283,87,176391,1,0,0:0:0:0:
300,76,176495,1,8,0:0:0:0:
312,75,176572,1,0,0:0:0:0:
307,76,176667,1,8,0:0:0:0:
323,78,176736,1,8,0:0:0:0:
307,76,176805,1,0,0:0:0:0:
307,76,177012,1,0,0:0:0:0:
307,76,177115,1,0,0:0:0:0:
312,144,177219,1,8,0:0:0:0:
311,82,177509,1,8,0:0:0:0:
311,82,177606,1,0,0:0:0:0:
305,100,177799,1,8,0:0:0:0:
305,100,177993,1,8,0:0:0:0:
305,100,178089,1,0,0:0:0:0:
305,100,178186,1,0,0:0:0:0:
305,100,178283,1,0,0:0:0:0:
305,100,178380,1,8,0:0:0:0:
305,100,178477,1,8,0:0:0:0:
305,100,178573,1,8,0:0:0:0:
305,100,178670,1,8,0:0:0:0:
281,122,178767,1,0,0:0:0:0:
281,122,178864,1,0,0:0:0:0:
286,117,178960,1,0,0:0:0:0:
281,122,179057,1,0,0:0:0:0:
310,99,179251,1,0,0:0:0:0:
310,99,179348,1,8,0:0:0:0:
310,99,179444,1,8,0:0:0:0:
310,99,179541,1,0,0:0:0:0:
310,99,179638,1,8,0:0:0:0:
310,99,179735,1,0,0:0:0:0:
310,99,179831,1,8,0:0:0:0:
310,99,179928,1,0,0:0:0:0:
310,99,180025,1,8,0:0:0:0:
310,99,180122,1,0,0:0:0:0:
310,99,180219,1,8,0:0:0:0:
310,99,180315,1,0,0:0:0:0:
324,102,180412,1,0,0:0:0:0:
324,102,180509,1,8,0:0:0:0:
324,102,180606,1,0,0:0:0:0:
324,102,180702,1,0,0:0:0:0:
324,102,180799,1,8,0:0:0:0:
324,102,180896,1,0,0:0:0:0:
324,102,180993,1,8,0:0:0:0:
324,102,181089,1,8,0:0:0:0:
324,102,181186,1,0,0:0:0:0:
324,102,181283,1,8,0:0:0:0:
324,102,181380,1,8,0:0:0:0:
324,102,181477,1,0,0:0:0:0:
324,102,181573,1,8,0:0:0:0:
324,102,181670,1,8,0:0:0:0:
324,102,181767,1,8,0:0:0:0:
298,106,181864,1,0,0:0:0:0:
301,97,181941,1,8,0:0:0:0:
284,87,182019,1,8,0:0:0:0:
292,80,182122,1,0,0:0:0:0:
291,81,182174,1,8,0:0:0:0:
276,96,182226,1,8,0:0:0:0:
277,95,182278,1,0,0:0:0:0:
316,66,182346,1,8,0:0:0:0:
316,66,182415,1,0,0:0:0:0:
333,78,182485,1,8,0:0:0:0:
333,78,182553,1,0,0:0:0:0:
283,87,182622,1,0,0:0:0:0:
307,76,182692,1,8,0:0:0:0:
312,75,182761,1,0,0:0:0:0:
307,76,182864,1,8,0:0:0:0:
307,76,183002,1,0,0:0:0:0:
324,102,183139,1,0,0:0:0:0:
324,102,183312,1,0,0:0:0:0:
310,119,183519,1,0,0:0:0:0:
310,119,183807,1,0,0:0:0:0:
310,119,183903,1,8,0:0:0:0:
310,119,184095,1,0,0:0:0:0:
308,117,184384,1,0,0:0:0:0:
308,117,184480,1,0,0:0:0:0:
308,117,184672,1,8,0:0:0:0:
308,117,184769,1,0,0:0:0:0:
308,117,184865,1,8,0:0:0:0:
308,117,184961,1,8,0:0:0:0:
301,120,185057,1,0,0:0:0:0:
308,97,185120,1,0,0:0:0:0:
308,97,185184,1,8,0:0:0:0:
308,97,185248,1,0,0:0:0:0:
308,97,185311,1,8,0:0:0:0:
308,97,185375,1,8,0:0:0:0:
308,97,185439,1,0,0:0:0:0:
287,108,185502,1,8,0:0:0:0:
287,107,185630,1,8,0:0:0:0:
299,88,185821,1,0,0:0:0:0:
307,103,185916,1,8,0:0:0:0:
308,88,186012,1,0,0:0:0:0:
307,103,186107,1,8,0:0:0:0:
307,103,186299,1,8,0:0:0:0:
307,103,186394,1,0,0:0:0:0:
307,103,186490,1,8,0:0:0:0:
254,129,186585,1,0,0:0:0:0:
303,93,186681,1,8,0:0:0:0:
303,93,186872,1,8,0:0:0:0:
303,93,186967,1,0,0:0:0:0:
303,93,187063,1,0,0:0:0:0:
303,93,187158,1,8,0:0:0:0:
303,93,187254,1,8,0:0:0:0:
303,93,187349,1,0,0:0:0:0:
303,93,187445,1,8,0:0:0:0:
303,93,187541,1,0,0:0:0:0:
303,93,187636,1,0,0:0:0:0:
303,93,187732,1,8,0:0:0:0:
303,93,187827,1,8,0:0:0:0:
303,93,187923,1,8,0:0:0:0:
303,93,188018,1,8,0:0:0:0:
281,98,188114,1,0,0:0:0:0:
310,69,188424,1,8,0:0:0:0:
298,80,188527,1,8,0:0:0:0:
302,68,188631,1,0,0:0:0:0:
322,93,188734,1,8,0:0:0:0:
290,83,188786,1,8,0:0:0:0:
283,88,188838,1,0,0:0:0:0:
290,83,188889,1,0,0:0:0:0:
283,88,188941,1,8,0:0:0:0:
306,65,189045,1,0,0:0:0:0:
306,65,189148,1,8,0:0:0:0:
306,65,189217,1,0,0:0:0:0:
305,130,189286,1,0,0:0:0:0:
311,78,189355,1,8,0:0:0:0:
330,95,189562,1,0,0:0:0:0:
330,95,189665,1,0,0:0:0:0:
333,117,189769,1,0,0:0:0:0:
293,85,189965,1,8,0:0:0:0:
293,85,190014,1,0,0:0:0:0:
302,81,190161,1,8,0:0:0:0:
327,93,190357,1,0,0:0:0:0:
322,84,190693,1,8,0:0:0:0:
322,84,190787,1,0,0:0:0:0:
307,90,190882,1,0,0:0:0:0:
309,90,190977,1,8,0:0:0:0:
307,90,191075,1,8,0:0:0:0:
309,90,191171,1,0,0:0:0:0:
309,90,191267,1,8,0:0:0:0:
305,110,191363,1,8,0:0:0:0:
314,119,191459,1,0,0:0:0:0:
302,126,191555,1,0,0:0:0:0:
302,126,191652,1,0,0:0:0:0:
302,126,191749,1,0,0:0:0:0:
316,108,191942,1,0,0:0:0:0:
306,110,192039,1,8,0:0:0:0:
306,110,192136,1,8,0:0:0:0:
315,120,192233,1,0,0:0:0:0:
315,120,192329,1,8,0:0:0:0:
315,120,192426,1,0,0:0:0:0:
315,120,192523,1,8,0:0:0:0:
315,120,192620,1,0,0:0:0:0:
306,110,192717,1,8,0:0:0:0:
315,120,192813,1,0,0:0:0:0:
315,119,192910,1,8,0:0:0:0:
290,107,193007,1,0,0:0:0:0:
307,116,193104,1,8,0:0:0:0:
306,115,193200,1,0,0:0:0:0:
307,116,193297,1,8,0:0:0:0:
306,115,193394,1,0,0:0:0:0:
307,116,193484,1,0,0:0:0:0:
306,115,193575,1,8,0:0:0:0:
307,116,193666,1,8,0:0:0:0:
306,115,193757,1,0,0:0:0:0:
307,116,193848,1,8,0:0:0:0:
306,115,193939,1,0,0:0:0:0:
307,116,194030,1,0,0:0:0:0:
306,115,194121,1,8,0:0:0:0:
307,116,194212,1,8,0:0:0:0:
306,115,194303,1,8,0:0:0:0:
283,117,194394,1,8,0:0:0:0:
264,149,199858,5,0,0:0:0:0:
270,142,200438,1,0,0:0:0:0:
270,142,200632,1,0,0:0:0:0:
271,142,201406,1,0,0:0:0:0:
271,142,201600,1,0,0:0:0:0:
272,144,201987,1,0,0:0:0:0:
272,144,202181,1,0,0:0:0:0:
272,144,202277,1,0,0:0:0:0:
272,144,202471,1,0,0:0:0:0:
272,144,202569,1,0,0:0:0:0:
272,144,202761,1,0,0:0:0:0:
272,144,202858,1,0,0:0:0:0:
272,144,202955,1,0,0:0:0:0:
272,144,203149,1,0,0:0:0:0:
272,144,203536,1,0,0:0:0:0:
272,144,203729,1,0,0:0:0:0:
272,144,203923,1,8,0:0:0:0:
272,144,204117,1,8,0:0:0:0:
272,144,204213,1,0,0:0:0:0:
272,144,204504,1,8,0:0:0:0:
272,144,204697,1,0,0:0:0:0:
272,144,204988,1,8,0:0:0:0:
272,144,205085,1,0,0:0:0:0:
279,133,205278,1,0,0:0:0:0:
279,133,205472,1,8,0:0:0:0:
279,133,205665,1,8,0:0:0:0:
279,133,205762,1,0,0:0:0:0:
282,133,206053,1,0,0:0:0:0:
280,130,206633,1,0,0:0:0:0:
280,130,207021,1,8,0:0:0:0:
280,130,207214,1,8,0:0:0:0:
280,130,207408,1,0,0:0:0:0:
280,130,207601,1,8,0:0:0:0:
280,130,207795,1,0,0:0:0:0:
279,131,208085,1,8,0:0:0:0:
279,123,208182,1,0,0:0:0:0:
279,123,208376,1,0,0:0:0:0:
279,123,208473,1,0,0:0:0:0:
279,123,208666,1,8,0:0:0:0:
279,123,208763,1,8,0:0:0:0:
279,123,208860,1,0,0:0:0:0:
279,123,208957,1,0,0:0:0:0:
279,123,209053,1,0,0:0:0:0:
279,123,209150,1,0,0:0:0:0:
282,121,209441,1,0,0:0:0:0:
301,108,209634,1,8,0:0:0:0:
301,108,209731,1,0,0:0:0:0:
284,110,209925,1,0,0:0:0:0:
276,104,210118,1,8,0:0:0:0:
276,104,210312,1,8,0:0:0:0:
276,104,210409,1,0,0:0:0:0:
276,105,210699,1,8,0:0:0:0:
276,105,210893,1,0,0:0:0:0:
276,105,210989,1,0,0:0:0:0:
276,105,211183,1,8,0:0:0:0:
276,105,211280,1,0,0:0:0:0:
276,105,211473,1,0,0:0:0:0:
276,105,211667,1,8,0:0:0:0:
276,105,211861,1,8,0:0:0:0:
276,105,211957,1,0,0:0:0:0:
319,155,212248,1,0,0:0:0:0:
310,128,212538,1,0,0:0:0:0:
310,128,212732,1,8,0:0:0:0:
319,129,212829,1,0,0:0:0:0:
319,129,213022,1,0,0:0:0:0:
319,129,213216,1,8,0:0:0:0:
314,116,213409,1,8,0:0:0:0:
319,129,213603,1,0,0:0:0:0:
319,129,213797,1,8,0:0:0:0:
319,129,213990,1,0,0:0:0:0:
319,129,214087,1,0,0:0:0:0:
316,127,214281,1,8,0:0:0:0:
316,127,214377,1,0,0:0:0:0:
316,127,214571,1,0,0:0:0:0:
316,127,214668,1,0,0:0:0:0:
316,127,214861,1,8,0:0:0:0:
316,127,214958,1,8,0:0:0:0:
316,127,215055,1,0,0:0:0:0:
316,127,215152,1,0,0:0:0:0:
316,127,215249,1,0,0:0:0:0:
316,127,215345,1,0,0:0:0:0:
310,129,215733,1,0,0:0:0:0:
310,129,215829,1,8,0:0:0:0:
310,129,215926,1,0,0:0:0:0:
310,129,216120,1,0,0:0:0:0:
310,129,216313,1,8,0:0:0:0:
310,129,216507,1,8,0:0:0:0:
310,129,216604,1,0,0:0:0:0:
306,125,216894,1,8,0:0:0:0:
306,125,217088,1,0,0:0:0:0:
304,134,217185,1,0,0:0:0:0:
315,128,217281,1,0,0:0:0:0:
311,122,217378,1,8,0:0:0:0:
315,128,217475,1,0,0:0:0:0:
315,128,217669,1,0,0:0:0:0:
315,128,217862,1,8,0:0:0:0:
315,128,218056,1,8,0:0:0:0:
315,128,218153,1,0,0:0:0:0:
312,122,218443,1,0,0:0:0:0:
312,122,218733,1,0,0:0:0:0:
312,122,218927,1,8,0:0:0:0:
312,122,219024,1,0,0:0:0:0:
312,122,219217,1,0,0:0:0:0:
312,122,219411,1,8,0:0:0:0:
312,122,219605,1,8,0:0:0:0:
312,122,219798,1,0,0:0:0:0:
305,108,219992,1,8,0:0:0:0:
312,122,220185,1,0,0:0:0:0:
305,108,220282,1,0,0:0:0:0:
305,108,220379,1,0,0:0:0:0:
305,108,220476,1,8,0:0:0:0:
305,108,220573,1,0,0:0:0:0:
305,108,220766,1,0,0:0:0:0:
305,108,220863,1,0,0:0:0:0:
305,108,221057,1,8,0:0:0:0:
305,108,221153,1,0,0:0:0:0:
305,108,221250,1,0,0:0:0:0:
305,108,221347,1,8,0:0:0:0:
305,108,221444,1,0,0:0:0:0:
305,108,221541,1,0,0:0:0:0:
292,137,221734,1,0,0:0:0:0:
300,122,221928,1,8,0:0:0:0:
300,122,222025,1,8,0:0:0:0:
306,115,222121,1,0,0:0:0:0:
303,123,222315,1,0,0:0:0:0:
303,123,222509,1,8,0:0:0:0:
303,123,222702,1,8,0:0:0:0:
303,123,222799,1,0,0:0:0:0:
304,124,223089,1,0,0:0:0:0:
304,124,223283,1,0,0:0:0:0:
307,113,223380,1,0,0:0:0:0:
307,114,223477,1,0,0:0:0:0:
307,113,223573,1,8,0:0:0:0:
307,114,223670,1,0,0:0:0:0:
307,114,223864,1,0,0:0:0:0:
307,114,224057,1,8,0:0:0:0:
301,117,224251,1,8,0:0:0:0:
308,121,224348,1,0,0:0:0:0:
308,121,224638,1,8,0:0:0:0:
308,121,224832,1,0,0:0:0:0:
308,121,225025,1,0,0:0:0:0:
316,131,225122,1,8,0:0:0:0:
316,130,225219,1,0,0:0:0:0:
312,123,225412,1,0,0:0:0:0:
312,123,225606,1,8,0:0:0:0:
312,123,225800,1,8,0:0:0:0:
312,123,225993,1,0,0:0:0:0:
312,123,226187,1,0,0:0:0:0:
312,123,226380,1,0,0:0:0:0:
299,122,226477,1,0,0:0:0:0:
302,120,226574,1,0,0:0:0:0:
299,122,226671,1,8,0:0:0:0:
302,120,226768,1,0,0:0:0:0:
302,120,226961,1,0,0:0:0:0:
302,120,227058,1,0,0:0:0:0:
302,120,227252,1,8,0:0:0:0:
302,120,227348,1,8,0:0:0:0:
302,120,227445,1,0,0:0:0:0:
302,120,227542,1,0,0:0:0:0:
289,105,227639,1,0,0:0:0:0:
302,120,227736,1,0,0:0:0:0:
310,122,227929,1,0,0:0:0:0:
310,122,228123,1,8,0:0:0:0:
317,113,228316,1,0,0:0:0:0:
317,113,228413,1,8,0:0:0:0:
317,113,228510,1,0,0:0:0:0:
317,113,228607,1,0,0:0:0:0:
317,113,228704,1,8,0:0:0:0:
317,113,228897,1,8,0:0:0:0:
317,113,228994,1,0,0:0:0:0:
315,124,229091,1,8,0:0:0:0:
315,124,229188,1,8,0:0:0:0:
315,124,229284,1,0,0:0:0:0:
315,124,229381,1,8,0:0:0:0:
315,124,229478,1,0,0:0:0:0:
315,124,229575,1,8,0:0:0:0:
315,124,229672,1,8,0:0:0:0:
315,124,229768,1,8,0:0:0:0:
315,124,229865,1,0,0:0:0:0:
315,124,229962,1,8,0:0:0:0:
315,124,230059,1,0,0:0:0:0:
315,124,230156,1,0,0:0:0:0:
311,117,230252,1,8,0:0:0:0:
315,124,230349,1,8,0:0:0:0:
311,117,230446,1,0,0:0:0:0:
315,124,230543,1,0,0:0:0:0:
311,117,230640,1,8,0:0:0:0:
311,117,230833,1,0,0:0:0:0:
317,118,231124,1,0,0:0:0:0:
317,118,231220,1,8,0:0:0:0:
317,118,231414,1,0,0:0:0:0:
317,118,231511,1,0,0:0:0:0:
317,118,231704,1,0,0:0:0:0:
317,118,231801,1,8,0:0:0:0:
317,118,231995,1,0,0:0:0:0:
317,118,232092,1,8,0:0:0:0:
317,118,232188,1,0,0:0:0:0:
317,118,232285,1,8,0:0:0:0:
317,118,232382,1,0,0:0:0:0:
317,118,232479,1,0,0:0:0:0:
317,118,232576,1,0,0:0:0:0:
317,118,232672,1,0,0:0:0:0:
317,118,232769,1,8,0:0:0:0:
317,118,232866,1,8,0:0:0:0:
317,118,232963,1,0,0:0:0:0:
317,118,233060,1,0,0:0:0:0:
317,118,233156,1,0,0:0:0:0:
317,118,233253,1,0,0:0:0:0:
317,118,233350,1,8,0:0:0:0:
317,118,233447,1,0,0:0:0:0:
317,118,233544,1,8,0:0:0:0:
317,118,233640,1,0,0:0:0:0:
317,118,233737,1,8,0:0:0:0:
317,118,233834,1,8,0:0:0:0:
317,118,233931,1,0,0:0:0:0:
310,112,234318,1,8,0:0:0:0:
310,112,234512,1,0,0:0:0:0:
310,112,234608,1,8,0:0:0:0:
310,112,234705,1,0,0:0:0:0:
310,112,234802,1,0,0:0:0:0:
310,112,234899,1,8,0:0:0:0:
298,118,235092,1,8,0:0:0:0:
298,118,235189,1,0,0:0:0:0:
298,118,235286,1,8,0:0:0:0:
298,118,235383,1,8,0:0:0:0:
298,118,235480,1,0,0:0:0:0:
286,137,235576,1,8,0:0:0:0:
286,137,235673,1,0,0:0:0:0:
286,137,235770,1,8,0:0:0:0:
286,137,235867,1,8,0:0:0:0:
294,130,235964,1,8,0:0:0:0:
294,130,236060,1,0,0:0:0:0:
295,117,236157,1,8,0:0:0:0:
294,130,236254,1,0,0:0:0:0:
290,126,236351,1,0,0:0:0:0:
294,130,236448,1,8,0:0:0:0:
294,130,236641,1,8,0:0:0:0:
294,130,236738,1,0,0:0:0:0:
294,130,236835,1,8,0:0:0:0:
294,130,236932,1,8,0:0:0:0:
294,130,237028,1,0,0:0:0:0:
289,126,237416,1,8,0:0:0:0:
292,132,237609,1,0,0:0:0:0:
292,132,237706,1,0,0:0:0:0:
292,132,237900,1,0,0:0:0:0:
292,132,237996,1,8,0:0:0:0:
292,132,238190,1,0,0:0:0:0:
281,136,238287,1,8,0:0:0:0:
292,132,238384,1,8,0:0:0:0:
298,134,238480,1,0,0:0:0:0:
292,132,238577,1,0,0:0:0:0:
298,134,238674,1,8,0:0:0:0:
292,132,238771,1,0,0:0:0:0:
298,134,238868,1,8,0:0:0:0:
292,132,238964,1,8,0:0:0:0:
298,134,239061,1,8,0:0:0:0:
292,132,239158,1,0,0:0:0:0:
298,134,239255,1,8,0:0:0:0:
292,132,239352,1,0,0:0:0:0:
298,134,239448,1,0,0:0:0:0:
292,132,239545,1,8,0:0:0:0:
294,117,239642,1,0,0:0:0:0:
298,134,239739,1,8,0:0:0:0:
294,117,239836,1,0,0:0:0:0:
294,117,239932,1,8,0:0:0:0:
294,117,240029,1,8,0:0:0:0:
294,117,240126,1,0,0:0:0:0:
294,117,240416,1,0,0:0:0:0:
294,117,240513,1,8,0:0:0:0:
290,126,240707,1,0,0:0:0:0:
290,126,240804,1,8,0:0:0:0:
290,126,240900,1,0,0:0:0:0:
290,126,240997,1,0,0:0:0:0:
291,117,241094,1,8,0:0:0:0:
291,117,241288,1,8,0:0:0:0:
291,117,241384,1,0,0:0:0:0:
291,117,241481,1,8,0:0:0:0:
291,117,241578,1,8,0:0:0:0:
291,117,241675,1,0,0:0:0:0:
291,117,241772,1,8,0:0:0:0:
291,117,241965,1,8,0:0:0:0:
294,107,242062,1,0,0:0:0:0:
294,107,242159,1,8,0:0:0:0:
294,107,242256,1,0,0:0:0:0:
294,107,242352,1,0,0:0:0:0:
281,101,242546,1,0,0:0:0:0:
281,101,242643,1,8,0:0:0:0:
291,94,242836,1,8,0:0:0:0:
291,94,242933,1,0,0:0:0:0:
291,94,243030,1,8,0:0:0:0:
291,94,243127,1,8,0:0:0:0:
291,94,243224,1,0,0:0:0:0:
282,96,243611,1,8,0:0:0:0:
282,96,243804,1,0,0:0:0:0:
282,96,243901,1,8,0:0:0:0:
282,96,244095,1,8,0:0:0:0:
282,96,244192,1,0,0:0:0:0:
291,83,244240,1,0,0:0:0:0:
291,83,244288,1,0,0:0:0:0:
292,86,244385,1,8,0:0:0:0:
291,83,244482,1,8,0:0:0:0:
292,86,244579,1,0,0:0:0:0:
291,83,244676,1,8,0:0:0:0:
292,86,244772,1,0,0:0:0:0:
291,83,244869,1,0,0:0:0:0:
292,86,244966,1,0,0:0:0:0:
291,83,245063,1,0,0:0:0:0:
292,86,245160,1,8,0:0:0:0:
291,83,245256,1,0,0:0:0:0:
292,86,245353,1,0,0:0:0:0:
300,78,245450,1,8,0:0:0:0:
292,86,245644,1,0,0:0:0:0:
292,86,245740,1,8,0:0:0:0:
296,80,245837,1,0,0:0:0:0:
292,86,245934,1,8,0:0:0:0:
296,80,246031,1,0,0:0:0:0:
296,80,246128,1,8,0:0:0:0:
296,80,246224,1,8,0:0:0:0:
298,88,246321,1,0,0:0:0:0:
298,88,246612,1,0,0:0:0:0:
298,88,246708,1,8,0:0:0:0:
294,77,246902,1,0,0:0:0:0:
289,86,246999,1,8,0:0:0:0:
289,86,247192,1,8,0:0:0:0:
289,86,247289,1,0,0:0:0:0:
289,86,247483,1,8,0:0:0:0:
289,86,247580,1,0,0:0:0:0:
289,86,247676,1,8,0:0:0:0:
289,86,247773,1,8,0:0:0:0:
289,86,247870,1,0,0:0:0:0:
291,98,247967,1,8,0:0:0:0:
289,86,248063,1,0,0:0:0:0:
296,88,248160,1,8,0:0:0:0:
289,86,248257,1,8,0:0:0:0:
290,83,248354,1,0,0:0:0:0:
289,86,248451,1,8,0:0:0:0:
290,83,248547,1,0,0:0:0:0:
289,86,248644,1,0,0:0:0:0:
289,86,248838,1,8,0:0:0:0:
289,86,249031,1,8,0:0:0:0:
289,86,249128,1,0,0:0:0:0:
289,86,249225,1,8,0:0:0:0:
291,85,249322,1,8,0:0:0:0:
289,86,249419,1,0,0:0:0:0:
290,81,249806,1,8,0:0:0:0:
290,81,249999,1,0,0:0:0:0:
296,77,250096,1,8,0:0:0:0:
296,76,250193,1,0,0:0:0:0:
296,77,250290,1,0,0:0:0:0:
296,76,250387,1,8,0:0:0:0:
296,77,250435,1,8,0:0:0:0:
296,77,250483,1,8,0:0:0:0:
296,76,250580,1,0,0:0:0:0:
296,77,250677,1,0,0:0:0:0:
296,76,250774,1,0,0:0:0:0:
296,77,250871,1,0,0:0:0:0:
296,76,250967,1,8,0:0:0:0:
296,68,251064,1,0,0:0:0:0:
296,68,251161,1,8,0:0:0:0:
296,68,251258,1,0,0:0:0:0:
296,68,251355,1,8,0:0:0:0:
296,68,251451,1,8,0:0:0:0:
296,68,251645,1,8,0:0:0:0:
296,68,251742,1,0,0:0:0:0:
296,68,251839,1,0,0:0:0:0:
296,68,251935,1,8,0:0:0:0:
296,68,252032,1,0,0:0:0:0:
296,68,252129,1,8,0:0:0:0:
304,54,252226,1,0,0:0:0:0:
305,55,252323,1,8,0:0:0:0:
305,55,252419,1,8,0:0:0:0:
305,55,252516,1,0,0:0:0:0:
296,52,252903,1,8,0:0:0:0:
296,52,253097,1,0,0:0:0:0:
296,52,253194,1,8,0:0:0:0:
296,52,253387,1,8,0:0:0:0:
296,52,253484,1,0,0:0:0:0:
296,52,253678,1,8,0:0:0:0:
296,52,253775,1,0,0:0:0:0:
296,52,253871,1,8,0:0:0:0:
296,52,253968,1,8,0:0:0:0:
296,52,254065,1,0,0:0:0:0:
306,61,254162,1,8,0:0:0:0:
306,61,254355,1,8,0:0:0:0:
306,61,254549,1,0,0:0:0:0:
300,53,254646,1,0,0:0:0:0:
301,53,254743,1,8,0:0:0:0:
301,53,254936,1,0,0:0:0:0:
301,53,255033,1,8,0:0:0:0:
307,49,255081,1,8,0:0:0:0:
306,47,255130,1,8,0:0:0:0:
301,53,255227,1,0,0:0:0:0:
297,47,255323,1,0,0:0:0:0:
301,53,255420,1,8,0:0:0:0:
297,47,255517,1,8,0:0:0:0:
301,53,255614,1,0,0:0:0:0:
297,47,255711,1,8,0:0:0:0:
301,53,255807,1,0,0:0:0:0:
297,47,255904,1,8,0:0:0:0:
297,42,256001,1,8,0:0:0:0:
297,42,256195,1,0,0:0:0:0:
297,42,256291,1,0,0:0:0:0:
303,52,256388,1,0,0:0:0:0:
297,42,256485,1,8,0:0:0:0:
293,62,256533,1,8,0:0:0:0:
283,50,256582,1,8,0:0:0:0:
301,54,256775,1,8,0:0:0:0:
300,57,256872,1,8,0:0:0:0:
300,57,256969,1,0,0:0:0:0:
300,57,257066,1,0,0:0:0:0:
300,57,257163,1,8,0:0:0:0:
312,42,257259,1,0,0:0:0:0:
312,42,257356,1,0,0:0:0:0:
312,42,257453,1,0,0:0:0:0:
312,42,257550,1,8,0:0:0:0:
312,42,257647,1,8,0:0:0:0:
312,42,257743,1,0,0:0:0:0:
312,42,257840,1,8,0:0:0:0:
312,42,257937,1,0,0:0:0:0:
312,42,258034,1,0,0:0:0:0:
312,42,258131,1,8,0:0:0:0:
312,42,258227,1,0,0:0:0:0:
312,42,258324,1,8,0:0:0:0:
312,42,258421,1,0,0:0:0:0:
312,42,258518,1,8,0:0:0:0:
312,42,258615,1,8,0:0:0:0:
312,42,258711,1,0,0:0:0:0:
307,36,259099,1,8,0:0:0:0:
307,36,259292,1,0,0:0:0:0:
307,36,259389,1,8,0:0:0:0:
307,36,259486,1,0,0:0:0:0:
307,36,259583,1,0,0:0:0:0:
307,36,259679,1,8,0:0:0:0:
307,36,259776,1,0,0:0:0:0:
307,36,259873,1,8,0:0:0:0:
307,36,259970,1,0,0:0:0:0:
307,36,260067,1,8,0:0:0:0:
307,36,260163,1,8,0:0:0:0:
307,36,260260,1,0,0:0:0:0:
307,36,260357,1,8,0:0:0:0:
307,36,260551,1,8,0:0:0:0:
294,61,260647,1,8,0:0:0:0:
307,36,260744,1,0,0:0:0:0:
307,36,260841,1,0,0:0:0:0:
307,36,260938,1,8,0:0:0:0:
294,36,261131,1,8,0:0:0:0:
292,42,261228,1,0,0:0:0:0:
292,42,261277,1,0,0:0:0:0:
294,36,261325,1,0,0:0:0:0:
292,42,261422,1,8,0:0:0:0:
292,42,261519,1,0,0:0:0:0:
292,42,261615,1,8,0:0:0:0:
292,42,261712,1,8,0:0:0:0:
292,42,261809,1,0,0:0:0:0:
299,52,262196,1,8,0:0:0:0:
299,52,262390,1,0,0:0:0:0:
299,52,262487,1,0,0:0:0:0:
299,52,262680,1,8,0:0:0:0:
328,61,262729,1,8,0:0:0:0:
328,57,262777,1,8,0:0:0:0:
329,61,262874,1,0,0:0:0:0:
328,61,262971,1,8,0:0:0:0:
329,61,263067,1,8,0:0:0:0:
328,61,263164,1,0,0:0:0:0:
329,61,263261,1,8,0:0:0:0:
290,79,263358,1,0,0:0:0:0:
313,57,263455,1,8,0:0:0:0:
314,58,263551,1,0,0:0:0:0:
313,57,263648,1,0,0:0:0:0:
314,58,263745,1,8,0:0:0:0:
313,57,263842,1,0,0:0:0:0:
314,58,263939,1,8,0:0:0:0:
318,49,264035,1,0,0:0:0:0:
318,49,264132,1,0,0:0:0:0:
318,49,264229,1,0,0:0:0:0:
318,49,264326,1,8,0:0:0:0:
318,49,264423,1,0,0:0:0:0:
318,49,264519,1,8,0:0:0:0:
318,49,264616,1,0,0:0:0:0:
318,49,264713,1,8,0:0:0:0:
318,49,264810,1,8,0:0:0:0:
318,49,264907,1,0,0:0:0:0:
317,43,265294,1,8,0:0:0:0:
317,43,265487,1,0,0:0:0:0:
317,43,265584,1,0,0:0:0:0:
317,43,265778,1,0,0:0:0:0:
317,43,265875,1,8,0:0:0:0:
317,43,266068,1,8,0:0:0:0:
317,43,266165,1,0,0:0:0:0:
317,43,266262,1,8,0:0:0:0:
317,43,266359,1,8,0:0:0:0:
317,43,266455,1,0,0:0:0:0:
323,52,266552,1,0,0:0:0:0:
323,52,266746,1,8,0:0:0:0:
323,52,266939,1,8,0:0:0:0:
305,40,267036,1,0,0:0:0:0:
307,43,267133,1,8,0:0:0:0:
307,43,267327,1,0,0:0:0:0:
307,43,267423,1,8,0:0:0:0:
307,43,267617,1,8,0:0:0:0:
307,43,267714,1,0,0:0:0:0:
307,43,267811,1,8,0:0:0:0:
307,43,267907,1,8,0:0:0:0:
307,43,268004,1,0,0:0:0:0:
307,43,268198,1,0,0:0:0:0:
311,44,268391,1,8,0:0:0:0:
307,52,268585,1,0,0:0:0:0:
315,52,268779,1,0,0:0:0:0:
304,34,268875,1,0,0:0:0:0:
304,33,268972,1,8,0:0:0:0:
304,33,269166,1,8,0:0:0:0:
304,33,269263,1,0,0:0:0:0:
311,33,269359,1,0,0:0:0:0:
304,33,269456,1,8,0:0:0:0:
311,33,269553,1,0,0:0:0:0:
304,33,269650,1,0,0:0:0:0:
311,33,269747,1,8,0:0:0:0:
311,35,269843,1,0,0:0:0:0:
319,35,269940,1,8,0:0:0:0:
319,35,270037,1,0,0:0:0:0:
319,35,270134,1,8,0:0:0:0:
319,35,270231,1,8,0:0:0:0:
319,35,270327,1,0,0:0:0:0:
319,35,270424,1,8,0:0:0:0:
319,35,270521,1,0,0:0:0:0:
319,35,270618,1,8,0:0:0:0:
319,35,270715,1,0,0:0:0:0:
319,35,270811,1,8,0:0:0:0:
319,35,270908,1,8,0:0:0:0:
319,35,271005,1,8,0:0:0:0:
319,35,271102,1,0,0:0:0:0:
321,40,271489,1,8,0:0:0:0:
321,40,271683,1,0,0:0:0:0:
321,40,271779,1,8,0:0:0:0:
321,40,271876,1,0,0:0:0:0:
321,40,271973,1,0,0:0:0:0:
321,40,272070,1,8,0:0:0:0:
321,40,272263,1,8,0:0:0:0:
321,40,272360,1,0,0:0:0:0:
321,40,272457,1,8,0:0:0:0:
321,40,272554,1,8,0:0:0:0:
318,47,272650,1,0,0:0:0:0:
321,40,272747,1,8,0:0:0:0:
321,40,272941,1,8,0:0:0:0:
306,47,273038,1,0,0:0:0:0:
321,40,273134,1,8,0:0:0:0:
321,40,273231,1,0,0:0:0:0:
321,40,273328,1,8,0:0:0:0:
321,40,273522,1,0,0:0:0:0:
321,40,273618,1,0,0:0:0:0:
321,40,273812,1,8,0:0:0:0:
321,40,273909,1,0,0:0:0:0:
321,40,274006,1,8,0:0:0:0:
321,40,274102,1,8,0:0:0:0:
321,40,274199,1,0,0:0:0:0:
323,46,274586,1,8,0:0:0:0:
323,46,274780,1,0,0:0:0:0:
331,36,274877,1,0,0:0:0:0:
330,42,275070,1,0,0:0:0:0:
330,42,275167,1,8,0:0:0:0:
330,42,275361,1,8,0:0:0:0:
331,43,275458,1,8,0:0:0:0:
330,42,275554,1,0,0:0:0:0:
331,43,275651,1,8,0:0:0:0:
330,42,275748,1,0,0:0:0:0:
331,43,275845,1,0,0:0:0:0:
330,42,275942,1,8,0:0:0:0:
331,43,276038,1,0,0:0:0:0:
330,42,276135,1,8,0:0:0:0:
331,43,276232,1,0,0:0:0:0:
330,42,276329,1,8,0:0:0:0:
331,43,276426,1,8,0:0:0:0:
330,42,276522,1,0,0:0:0:0:
331,43,276619,1,8,0:0:0:0:
331,42,276716,1,0,0:0:0:0:
331,43,276813,1,8,0:0:0:0:
331,42,276910,1,0,0:0:0:0:
331,43,277006,1,8,0:0:0:0:
331,42,277103,1,8,0:0:0:0:
331,43,277200,1,8,0:0:0:0:
331,42,277297,1,0,0:0:0:0:
356,56,277684,1,8,0:0:0:0:
347,42,277878,1,0,0:0:0:0:
347,42,277974,1,0,0:0:0:0:
347,42,278168,1,8,0:0:0:0:
347,42,278265,1,0,0:0:0:0:
347,42,278458,1,8,0:0:0:0:
347,42,278555,1,0,0:0:0:0:
347,42,278652,1,8,0:0:0:0:
347,42,278749,1,8,0:0:0:0:
347,42,278846,1,0,0:0:0:0:
347,42,279039,1,0,0:0:0:0:
350,70,279233,1,8,0:0:0:0:
345,57,279330,1,0,0:0:0:0:
345,57,279426,1,0,0:0:0:0:
345,57,279523,1,8,0:0:0:0:
345,57,279717,1,8,0:0:0:0:
345,57,279814,1,0,0:0:0:0:
345,57,280007,1,8,0:0:0:0:
346,46,280104,1,0,0:0:0:0:
346,46,280201,1,8,0:0:0:0:
346,46,280298,1,8,0:0:0:0:
346,46,280394,1,0,0:0:0:0:
348,48,280782,1,8,0:0:0:0:
348,48,280975,1,0,0:0:0:0:
348,48,281072,1,0,0:0:0:0:
354,44,281266,1,0,0:0:0:0:
341,52,281362,1,8,0:0:0:0:
341,52,281556,1,8,0:0:0:0:
351,62,281653,1,0,0:0:0:0:
351,62,281750,1,8,0:0:0:0:
351,62,281846,1,8,0:0:0:0:
351,62,281943,1,0,0:0:0:0:
351,62,282040,1,0,0:0:0:0:
351,62,282137,1,8,0:0:0:0:
351,62,282330,1,8,0:0:0:0:
351,62,282427,1,0,0:0:0:0:
351,62,282524,1,8,0:0:0:0:
351,62,282621,1,0,0:0:0:0:
351,62,282718,1,0,0:0:0:0:
351,62,282814,1,8,0:0:0:0:
351,62,282911,1,0,0:0:0:0:
351,62,283008,1,8,0:0:0:0:
351,62,283105,1,8,0:0:0:0:
351,62,283202,1,0,0:0:0:0:
351,62,283298,1,8,0:0:0:0:
351,62,283395,1,8,0:0:0:0:
351,62,283492,1,0,0:0:0:0:
359,70,283879,1,8,0:0:0:0:
359,70,284073,1,0,0:0:0:0:
359,70,284170,1,8,0:0:0:0:
359,70,284363,1,8,0:0:0:0:
359,70,284460,1,0,0:0:0:0:
360,61,284557,1,0,0:0:0:0:
359,70,284654,1,8,0:0:0:0:
360,61,284750,1,0,0:0:0:0:
352,61,284847,1,8,0:0:0:0:
360,61,284944,1,8,0:0:0:0:
352,61,285041,1,0,0:0:0:0:
352,61,285234,1,0,0:0:0:0:
352,61,285428,1,8,0:0:0:0:
349,68,285525,1,8,0:0:0:0:
352,61,285622,1,0,0:0:0:0:
360,61,285718,1,8,0:0:0:0:
360,61,285912,1,8,0:0:0:0:
360,61,286009,1,0,0:0:0:0:
364,76,286106,1,0,0:0:0:0:
364,76,286202,1,8,0:0:0:0:
364,76,286299,1,0,0:0:0:0:
354,58,286396,1,8,0:0:0:0:
354,58,286493,1,8,0:0:0:0:
354,58,286590,1,0,0:0:0:0:
355,58,286977,1,8,0:0:0:0:
355,58,287170,1,0,0:0:0:0:
355,58,287267,1,0,0:0:0:0:
355,58,287461,1,0,0:0:0:0:
355,58,287558,1,8,0:0:0:0:
351,68,287751,1,8,0:0:0:0:
351,68,287848,1,0,0:0:0:0:
351,68,287945,1,8,0:0:0:0:
351,68,288042,1,8,0:0:0:0:
351,68,288138,1,0,0:0:0:0:
337,74,288235,1,8,0:0:0:0:
337,74,288332,1,0,0:0:0:0:
337,74,288429,1,0,0:0:0:0:
337,74,288526,1,8,0:0:0:0:
337,74,288622,1,0,0:0:0:0:
337,74,288719,1,8,0:0:0:0:
343,64,288816,1,0,0:0:0:0:
337,74,288913,1,8,0:0:0:0:
343,64,289010,1,8,0:0:0:0:
337,74,289106,1,0,0:0:0:0:
343,64,289203,1,8,0:0:0:0:
348,71,289300,1,8,0:0:0:0:
348,71,289397,1,0,0:0:0:0:
348,71,289494,1,8,0:0:0:0:
348,71,289590,1,8,0:0:0:0:
348,71,289687,1,0,0:0:0:0:
351,78,290268,1,0,0:0:0:0:
351,78,290655,1,8,0:0:0:0:
351,78,290849,1,8,0:0:0:0:
351,78,290946,1,0,0:0:0:0:
350,81,291236,1,0,0:0:0:0:
350,81,291430,1,0,0:0:0:0:
350,81,291526,1,8,0:0:0:0:
350,81,291720,1,0,0:0:0:0:
350,81,291817,1,0,0:0:0:0:
350,81,292010,1,0,0:0:0:0:
350,81,292204,1,8,0:0:0:0:
350,81,292398,1,8,0:0:0:0:
364,98,292494,1,0,0:0:0:0:
350,81,292591,1,0,0:0:0:0:
350,81,292785,1,0,0:0:0:0:
350,80,293172,1,8,0:0:0:0:
350,80,293366,1,0,0:0:0:0:
350,80,293753,1,8,0:0:0:0:
350,80,293946,1,8,0:0:0:0:
350,80,294140,1,0,0:0:0:0:
350,80,294334,1,0,0:0:0:0:
350,80,294527,1,8,0:0:0:0:
337,78,294721,1,0,0:0:0:0:
350,80,294914,1,0,0:0:0:0:
350,80,295011,1,8,0:0:0:0:
350,80,295108,1,0,0:0:0:0:
348,88,295205,1,0,0:0:0:0:
346,75,295398,1,8,0:0:0:0:
346,75,295592,1,0,0:0:0:0:
346,75,295689,1,8,0:0:0:0:
346,75,295882,1,0,0:0:0:0:
360,82,296463,1,0,0:0:0:0:
349,76,296850,1,8,0:0:0:0:
349,76,297044,1,8,0:0:0:0:
349,76,297141,1,0,0:0:0:0:
352,77,297431,1,0,0:0:0:0:
352,77,297625,1,0,0:0:0:0:
352,77,297721,1,8,0:0:0:0:
352,77,297915,1,8,0:0:0:0:
352,77,298012,1,0,0:0:0:0:
347,88,298205,1,0,0:0:0:0:
347,88,298399,1,8,0:0:0:0:
347,88,298593,1,8,0:0:0:0:
347,88,298689,1,0,0:0:0:0:
342,74,298786,1,0,0:0:0:0:
342,74,298980,1,0,0:0:0:0:
343,76,299367,1,8,0:0:0:0:
343,76,299561,1,0,0:0:0:0:
344,71,299948,1,8,0:0:0:0:
344,71,300141,1,8,0:0:0:0:
344,71,300335,1,0,0:0:0:0:
344,71,300529,1,0,0:0:0:0:
344,71,300722,1,8,0:0:0:0:
310,72,300916,1,0,0:0:0:0:
336,57,301013,1,8,0:0:0:0:
335,57,301109,1,0,0:0:0:0:
331,49,301303,1,0,0:0:0:0:
331,49,301400,1,8,0:0:0:0:
331,49,301593,1,8,0:0:0:0:
331,49,301787,1,0,0:0:0:0:
331,49,301884,1,8,0:0:0:0:
307,128,302077,5,0,0:0:0:0:
295,95,302658,1,0,0:0:0:0:
316,95,303045,1,8,0:0:0:0:
316,95,303239,1,8,0:0:0:0:
316,95,303336,1,0,0:0:0:0:
317,95,303626,1,0,0:0:0:0:
306,98,303917,1,0,0:0:0:0:
308,83,304207,1,8,0:0:0:0:
301,88,304401,1,0,0:0:0:0:
301,88,304594,1,8,0:0:0:0:
301,88,304788,1,8,0:0:0:0:
301,88,304885,1,0,0:0:0:0:
305,91,305175,1,0,0:0:0:0:
305,91,305562,1,8,0:0:0:0:
305,91,305756,1,0,0:0:0:0:
306,91,306143,1,8,0:0:0:0:
306,91,306337,1,8,0:0:0:0:
306,91,306530,1,0,0:0:0:0:
306,91,306724,1,0,0:0:0:0:
309,88,307111,1,8,0:0:0:0:
309,88,307305,1,0,0:0:0:0:
309,88,307498,1,0,0:0:0:0:
300,69,307692,1,8,0:0:0:0:
300,69,307885,1,8,0:0:0:0:
300,69,308079,1,0,0:0:0:0:
300,69,308273,1,0,0:0:0:0:
297,70,308853,1,0,0:0:0:0:
297,73,309241,1,8,0:0:0:0:
297,73,309821,1,0,0:0:0:0:
298,73,310402,1,0,0:0:0:0:
309,67,310983,1,8,0:0:0:0:
310,67,311370,1,0,0:0:0:0:
310,67,311951,1,0,0:0:0:0:
310,67,312338,1,8,0:0:0:0:
314,57,312532,1,8,0:0:0:0:
310,67,312919,1,0,0:0:0:0:
314,57,313500,1,0,0:0:0:0:
319,44,313887,1,8,0:0:0:0:
319,44,314081,1,0,0:0:0:0:
343,134,314274,5,8,0:0:0:0:
