osu file format v14

[General]
AudioFilename: audio.mp3
AudioLeadIn: 0
PreviewTime: 2629
Countdown: 0
SampleSet: Soft
StackLeniency: 0.7
Mode: 0
LetterboxInBreaks: 0
WidescreenStoryboard: 1

[Editor]
DistanceSpacing: 1
BeatDivisor: 3
GridSize: 4
TimelineZoom: 1.7

[Metadata]
Title:Flim
TitleUnicode:Flim
Artist:Aphex Twin
ArtistUnicode:Aphex Twin
Creator:PandaHero
Version:Normal
Source:
Tags:Electronic Instrumental Experimental IDM Film Come to Daddy Zuga
BeatmapID:2514221
BeatmapSetID:998953

[Difficulty]
HPDrainRate:4
CircleSize:3.5
OverallDifficulty:4
ApproachRate:6
SliderMultiplier:1
SliderTickRate:1

[Events]
//Background and Video events
0,0,"aircraft-2795557_1920.jpg",0,0
//Break Periods
2,83828,85874
//Storyboard Layer 0 (Background)
//Storyboard Layer 1 (Fail)
//Storyboard Layer 2 (Pass)
//Storyboard Layer 3 (Foreground)
//Storyboard Layer 4 (Overlay)
//Storyboard Sound Samples

[TimingPoints]
498,568.450971103742,4,2,0,20,1,0
2771,405.405405405405,4,2,1,25,1,0
2771,-100,4,2,1,25,0,0
11791,-100,4,2,1,15,0,0
11892,-100,4,2,1,5,0,0
12095,-100,4,2,1,25,0,0
13108,-100,4,2,1,5,0,0
13311,-100,4,2,1,25,0,0
18581,-100,4,2,1,15,0,0
18784,-100,4,2,1,35,0,0
18885,-100,4,2,1,25,0,0
21520,-100,4,2,1,35,0,0
21622,-100,4,2,1,25,0,0
21825,-100,4,2,1,20,0,0
22230,-100,4,2,1,25,0,0
24054,-100,4,2,1,15,0,0
24257,-100,4,2,1,25,0,0
28108,-100,4,2,1,35,0,0
28311,-100,4,2,1,45,0,0
28716,-100,4,2,1,25,0,0
33581,-100,4,2,1,20,0,0
35203,-100,4,2,1,25,0,0
37635,-100,4,2,1,20,0,0
38446,-100,4,2,1,25,0,0
41284,-100,4,2,1,20,0,0
41689,-100,4,2,1,25,0,0
44122,-100,4,2,1,15,0,0
44527,-100,4,2,1,30,0,0
46149,-100,4,2,1,25,0,0
53852,-100,4,2,1,15,0,0
54662,-100,4,2,1,25,0,0
61757,-100,4,2,1,25,0,0
61767,-100,4,2,0,5,0,0
62770,-100,4,2,1,25,0,0
69460,-100,4,2,1,20,0,0
70879,-100,4,2,1,25,0,0
72500,-100,4,2,1,15,0,0
72635,-100,4,2,1,18,0,0
72770,-100,4,2,1,23,0,0
72906,-100,4,2,1,25,0,0
75743,-100,4,2,1,10,0,0
75845,-100,4,2,1,15,0,0
75946,-100,4,2,1,20,0,0
76048,-100,4,2,1,25,0,0
76149,-100,4,2,1,35,0,0
76352,-100,4,2,1,25,0,0
77162,-100,4,2,1,15,0,0
77358,402.010050251256,4,2,1,15,1,0
78966,405.405405405405,4,2,1,25,1,0
87074,-100,4,2,1,25,0,0
90317,-100,4,1,1,25,0,0
91938,-100,4,2,1,20,0,0
92749,-100,4,2,1,25,0,0
94168,-100,4,1,1,30,0,0
95182,-100,4,2,1,25,0,0
97411,-100,4,2,1,10,0,0
97614,-100,4,2,1,15,0,0
98020,-100,4,2,1,20,0,0
98425,408.163265306122,4,2,1,25,1,0
98425,-100,4,2,1,25,0,0
99039,-100,4,2,1,30,0,0
100057,405.405405405405,4,1,1,30,1,0
100057,-100,4,1,1,30,0,0
102286,-100,4,1,1,35,0,0
102489,-100,4,1,1,30,0,0
103705,-100,4,1,1,40,0,0
104111,-100,4,1,1,30,0,0
105023,-100,4,1,1,25,0,0
105631,-100,4,1,1,40,0,0
105834,-100,4,1,1,30,0,0
108368,-100,4,1,1,25,0,0
110395,-100,4,1,1,40,0,0
110597,-100,4,1,1,30,0,0
110800,-100,4,1,1,25,0,0
111408,410.958904109589,4,1,1,30,1,0
111408,-100,4,1,1,30,0,0
112229,-100,4,1,1,40,0,0
112435,-100,4,1,1,30,0,0
113051,405.405405405405,4,2,1,35,1,0
113051,-100,4,2,1,35,0,0
113659,-100,4,2,1,45,0,0
113861,-100,4,2,1,35,0,0
115280,-100,4,2,1,45,0,0
115483,-100,4,2,1,35,0,0
116902,-100,4,2,1,45,0,0
117105,-100,4,2,1,35,0,0
117916,-100,4,2,1,30,0,0
118524,-100,4,2,1,40,0,0
118929,-100,4,2,1,30,0,0
119537,-100,4,2,1,35,0,0
120145,-100,4,2,1,45,0,0
120348,-100,4,2,1,35,0,0
121159,-100,4,2,1,40,0,0
121564,-100,4,2,1,45,0,0
122172,-100,4,2,1,25,0,0
122780,-100,4,2,1,30,0,0
123389,-100,4,2,1,40,0,0
123591,-100,4,2,1,30,0,0
124402,-100,4,2,1,25,0,0
125213,-100,4,2,1,20,0,0
126024,-100,4,2,1,30,0,0
128253,-100,4,2,1,40,0,0
128456,-100,4,2,1,30,0,0
129267,-100,4,2,1,45,0,0
130888,408.163265306122,4,2,1,30,1,0
130888,-100,4,2,1,30,0,0
131498,-100,4,2,1,40,0,0
131701,-100,4,2,1,30,0,0
132520,405.405405405405,4,2,1,30,1,0
132520,-100,4,2,1,30,0,0
133123,-100,4,2,1,40,0,0
133325,-100,4,2,1,30,0,0
134136,-100,4,2,1,40,0,0
134339,-100,4,2,1,30,0,0
134744,-100,4,2,1,40,0,0
134947,-100,4,2,1,25,0,0
135758,-100,4,3,1,10,0,0
139001,-100,4,2,1,10,0,0
153601,410.958904109589,4,2,1,10,1,0
155244,405.405405405405,4,2,1,10,1,0
161730,408.163265306122,4,2,1,10,1,0
163362,405.405405405405,4,2,1,10,1,0

[Colours]
Combo1 : 203,177,152
Combo2 : 201,94,71
Combo3 : 58,173,165
Combo4 : 84,101,150

[HitObjects]
38,142,2771,5,4,1:2:0:0:
113,76,3176,1,8,0:0:0:0:
211,92,3581,2,0,B|251:84|275:116|339:96,1,100,0|8,3:0|0:0,0:0:0:0:
330,116,4189,1,0,3:0:0:0:
351,128,4392,2,0,P|367:72|377:29,2,100,4|8|0,1:3|0:0|3:0,0:0:0:0:
435,182,5608,1,8,0:0:0:0:
459,279,6014,5,4,1:3:0:0:
370,325,6419,1,8,0:0:0:0:
291,262,6825,2,0,L|295:204,2,50,0|6|8,3:0|0:3|3:2,0:0:0:0:
210,321,7635,2,0,B|138:357|138:289|42:337,1,150,4|8,1:3|0:0,0:0:0:0:
39,330,8446,2,0,P|43:262|55:214,1,100,0|8,3:0|0:0,0:0:0:0:
117,157,9257,6,0,P|147:216|177:255,1,100,4|8,1:3|0:0,0:0:0:0:
191,245,9865,1,6,1:3:0:0:
215,245,10068,1,0,3:0:0:0:
306,205,10473,1,8,0:0:0:0:
253,119,10879,2,0,L|192:137,2,50,4|4|0,1:3|0:3|0:0,0:0:0:0:
313,39,11689,2,0,L|429:51,1,100,0|8,3:0|0:0,0:0:0:0:
478,126,12500,5,4,0:3:0:0:
433,215,12906,1,8,0:0:0:0:
338,185,13311,2,0,P|290:217|302:261,1,100,2|8,0:3|1:2,0:0:0:0:
359,329,14122,2,0,P|383:327|423:305,2,50,4|4|2,1:3|1:3|0:0,0:0:0:0:
339,344,14730,1,6,1:3:0:0:
316,354,14933,2,0,P|271:328|204:362,1,100,0|8,3:0|0:0,0:0:0:0:
128,359,15743,5,4,1:3:0:0:
93,265,16149,1,8,0:0:0:0:
185,223,16554,2,0,P|266:246|312:245,1,100,0|8,3:0|0:0,0:0:0:0:
303,235,17162,1,0,3:0:0:0:
325,223,17365,2,0,P|374:229|421:246,2,100,4|0|0,1:3|3:0|3:0,0:0:0:0:
229,191,18581,1,8,0:0:0:0:
149,129,18987,6,0,P|154:87|171:1,1,100,4|6,1:3|1:3,0:0:0:0:
64,30,19798,2,0,L|64:92,1,50,0|6,3:0|1:3,0:0:0:0:
64,105,20203,1,8,0:0:0:0:
58,204,20608,2,0,B|107:183|107:183|231:203,1,150,0|6,0:0|0:3,0:0:0:0:
226,206,21419,1,0,3:0:0:0:
210,304,21825,1,2,1:3:0:0:
285,354,22230,6,0,L|323:244,1,100,4|8,0:0|0:0,0:0:0:0:
353,165,23041,2,0,P|417:201|501:209,1,150,8|0,0:0|0:0,0:0:0:0:
491,184,23852,2,0,L|479:76,1,100,4|8,0:3|1:2,0:0:0:0:
460,69,24460,1,4,0:3:0:0:
437,57,24662,1,0,3:0:0:0:
343,93,25068,2,0,L|278:83,1,50,8|2,1:2|0:3,0:0:0:0:
278,105,25473,6,0,L|173:89,1,100,4|8,0:3|0:0,0:0:0:0:
79,95,26284,1,0,3:0:0:0:
49,190,26689,1,0,0:0:0:0:
146,212,27095,2,0,P|186:212|194:328,1,150,4|0,0:3|3:0,0:0:0:0:
209,322,27906,2,0,L|149:314,1,50,2|2,3:0|3:0,3:3:0:0:
141,334,28311,2,0,L|73:326,1,50,2|0,3:0|3:0,3:3:0:0:
69,340,28716,5,4,1:0:0:0:
5,263,29122,1,8,0:0:0:0:
96,222,29527,1,0,3:0:0:0:
64,126,29933,2,0,L|88:2,2,100,8|4|8,0:0|0:3|0:0,0:0:0:0:
61,150,30946,2,0,P|137:170|197:126,1,150,6|8,0:3|0:0,0:0:0:0:
280,85,31960,5,0,1:0:0:0:
344,161,32365,1,8,0:0:0:0:
437,125,32770,1,0,1:0:0:0:
417,26,33176,1,8,1:2:0:0:
317,13,33581,2,0,P|259:39|203:37,1,100,6|4,0:3|3:0,0:0:0:0:
198,36,34189,1,6,0:3:0:0:
174,26,34392,2,0,L|158:150,1,100,4|8,1:3|0:0,0:0:0:0:
76,179,35203,6,0,L|68:62,2,100,0|8|0,1:0|0:0|1:0,3:3:0:0:
127,264,36419,1,8,1:2:0:0:
217,220,36825,2,0,L|221:148,2,50,4|4|4,0:3|0:3|1:3,0:0:0:0:
226,243,37433,2,0,B|308:233|290:282|403:264,1,150,6|8,1:3|0:0,0:0:0:0:
470,252,38446,5,4,0:0:0:0:
455,157,38852,1,8,0:0:0:0:
455,157,39054,2,2,P|399:117|307:101,1,150,8|8,1:3|3:0,0:0:0:0:
281,192,40068,2,0,L|345:212,2,50,4|4|4,1:3|3:0|3:0,0:0:0:0:
256,185,40676,2,0,P|191:240|112:255,1,150,6|8,0:3|0:0,0:0:0:0:
34,224,41689,5,4,1:0:0:0:
53,125,42095,1,8,0:0:0:0:
152,127,42500,2,0,B|259:144,1,100,0|8,3:0|0:0,3:3:0:0:
276,45,43311,2,0,L|216:25,2,50,6|4|8,0:3|3:0|0:0,0:0:0:0:
295,60,43919,2,0,B|410:57|410:57|391:93,1,150,6|8,1:3|0:0,0:0:0:0:
321,157,44933,5,4,1:3:0:0:
250,227,45338,1,8,0:0:0:0:
285,320,45743,1,0,3:0:0:0:
385,322,46149,1,8,3:2:0:0:
423,229,46554,2,0,L|387:165,2,50,6|4|8,1:3|3:0|0:0,0:0:0:0:
432,252,47162,2,0,B|468:212|468:212|444:84,1,150,6|8,1:3|0:0,0:0:0:0:
395,33,48176,6,0,L|287:49,1,100,4|8,0:3|0:0,0:0:0:0:
201,80,48987,1,0,3:0:0:0:
271,150,49392,1,8,0:0:0:0:
187,205,49798,2,0,L|175:269,2,50,6|4|8,1:3|3:0|0:0,0:0:0:0:
171,185,50406,2,0,P|104:193|32:247,1,150,6|8,1:3|0:0,0:0:0:0:
90,324,51419,6,0,B|149:319|149:319|192:343|192:343|267:335,1,166.666666666667,4|4,1:3|0:3,0:0:0:0:
382,349,52635,1,8,0:0:0:0:
399,250,53041,2,0,L|414:186,1,66.6666666666667,6|4,0:3|0:3,0:0:0:0:
439,88,53716,2,0,B|387:68|387:68|301:110,1,133.333333333333,6|0,0:3|3:0,3:3:0:0:
233,156,54662,5,4,1:2:0:0:
169,78,55068,2,0,L|185:16,1,50,8|6,0:0|1:3,0:0:0:0:
85,30,55676,1,2,0:0:0:0:
85,30,55879,2,0,L|23:46,1,50,8|2,0:0|0:0,0:0:0:0:
40,66,56284,2,0,B|16:118|16:118|61:217,1,150,4|6,0:3|0:3,0:0:0:0:
152,222,57298,2,0,L|161:163,1,50,0|8,0:0|0:0,0:0:0:0:
256,146,57906,5,4,1:3:0:0:
329,213,58311,2,0,L|319:273,1,50,8|2,0:0|1:2,0:0:0:0:
235,314,58919,2,0,L|245:247,2,50,2|8|0,0:0|0:0|3:0,0:0:0:0:
238,338,59527,2,0,B|316:317|299:379|400:352,1,150,4|2,0:3|1:2,0:0:0:0:
469,305,60541,1,2,0:0:0:0:
469,305,60743,2,0,L|455:241,1,50,8|2,0:0|0:0,0:0:0:0:
451,232,61149,6,0,B|405:211|405:211|336:239,1,100,4|8,0:3|0:0,0:0:0:0:
338,243,61757,1,4,0:3:0:0:
208,47,62770,6,0,L|215:126,2,50,4|4|8,1:2|3:0|0:0,0:0:0:0:
228,32,63379,2,0,L|348:48,1,100,6|0,1:3|3:0,0:0:0:0:
350,55,63987,1,8,0:0:0:0:
383,148,64392,2,0,L|324:135,2,50,0|2|8,1:0|0:0|0:0,0:0:0:0:
403,162,65000,2,0,B|423:197|423:197|399:295,1,100,6|0,1:3|3:0,0:0:0:0:
400,278,65608,2,0,L|333:268,1,50,8|0,3:2|3:0,0:0:0:0:
327,280,66014,5,4,1:3:0:0:
262,356,66419,2,0,L|197:351,1,50,0|2,3:0|1:2,0:0:0:0:
171,260,67027,2,0,L|246:266,2,50,2|8|2,1:2|0:0|0:3,0:0:0:0:
146,256,67635,2,0,P|94:297|103:369,1,100,4|0,1:3|3:0,0:0:0:0:
82,351,68243,2,0,L|54:189,1,150,4|8,1:3|3:2,3:3:0:0:
166,101,69460,2,0,L|166:156,2,50,4|0|6,0:3|3:0|0:3,0:0:0:0:
277,324,70879,6,0,L|361:308,1,50,4|2,1:2|1:2,0:0:0:0:
424,332,71487,2,0,L|441:187,1,100,2|0,1:2|3:0,0:0:0:0:
438,207,72095,2,0,L|375:223,1,50,8|0,3:2|3:0,3:3:0:0:
364,214,72500,2,0,B|328:172|328:172|373:47,1,150,4|6,3:0|1:3,0:0:0:0:
277,26,73514,1,0,3:0:0:0:
277,26,73716,2,0,L|219:35,1,50,8|2,0:0|3:0,0:0:0:0:
203,41,74122,6,0,L|211:104,1,50,4|0,1:3|3:0,0:0:0:0:
217,190,74730,1,6,0:3:0:0:
124,228,75135,1,0,3:0:0:0:
60,150,75541,2,0,L|75:34,1,100,2|0,3:0|3:0,0:0:0:0:
170,30,76352,2,0,B|206:58|206:58|341:26,1,150,6|8,1:3|0:0,0:0:0:0:
485,146,77760,5,8,1:2:0:0:
400,198,78162,2,0,L|397:144,2,50,0|0|8,3:0|0:0|0:0,0:0:0:0:
378,297,78966,5,4,1:0:0:0:
378,297,79168,2,0,P|320:281|239:269,1,100,2|2,1:2|1:2,0:0:0:0:
185,303,79979,2,0,L|167:369,2,50,2|8|2,1:2|0:0|1:2,0:0:0:0:
178,278,80587,2,0,P|129:262|74:286,1,100,4|8,1:3|0:0,0:0:0:0:
59,277,81195,2,0,P|42:232|97:156,1,150,4|8,0:3|3:2,3:3:0:0:
180,100,82209,6,0,L|159:30,1,50,4|4,1:3|3:0,0:0:0:0:
256,10,82817,1,6,1:3:0:0:
334,72,83222,1,2,1:2:0:0:
282,157,83628,1,2,2:2:0:0:
282,157,87074,5,4,1:0:0:0:
370,109,87479,1,8,0:0:0:0:
459,153,87884,2,0,L|447:254,1,100,0|8,3:0|3:2,3:3:0:0:
363,307,88695,2,0,P|325:262|283:266,1,100,6|8,1:3|0:0,0:0:0:0:
192,293,89506,1,0,3:0:0:0:
119,224,89911,1,8,0:0:0:0:
190,153,90317,6,0,L|259:139,2,50,0|0|8,3:0|0:0|0:0,0:0:0:0:
90,142,91128,2,0,P|59:106|75:34,1,100,2|8,0:2|3:2,3:3:0:0:
151,15,91938,1,0,3:0:0:0:
151,15,93560,5,2,0:0:0:0:
64,64,93965,1,8,0:0:0:0:
148,117,94371,2,0,B|171:164|171:164|150:236,1,100,0|8,3:0|3:2,3:3:0:0:
70,259,95182,2,0,B|47:306|47:306|68:378,1,100,2|0,0:0|0:0,0:0:0:0:
153,314,95993,1,0,3:0:0:0:
243,356,96398,1,8,0:0:0:0:
295,270,96803,6,0,L|264:191,2,50,2|0|2,0:0|0:0|0:0,0:0:0:0:
368,337,97614,2,0,P|438:333|454:288,1,100,2|8,0:0|0:0,0:0:0:0:
481,217,98425,1,2,3:0:0:0:
413,143,98833,2,0,L|350:160,1,50,0|6,3:0|1:3,0:0:0:0:
341,165,99241,2,0,L|359:19,1,100,0|8,3:0|3:2,3:3:0:0:
254,46,100057,6,0,L|259:95,2,50,4|0|0,0:3|0:0|0:0,0:0:0:0:
162,5,100867,1,2,0:2:0:0:
72,49,101273,1,0,0:0:0:0:
66,148,101678,2,0,P|112:151|178:168,1,100,0|0,0:0|0:0,0:0:0:0:
243,217,102489,1,2,0:2:0:0:
189,301,102894,1,2,0:2:0:0:
273,354,103300,6,0,P|299:311|344:271,1,100,4|6,0:3|0:3,0:0:0:0:
358,284,103908,1,4,0:3:0:0:
382,290,104111,2,0,P|458:296|509:292,1,100,2|8,0:2|0:0,0:0:0:0:
491,195,104921,2,0,P|414:188|364:193,1,100,0|0,0:0|0:0,0:0:0:0:
291,196,105732,1,0,1:0:0:0:
301,96,106138,1,8,0:0:0:0:
213,47,106543,6,0,B|160:106|160:106|186:229,1,200,2|8,0:2|0:2,0:0:0:0:
210,320,107759,1,0,0:0:0:0:
113,344,108165,2,4,L|120:273,2,50,4|4|8,0:3|3:0|0:0,3:3:0:0:
26,294,108975,2,0,L|39:162,1,100,0|8,3:0|0:0,0:0:0:0:
51,95,109786,5,4,0:3:0:0:
137,145,110192,1,8,0:0:0:0:
207,73,110597,2,0,L|295:-4,1,100,0|0,3:0|0:0,3:3:0:0:
372,47,111408,2,0,B|328:91|328:91|360:187,1,150,4|2,0:3|0:3,0:0:0:0:
367,196,112229,2,0,L|433:175,1,50,8|8,0:0|0:0,0:0:0:0:
439,179,112640,2,0,L|449:233,1,50,8|4,0:2|3:0,0:0:0:0:
454,252,113051,5,4,1:2:0:0:
408,341,113456,1,2,1:3:0:0:
313,308,113861,2,0,L|312:199,1,100,2|2,3:2|1:3,0:0:0:0:
273,115,114672,2,0,P|232:159|153:168,1,100,4|2,0:3|0:3,0:0:0:0:
187,195,115280,2,0,P|119:171|26:204,1,150,4|8,1:3|0:0,0:0:0:0:
42,289,116294,5,4,1:2:0:0:
102,368,116699,1,2,1:3:0:0:
200,350,117105,1,2,3:2:0:0:
221,252,117510,1,2,1:3:0:0:
142,190,117915,2,0,L|48:240,1,100,6|8,1:3|0:0,0:0:0:0:
35,220,118523,1,4,1:3:0:0:
22,198,118726,2,0,L|42:73,1,100,4|8,1:3|0:0,0:0:0:0:
99,20,119537,5,4,1:2:0:0:
194,48,119942,1,2,0:3:0:0:
249,131,120348,2,0,L|231:246,1,100,2|2,3:2|1:3,0:0:0:0:
138,260,121159,2,0,L|116:189,2,50,4|4|4,1:3|3:0|1:3,0:0:0:0:
148,282,121767,2,0,P|217:332|280:312,1,150,6|8,1:3|0:0,0:0:0:0:
358,262,122780,6,0,P|344:209|351:142,1,100,4|8,1:0|0:0,0:0:0:0:
344,139,123388,2,0,P|409:153|474:158,1,100,4|0,0:3|3:0,0:0:0:0:
461,140,123996,1,8,1:0:0:0:
481,41,124402,1,4,0:3:0:0:
384,15,124807,1,6,1:3:0:0:
309,82,125213,2,0,L|302:162,2,50,0|0|8,3:0|3:0|0:0,0:0:0:0:
220,36,126023,6,0,P|157:57|103:64,1,100,4|2,1:2|1:3,0:0:0:0:
45,124,126834,2,0,P|97:141|145:164,1,100,2|10,3:2|1:2,0:0:0:0:
183,249,127645,2,0,L|151:311,2,50,4|4|8,1:3|3:0|0:0,0:0:0:0:
197,228,128253,2,0,P|246:227|307:249,1,100,4|0,1:3|3:0,0:0:0:0:
317,251,128861,1,8,0:0:0:0:
387,321,129267,6,0,L|463:301,1,50,4|2,1:2|0:0,0:0:0:0:
459,313,129672,2,0,L|451:242,1,50,8|6,0:0|0:3,0:0:0:0:
442,240,130078,2,0,P|439:160|447:113,1,100,2|8,3:2|0:0,0:0:0:0:
456,42,130888,2,0,L|525:62,2,50,6|4|2,1:3|3:0|0:3,0:0:0:0:
431,35,131500,2,0,P|366:78|285:51,1,150,4|8,1:3|0:0,0:0:0:0:
206,26,132520,5,4,1:2:0:0:
226,123,132925,2,0,L|238:184,1,50,2|4,0:3|1:3,0:0:0:0:
239,196,133330,2,0,P|165:176|119:171,1,100,2|8,3:2|1:2,0:0:0:0:
42,160,134141,2,0,L|67:85,2,50,4|4|2,1:3|3:0|1:3,0:0:0:0:
33,183,134749,2,0,L|50:333,1,150,4|8,1:3|0:0,0:0:0:0:
147,355,135763,5,4,0:2:0:0:
251,73,136979,1,4,0:2:0:0:
256,192,137182,12,0,139006,0:0:0:0:
45,77,140020,5,0,0:0:0:0:
45,77,140222,2,0,P|121:98|163:83,1,100,2|0,0:0|1:0,0:0:0:0:
164,88,140830,2,0,L|136:295,1,200,2|0,0:0|0:0,0:0:0:0:
217,345,142047,6,0,P|266:323|345:323,1,100,2|2,0:0|0:0,0:0:0:0:
367,235,142857,2,0,P|416:257|495:257,2,100,2|2|0,0:0|0:0|1:0,0:0:0:0:
281,181,144074,1,2,0:0:0:0:
342,102,144479,1,2,0:0:0:0:
260,44,144884,2,0,L|241:96,2,50,0|2|0,0:0|0:0|0:0,0:0:0:0:
260,44,147114,6,0,B|224:92|224:92|251:211,1,150,0|2,1:0|0:0,0:0:0:0:
206,274,148128,1,0,0:0:0:0:
206,274,148330,2,0,L|93:251,1,100,2|0,0:0|1:0,0:0:0:0:
83,259,148938,2,0,B|102:195|102:195|78:146|78:146|103:60,1,200,2|0,0:0|0:0,0:0:0:0:
192,32,150155,6,0,L|301:48,1,100,2|2,0:0|0:0,0:0:0:0:
345,130,150965,2,0,L|236:146,1,100,2|2,0:0|0:0,0:0:0:0:
195,231,151776,1,0,1:0:0:0:
293,248,152182,1,0,0:0:0:0:
350,329,152587,1,2,0:0:0:0:
252,346,152992,1,0,0:0:0:0:
252,346,155244,6,0,B|205:197|307:238|260:86,1,250,0|0,1:0|0:0,0:0:0:0:
180,50,156662,2,0,P|111:81|105:134,1,100,0|2,0:0|0:0,0:0:0:0:
79,344,158284,5,2,0:0:0:0:
47,249,158689,1,2,0:0:0:0:
139,211,159095,2,0,P|192:226|249:252,1,100,2|2,0:0|0:0,0:0:0:0:
332,230,159906,2,0,P|316:178|278:117,2,100,0|2|2,1:0|0:0|0:0,0:0:0:0:
329,330,161122,2,0,L|279:309,2,50,0|2|0,0:0|0:0|0:0,0:0:0:0:
329,330,163362,6,0,P|435:303|390:160,1,250,0|0,1:0|0:0,0:0:0:0:
333,148,164780,2,0,P|293:190|227:164,1,100,0|2,1:0|0:0,0:0:0:0:
56,29,166402,6,0,P|37:77|31:148,1,100,2|2,0:0|0:0,0:0:0:0:
111,183,167213,1,2,0:0:0:0:
199,135,167618,1,2,0:0:0:0:
282,190,168024,2,0,P|274:239|256:285,1,100,0|0,1:0|0:0,0:0:0:0:
180,350,168834,2,0,P|161:303|154:254,1,100,2|0,0:0|0:0,0:0:0:0:
