osu file format v14

[General]
AudioFilename: audio.mp3
AudioLeadIn: 0
PreviewTime: 2629
Countdown: 0
SampleSet: Soft
StackLeniency: 0.7
Mode: 0
LetterboxInBreaks: 0
WidescreenStoryboard: 0

[Editor]
DistanceSpacing: 1.3
BeatDivisor: 4
GridSize: 4
TimelineZoom: 1.299999

[Metadata]
Title:Flim
TitleUnicode:Flim
Artist:Aphex Twin
ArtistUnicode:Aphex Twin
Creator:PandaHero
Version:Insane
Source:
Tags:Electronic Instrumental Experimental IDM Film Come to Daddy Zuga
BeatmapID:2089279
BeatmapSetID:998953

[Difficulty]
HPDrainRate:6
CircleSize:5
OverallDifficulty:7
ApproachRate:8
SliderMultiplier:1.4
SliderTickRate:1

[Events]
//Background and Video events
0,0,"aircraft-2795557_1920.jpg",0,0
//Break Periods
//Storyboard Layer 0 (Background)
//Storyboard Layer 1 (Fail)
//Storyboard Layer 2 (Pass)
//Storyboard Layer 3 (Foreground)
//Storyboard Layer 4 (Overlay)
//Storyboard Sound Samples

[TimingPoints]
498,568.450971103742,4,2,0,20,1,0
2771,405.405405405405,4,2,1,25,1,0
2771,-100,4,2,1,25,0,0
11791,-100,4,2,1,15,0,0
11892,-100,4,2,1,5,0,0
12095,-100,4,2,1,25,0,0
13108,-100,4,2,1,5,0,0
13311,-100,4,2,1,25,0,0
18581,-100,4,2,1,15,0,0
18784,-100,4,2,1,35,0,0
18885,-100,4,2,1,25,0,0
21520,-100,4,2,1,35,0,0
21622,-100,4,2,1,25,0,0
21825,-100,4,2,1,20,0,0
22230,-100,4,2,1,25,0,0
24054,-100,4,2,1,15,0,0
24257,-100,4,2,1,25,0,0
28108,-76.9230769230769,4,2,1,35,0,0
28311,-62.5,4,2,1,45,0,0
28716,-100,4,2,1,25,0,0
33581,-100,4,2,1,20,0,0
35203,-100,4,2,1,25,0,0
37635,-100,4,2,1,20,0,0
38446,-100,4,2,1,25,0,0
41284,-100,4,2,1,20,0,0
41689,-100,4,2,1,25,0,0
44122,-100,4,2,1,15,0,0
44527,-100,4,2,1,30,0,0
46149,-100,4,2,1,25,0,0
53852,-100,4,2,1,15,0,0
54662,-100,4,2,1,25,0,0
61757,-200,4,2,1,25,0,0
61767,-200,4,2,0,5,0,0
62770,-100,4,2,1,25,0,0
69460,-100,4,2,1,20,0,0
70879,-100,4,2,1,25,0,0
72500,-100,4,2,1,15,0,0
72635,-100,4,2,1,18,0,0
72770,-100,4,2,1,23,0,0
72906,-100,4,2,1,25,0,0
75743,-100,4,2,1,10,0,0
75845,-100,4,2,1,15,0,0
75946,-100,4,2,1,20,0,0
76048,-100,4,2,1,25,0,0
76149,-100,4,2,1,35,0,0
76352,-100,4,2,1,25,0,0
77162,-100,4,2,1,15,0,0
77358,402.010050251256,4,2,1,15,1,0
78966,405.405405405405,4,2,1,25,1,0
87074,-100,4,2,1,25,0,0
90317,-100,4,1,1,25,0,0
91938,-100,4,2,1,20,0,0
92749,-100,4,2,1,25,0,0
94168,-100,4,1,1,30,0,0
95182,-100,4,2,1,25,0,0
97411,-100,4,2,1,10,0,0
97614,-100,4,2,1,15,0,0
98020,-100,4,2,1,20,0,0
98425,408.163265306122,4,2,1,25,1,0
98425,-100,4,2,1,25,0,0
99039,-100,4,2,1,30,0,0
100057,405.405405405405,4,1,1,30,1,0
100057,-100,4,1,1,30,0,0
102286,-100,4,1,1,35,0,0
102489,-100,4,1,1,30,0,0
103705,-100,4,1,1,40,0,0
104111,-100,4,1,1,30,0,0
105023,-100,4,1,1,25,0,0
105631,-100,4,1,1,40,0,0
105834,-100,4,1,1,30,0,0
108368,-100,4,1,1,25,0,0
110395,-100,4,1,1,40,0,0
110597,-100,4,1,1,30,0,0
110800,-100,4,1,1,25,0,0
111408,410.958904109589,4,1,1,30,1,0
111408,-100,4,1,1,30,0,0
112229,-100,4,1,1,40,0,0
112435,-100,4,1,1,30,0,0
113051,405.405405405405,4,2,1,35,1,0
113051,-83.3333333333333,4,2,1,35,0,0
113659,-83.3333333333333,4,2,1,45,0,0
113861,-83.3333333333333,4,2,1,35,0,0
115280,-83.3333333333333,4,2,1,45,0,0
115483,-83.3333333333333,4,2,1,35,0,0
116902,-83.3333333333333,4,2,1,45,0,0
117105,-83.3333333333333,4,2,1,35,0,0
117916,-83.3333333333333,4,2,1,30,0,0
118524,-83.3333333333333,4,2,1,40,0,0
118929,-83.3333333333333,4,2,1,30,0,0
119537,-83.3333333333333,4,2,1,35,0,0
120145,-83.3333333333333,4,2,1,45,0,0
120348,-83.3333333333333,4,2,1,35,0,0
121159,-83.3333333333333,4,2,1,40,0,0
121564,-83.3333333333333,4,2,1,45,0,0
122172,-83.3333333333333,4,2,1,25,0,0
122780,-83.3333333333333,4,2,1,30,0,0
123389,-83.3333333333333,4,2,1,40,0,0
123591,-83.3333333333333,4,2,1,30,0,0
124402,-83.3333333333333,4,2,1,25,0,0
125213,-83.3333333333333,4,2,1,20,0,0
126024,-83.3333333333333,4,2,1,30,0,0
128253,-83.3333333333333,4,2,1,40,0,0
128456,-83.3333333333333,4,2,1,30,0,0
129267,-83.3333333333333,4,2,1,45,0,0
130888,408.163265306122,4,2,1,30,1,0
130888,-83.3333333333333,4,2,1,30,0,0
131498,-83.3333333333333,4,2,1,40,0,0
131701,-83.3333333333333,4,2,1,30,0,0
132520,405.405405405405,4,2,1,30,1,0
132520,-83.3333333333333,4,2,1,30,0,0
133123,-83.3333333333333,4,2,1,40,0,0
133325,-83.3333333333333,4,2,1,30,0,0
134136,-83.3333333333333,4,2,1,40,0,0
134339,-83.3333333333333,4,2,1,30,0,0
134744,-83.3333333333333,4,2,1,40,0,0
134947,-83.3333333333333,4,2,1,25,0,0
135758,-200,4,3,1,10,0,0
139001,-200,4,2,1,10,0,0
153601,410.958904109589,4,2,1,10,1,0
155244,405.405405405405,4,2,1,10,1,0
161730,408.163265306122,4,2,1,10,1,0
163362,405.405405405405,4,2,1,10,1,0

[Colours]
Combo1 : 203,177,152
Combo2 : 201,94,71
Combo3 : 58,173,165
Combo4 : 84,101,150

[HitObjects]
256,192,498,12,0,2629,0:0:0:0:
207,104,2771,6,0,P|198:168|194:238,1,105,4|4,1:2|0:3,0:0:0:0:
194,208,3176,1,8,0:0:0:0:
285,209,3379,1,6,0:3:0:0:
350,273,3581,1,0,3:0:0:0:
350,273,3683,1,8,3:2:0:0:
350,273,3784,1,2,3:0:0:0:
350,157,3987,1,8,0:0:0:0:
346,136,4088,1,6,0:3:0:0:
377,59,4291,1,6,0:3:0:0:
373,38,4392,1,4,1:3:0:0:
436,114,4595,1,4,0:3:0:0:
459,196,4798,6,0,L|443:235,2,35,8|0|6,0:0|0:0|1:3,0:0:0:0:
361,222,5203,2,0,L|367:271,2,35,0|8|6,3:0|3:2|0:3,0:0:0:0:
263,232,5608,1,8,0:0:0:0:
226,322,5811,1,2,0:0:0:0:
223,137,6014,5,4,1:3:0:0:
316,131,6216,1,4,0:3:0:0:
316,131,6318,1,4,0:3:0:0:
316,131,6419,1,8,0:0:0:0:
138,84,6622,1,6,0:3:0:0:
215,37,6825,1,0,3:0:0:0:
215,37,6926,1,8,3:2:0:0:
215,37,7027,1,6,0:3:0:0:
61,85,7230,2,0,L|37:97,6,17.5,8|0|0|0|2|0|0,3:2|3:0|3:0|3:0|3:0|3:0|3:0,3:0:0:0:
90,102,7635,6,0,P|119:144|172:150,1,105,4|4,1:3|0:3,0:0:0:0:
169,150,8041,1,0,3:0:0:0:
267,114,8243,1,8,0:0:0:0:
197,67,8446,1,0,3:0:0:0:
197,67,8548,1,8,3:2:0:0:
197,67,8649,1,6,3:0:0:0:
233,222,8852,1,8,0:0:0:0:
229,242,8953,1,4,0:3:0:0:
224,262,9054,1,0,3:0:0:0:
218,282,9156,1,4,3:0:0:0:
212,302,9257,6,0,P|165:293|103:318,1,105,4|0,1:3|3:0,0:0:0:0:
112,311,9662,1,8,0:0:0:0:
44,362,9865,1,6,1:3:0:0:
35,263,10068,1,0,3:0:0:0:
35,263,10169,1,0,3:0:0:0:
35,263,10270,1,0,3:0:0:0:
113,213,10473,1,8,0:0:0:0:
113,213,10575,1,4,3:0:0:0:
113,213,10676,1,0,3:0:0:0:
267,253,10879,6,0,P|288:293|302:342,1,70,4|4,1:3|0:3,0:0:0:0:
301,336,11183,2,0,P|366:326|411:341,1,105,4|4,1:3|0:3,0:0:0:0:
434,251,11689,2,0,L|479:270,3,35,0|8|4|4,3:0|3:2|3:0|3:0,3:0:0:0:
399,243,12095,2,0,P|392:191|403:142,1,70,8|2,0:0|0:3,0:0:0:0:
423,88,12500,5,4,0:3:0:0:
485,154,12703,1,4,0:3:0:0:
500,65,12906,2,0,L|504:36,6,17.5,8|0|0|0|4|0|0,0:0|3:0|3:0|3:0|3:0|3:0|3:0,3:0:0:0:
411,104,13311,2,0,B|386:115|386:115|347:100,2,46.6666666666667,2|0|0,0:3|3:0|3:0,0:0:0:0:
333,14,13716,5,8,1:2:0:0:
328,34,13818,1,4,0:3:0:0:
321,53,13919,2,0,L|285:44,1,35,2|4,0:3|0:3,0:0:0:0:
146,59,14122,5,4,1:3:0:0:
239,120,14325,1,4,1:3:0:0:
239,120,14426,1,4,0:3:0:0:
239,120,14527,1,2,0:0:0:0:
222,217,14730,1,6,1:3:0:0:
328,155,14933,2,0,L|366:133,2,35,0|8|6,3:0|3:2|0:3,0:0:0:0:
150,151,15338,1,8,0:0:0:0:
129,145,15439,1,4,0:3:0:0:
108,140,15541,1,0,3:0:0:0:
87,134,15642,1,4,0:3:0:0:
66,129,15743,1,4,1:3:0:0:
26,211,15946,5,4,0:3:0:0:
26,211,16048,1,4,0:3:0:0:
26,211,16149,1,8,0:0:0:0:
110,253,16352,1,6,1:3:0:0:
41,302,16554,2,0,L|10:331,2,35,0|8|6,3:0|3:2|0:3,0:0:0:0:
183,192,16960,1,8,0:0:0:0:
183,192,17061,1,4,1:3:0:0:
256,253,17264,1,4,0:3:0:0:
256,253,17365,6,0,P|259:303|255:349,1,70,4|4,1:3|0:3,0:0:0:0:
258,322,17669,1,4,0:3:0:0:
258,322,17770,1,0,3:0:0:0:
191,360,17973,1,6,1:3:0:0:
330,291,18176,1,0,3:0:0:0:
350,291,18277,1,8,3:2:0:0:
370,294,18379,1,4,1:3:0:0:
389,301,18480,1,4,0:3:0:0:
407,309,18581,2,0,P|426:320|446:337,3,35,8|0|2|0,0:0|0:0|0:0|0:0,0:0:0:0:
377,261,18987,6,0,P|375:209|389:159,1,105,4|8,1:3|0:0,0:0:0:0:
386,138,19392,2,0,L|332:140,1,35,6|0,1:3|0:0,0:0:0:0:
425,79,19595,2,0,L|472:88,1,35,6|0,0:3|0:0,0:0:0:0:
348,33,19798,1,0,3:0:0:0:
348,33,19899,1,8,3:2:0:0:
348,33,20000,2,0,L|299:37,1,35,6|4,1:3|0:3,0:0:0:0:
266,101,20203,5,8,0:0:0:0:
261,121,20304,1,4,0:3:0:0:
255,141,20406,2,0,L|264:206,1,35,0|4,3:0|0:3,0:0:0:0:
148,75,20710,5,4,0:3:0:0:
148,54,20811,1,4,0:3:0:0:
147,33,20912,1,4,1:3:0:0:
28,108,21115,1,0,0:0:0:0:
28,108,21216,1,6,0:3:0:0:
28,108,21318,2,0,L|26:49,1,35,6|0,1:3|3:0,0:0:0:0:
133,171,21520,1,2,3:0:0:0:
133,171,21622,2,0,L|135:230,1,35,4|4,0:3|0:3,0:0:0:0:
40,250,21825,1,2,1:3:0:0:
40,250,21926,2,0,L|38:201,1,35,4|0,0:3|3:0,0:0:0:0:
76,349,22129,1,4,0:3:0:0:
76,349,22230,6,2,P|128:371|185:362,1,105,4|0,0:0|0:0,0:0:0:0:
193,356,22635,2,0,L|219:349,6,17.5,8|0|0|0|0|0|0,0:0|0:0|3:0|3:0|3:0|0:0|3:0,0:0:0:0:
221,284,23041,1,8,0:0:0:0:
297,274,23243,1,8,0:0:0:0:
297,274,23345,1,8,1:2:0:0:
248,209,23548,1,8,0:0:0:0:
350,334,23750,1,8,1:2:0:0:
350,334,23852,1,4,0:3:0:0:
350,218,24054,6,0,L|344:178,2,35,4|4|8,0:3|0:3|1:2,0:0:0:0:
441,229,24460,1,4,0:3:0:0:
434,140,24662,2,0,L|433:110,6,17.5,0|0|8|0|2|0|8,3:0|3:0|3:2|3:0|3:0|3:0|3:2,3:0:0:0:
474,122,25068,2,0,P|473:82|463:47,1,70,8|2,1:2|0:3,0:0:0:0:
347,167,25473,5,4,0:3:0:0:
389,242,25676,1,4,0:3:0:0:
389,242,25777,1,4,0:3:0:0:
389,242,25879,1,8,0:0:0:0:
309,232,26081,1,6,0:3:0:0:
250,275,26284,2,0,L|259:298,2,17.5,0|0|0,3:0|3:0|3:0,3:0:0:0:
229,271,26487,1,6,0:3:0:0:
208,274,26588,1,4,0:3:0:0:
163,341,26791,1,6,0:3:0:0:
61,223,27095,5,4,0:3:0:0:
61,223,27196,1,4,0:3:0:0:
108,135,27399,1,4,0:3:0:0:
108,135,27500,2,0,L|132:128,4,17.5,8|0|0|0|0,3:2|3:0|3:0|3:0|3:0,3:0:0:0:
163,62,27906,6,0,L|186:72,2,17.5,2|0|0,3:0|3:0|3:0,3:0:0:0:
248,46,28108,6,0,L|253:74,2,22.7499989585877,2|0|0,3:0|3:0|3:0,3:0:0:0:
326,80,28311,6,0,L|317:127,4,28,2|0|0|0|0,3:0|3:0|3:0|3:0|3:0,3:0:0:0:
255,148,28615,5,2,0:3:0:0:
255,148,28716,2,0,P|251:203|250:257,1,105,4|0,1:0|3:0,0:0:0:0:
258,272,29122,1,8,0:0:0:0:
359,238,29325,1,2,0:3:0:0:
437,297,29527,2,0,L|427:347,2,35,0|0|0,3:0|3:0|3:0,3:0:0:0:
436,201,29933,1,8,0:0:0:0:
436,201,30034,1,4,3:0:0:0:
436,201,30135,2,0,L|447:148,1,35,2|0,0:3|0:0,0:0:0:0:
337,242,30338,5,4,0:3:0:0:
314,328,30541,1,4,0:3:0:0:
314,328,30642,1,4,0:3:0:0:
314,328,30743,2,0,P|330:358|375:372,1,70,8|6,0:0|0:3,0:0:0:0:
222,277,31149,2,0,P|197:280|172:288,3,35,0|0|0|0,0:0|0:0|0:0|0:0,0:0:0:0:
110,262,31554,1,8,0:0:0:0:
61,349,31757,1,2,0:3:0:0:
17,146,31960,5,0,1:0:0:0:
107,171,32162,1,0,0:0:0:0:
107,171,32264,1,0,3:0:0:0:
107,171,32365,1,8,0:0:0:0:
129,80,32568,1,6,1:3:0:0:
158,235,32770,2,0,L|141:298,3,35,0|0|0|0,1:0|3:0|3:0|3:0,3:0:0:0:
232,190,33176,2,0,L|228:151,3,35,8|0|2|0,1:2|3:0|3:2|3:0,3:0:0:0:
286,248,33581,5,6,0:3:0:0:
357,275,33784,1,4,0:3:0:0:
357,275,33885,1,4,0:3:0:0:
357,275,33987,1,4,3:0:0:0:
340,203,34189,1,6,0:3:0:0:
260,327,34392,1,4,1:3:0:0:
260,327,34493,1,2,3:0:0:0:
260,327,34595,1,0,3:0:0:0:
260,327,34696,1,0,0:0:0:0:
260,327,34798,2,0,L|316:328,1,35,8|0,0:0|0:0,0:0:0:0:
360,364,35000,2,0,L|401:363,1,35,2|0,0:3|0:0,0:0:0:0:
466,322,35203,6,0,P|465:258|459:212,1,105,0|0,1:0|0:0,0:0:0:0:
443,195,35608,2,0,P|405:212|364:216,1,70,8|6,0:0|0:3,0:0:0:0:
257,173,36014,2,0,L|205:158,3,35,0|0|0|0,1:0|3:0|3:0|3:0,3:0:0:0:
305,120,36419,1,8,1:2:0:0:
325,101,36520,1,0,0:0:0:0:
335,74,36622,1,0,3:0:0:0:
338,46,36723,1,0,0:0:0:0:
335,17,36825,1,4,0:3:0:0:
466,87,37027,5,4,0:3:0:0:
466,87,37129,1,4,0:3:0:0:
466,87,37230,1,4,1:3:0:0:
404,120,37433,1,6,1:3:0:0:
475,169,37635,1,0,3:0:0:0:
475,169,37737,1,2,3:0:0:0:
475,169,37838,1,2,3:0:0:0:
475,169,37939,1,0,3:0:0:0:
475,169,38041,2,0,L|476:231,1,35,8|0,0:0|0:0,0:0:0:0:
318,173,38243,2,0,L|323:126,1,35,2|0,0:3|0:0,0:0:0:0:
247,206,38446,6,0,P|252:278|256:320,1,105,4|0,0:0|0:0,0:0:0:0:
200,358,38852,2,0,L|146:344,1,35,8|0,0:0|0:0,0:0:0:0:
96,335,39054,2,2,P|52:356|37:280,1,140,8|0,1:3|3:0,0:0:0:0:
124,184,39662,1,0,3:0:0:0:
124,184,39764,1,0,3:0:0:0:
124,184,39865,1,0,3:0:0:0:
288,189,40068,5,4,1:3:0:0:
347,263,40270,1,4,3:0:0:0:
347,263,40372,1,4,3:0:0:0:
347,263,40473,1,4,3:0:0:0:
211,163,40676,2,0,L|235:19,1,140,6|0,0:3|3:0,0:0:0:0:
246,254,41284,2,0,L|238:302,1,35,8|0,0:0|0:0,0:0:0:0:
168,312,41487,2,0,L|163:362,1,35,2|0,0:3|0:0,0:0:0:0:
303,338,41689,6,0,P|352:362|423:340,1,105,4|0,1:0|3:0,0:0:0:0:
418,343,42095,1,8,0:0:0:0:
463,264,42298,1,6,0:3:0:0:
377,228,42500,2,0,L|335:253,3,35,0|0|0|0,3:0|3:0|3:0|3:0,3:0:0:0:
432,187,42906,1,8,0:0:0:0:
432,187,43007,2,0,P|425:148|412:112,1,70,4|0,0:3|0:0,0:0:0:0:
350,85,43311,5,6,0:3:0:0:
262,142,43514,1,4,3:0:0:0:
262,162,43615,1,4,3:0:0:0:
263,182,43716,1,8,0:0:0:0:
145,115,43919,1,6,1:3:0:0:
172,38,44122,2,0,L|208:28,3,35,0|8|0|0,3:0|3:2|3:0|3:0,3:0:0:0:
101,37,44527,2,0,P|65:56|50:109,1,70,8|2,0:0|0:3,0:0:0:0:
68,202,44933,5,4,1:3:0:0:
209,169,45135,1,2,0:0:0:0:
209,169,45237,1,2,0:3:0:0:
209,169,45338,1,8,0:0:0:0:
154,250,45541,1,6,0:3:0:0:
308,193,45743,2,0,L|361:169,3,35,0|0|0|0,3:0|3:0|3:0|3:0,3:0:0:0:
257,243,46149,1,8,3:2:0:0:
253,263,46250,1,0,3:0:0:0:
249,283,46352,1,0,3:0:0:0:
246,303,46453,1,0,3:0:0:0:
244,323,46554,6,0,P|182:316|153:318,1,70,6|4,1:3|3:0,0:0:0:0:
174,316,46858,1,4,3:0:0:0:
174,316,46960,1,8,0:0:0:0:
89,350,47162,1,6,1:3:0:0:
57,268,47365,2,0,L|41:228,3,35,0|0|0|0,3:0|3:0|3:0|3:0,3:0:0:0:
130,239,47770,1,8,0:0:0:0:
154,123,47973,1,2,0:3:0:0:
232,234,48176,6,0,P|242:303|241:363,1,105,4|0,0:3|3:0,0:0:0:0:
242,338,48581,2,0,P|190:332|163:335,1,70,8|6,0:0|1:3,0:0:0:0:
308,249,48987,1,0,3:0:0:0:
326,259,49088,1,8,3:2:0:0:
344,268,49189,1,0,3:0:0:0:
363,276,49291,1,0,3:0:0:0:
381,284,49392,2,0,L|433:278,1,35,8|4,0:0|0:3,0:0:0:0:
474,323,49595,2,0,L|516:315,1,35,0|0,3:0|0:0,0:0:0:0:
424,184,49798,5,6,1:3:0:0:
328,152,50000,1,4,3:0:0:0:
328,152,50102,1,4,3:0:0:0:
328,152,50203,1,8,0:0:0:0:
234,195,50406,2,0,P|210:238|139:264,1,105,6|0,1:3|3:0,0:0:0:0:
141,256,50811,1,0,3:0:0:0:
55,193,51014,1,8,0:0:0:0:
136,131,51216,1,2,0:3:0:0:
4,272,51419,6,0,L|17:393,1,105,4|0,1:3|3:0,0:0:0:0:
41,346,51825,6,0,L|32:251,1,93.3333333333333,8|4,0:0|0:3,0:0:0:0:
29,182,52230,6,0,L|96:207,1,46.6666666666667,2|0,3:0|3:0,3:0:0:0:
134,151,52500,1,0,3:0:0:0:
134,151,52635,2,0,L|148:89,1,46.6666666666667,8|0,0:0|3:0,0:0:0:0:
137,227,52906,5,0,3:0:0:0:
137,227,53041,2,0,B|121:269|121:269|127:329,1,93.3333333333333,6|4,0:3|0:3,0:0:0:0:
131,349,53446,2,0,B|175:328|175:328|236:338,1,93.3333333333333,0|6,3:0|0:3,0:0:0:0:
245,345,53852,2,0,L|304:338,2,46.6666666666667,0|0|0,3:0|3:0|3:0,3:0:0:0:
328,257,54257,2,0,L|261:265,2,46.6666666666667,0|0|0,3:0|3:0|3:0,3:0:0:0:
451,308,54662,5,4,1:2:0:0:
374,162,54865,1,2,0:0:0:0:
374,162,54966,1,0,3:0:0:0:
374,162,55068,2,0,P|335:157|281:157,1,70,8|6,0:0|1:3,0:0:0:0:
208,184,55473,1,0,3:0:0:0:
231,67,55676,1,2,0:0:0:0:
231,67,55777,1,0,0:0:0:0:
231,67,55879,2,0,L|241:8,1,35,8|0,0:0|0:0,0:0:0:0:
312,8,56081,2,0,L|305:61,1,35,2|0,0:0|0:0,0:0:0:0:
144,123,56284,5,4,0:3:0:0:
53,89,56487,1,4,3:0:0:0:
53,89,56588,1,4,3:0:0:0:
53,89,56689,1,0,3:0:0:0:
144,21,56892,2,0,B|167:66|167:66|159:173,1,140,6|0,0:3|0:0,0:0:0:0:
28,216,57500,2,0,L|23:182,1,35,8|0,0:0|0:0,0:0:0:0:
108,260,57703,2,0,L|96:320,1,35,2|0,0:3|0:0,0:0:0:0:
180,360,57906,6,0,L|196:264,2,70,4|2|8,1:3|0:0|0:0,0:0:0:0:
286,226,58514,2,0,P|252:217|204:187,1,70,2|0,1:2|0:0,0:0:0:0:
368,181,58919,1,2,0:0:0:0:
383,194,59020,1,0,3:0:0:0:
402,201,59122,1,8,0:0:0:0:
422,205,59223,1,4,1:3:0:0:
442,202,59325,2,0,L|490:181,1,35,0|0,3:0|0:0,0:0:0:0:
323,88,59527,5,4,0:3:0:0:
416,47,59730,1,2,1:2:0:0:
416,47,59831,1,4,3:0:0:0:
416,47,59933,1,0,3:0:0:0:
248,42,60135,2,0,P|205:42|150:48,1,70,2|0,1:2|0:0,0:0:0:0:
273,144,60541,1,2,0:0:0:0:
198,182,60743,1,8,0:0:0:0:
272,221,60946,1,2,0:0:0:0:
97,164,61149,5,4,0:3:0:0:
97,164,61453,1,2,3:0:0:0:
97,164,61554,1,8,0:0:0:0:
30,205,61757,2,0,L|40:358,1,140,4|0,0:3|0:0,0:0:0:0:
150,275,62770,5,4,1:2:0:0:
242,291,62973,1,4,3:0:0:0:
242,291,63075,1,4,3:0:0:0:
242,291,63176,1,8,0:0:0:0:
220,132,63379,1,6,1:3:0:0:
136,152,63581,2,0,L|143:188,2,35
152,61,63987,1,8,0:0:0:0:
243,106,64189,1,0,0:0:0:0:
329,21,64392,6,0,L|322:117,2,70,0|2|8,1:0|0:0|0:0,0:0:0:0:
415,131,65000,1,6,1:3:0:0:
351,211,65203,1,0,3:0:0:0:
339,228,65304,1,0,3:0:0:0:
330,247,65406,1,0,3:0:0:0:
323,266,65507,1,0,3:0:0:0:
319,286,65608,2,0,L|319:320,3,35,8|4|0|0,3:2|0:3|3:0|3:0,0:0:0:0:
410,280,66014,5,4,1:3:0:0:
476,353,66216,1,2,1:2:0:0:
476,353,66318,1,4,3:0:0:0:
476,353,66419,1,0,3:0:0:0:
348,332,66622,2,0,L|274:357,1,70,2|0,1:2|0:0,0:0:0:0:
140,348,67027,2,0,L|219:305,1,70,2|8,1:2|0:0,0:0:0:0:
328,232,67433,1,2,0:3:0:0:
256,261,67635,5,4,1:3:0:0:
268,31,67939,1,0,3:0:0:0:
268,31,68041,1,0,3:0:0:0:
207,71,68243,1,4,1:3:0:0:
272,100,68446,2,0,L|319:116,3,35,0|0|0|0,3:0|3:0|3:0|3:0,3:0:0:0:
140,135,68852,2,0,L|90:122,3,35,8|4|0|0,3:2|0:3|3:0|3:0,3:0:0:0:
38,202,69460,5,4,0:3:0:0:
101,227,69662,1,0,3:0:0:0:
50,275,69865,1,6,0:3:0:0:
50,275,69966,1,0,3:0:0:0:
50,275,70068,2,0,L|23:317,2,35,0|0|0,3:0|3:0|3:0,3:0:0:0:
175,242,70473,1,8,0:0:0:0:
194,308,70676,1,0,3:0:0:0:
234,186,70879,5,4,1:2:0:0:
304,210,71081,1,2,1:2:0:0:
304,210,71183,1,0,3:0:0:0:
304,210,71284,2,0,P|343:224|390:225,1,70,8|2,0:0|1:2,0:0:0:0:
479,171,71689,1,0,3:0:0:0:
476,149,71791,1,0,3:0:0:0:
472,128,71892,1,0,3:0:0:0:
469,107,71993,1,0,3:0:0:0:
467,85,72095,2,0,L|455:26,2,35,8|0|0,3:2|3:0|3:0,3:0:0:0:
367,72,72500,6,0,B|346:85|346:85|324:81,2,46.6666666666667,4|2|4,3:0|3:0|3:0,3:0:0:0:
392,142,72906,2,0,L|376:238,1,70,8|6,0:0|1:3,0:0:0:0:
302,262,73311,2,0,L|292:218,3,35,0|0|0|0,3:0|3:0|3:0|3:0,3:0:0:0:
278,293,73716,2,0,P|232:293|189:282,1,70,8|2,0:0|3:0,0:0:0:0:
105,241,74122,6,0,P|107:297|86:355,1,105,4|0,1:3|3:0,0:0:0:0:
92,343,74527,1,8,0:0:0:0:
15,255,74730,1,6,0:3:0:0:
86,153,74933,1,0,3:0:0:0:
106,157,75034,1,0,3:0:0:0:
126,161,75135,1,0,3:0:0:0:
146,165,75237,1,0,3:0:0:0:
166,170,75338,1,8,3:2:0:0:
186,175,75439,1,0,3:0:0:0:
206,179,75541,2,0,L|248:171,1,35,2|0,3:0|0:0,0:0:0:0:
310,185,75743,6,0,L|334:184,8,17.5,0|0|0|0|0|0|0|0|0,3:0|3:0|3:0|3:0|3:0|3:0|3:0|3:0|3:0,3:0:0:0:
224,81,76352,1,6,1:3:0:0:
263,277,76554,1,0,3:0:0:0:
263,277,76656,1,0,3:0:0:0:
263,277,76757,1,0,3:0:0:0:
240,172,76960,1,8,0:0:0:0:
182,338,77162,1,2,3:0:0:0:
182,338,77659,5,0,3:0:0:0:
182,338,77760,1,8,1:2:0:0:
250,322,78162,1,0,3:0:0:0:
250,322,78262,1,0,3:0:0:0:
324,342,78463,1,4,3:0:0:0:
324,342,78564,1,8,0:0:0:0:
324,342,78664,1,4,1:3:0:0:
324,342,78765,2,0,L|381:352,1,35,0|0,3:0|3:0,3:0:0:0:
158,243,78966,5,4,1:0:0:0:
83,299,79168,2,0,P|53:332|31:368,1,70,2|0,1:2|0:0,0:0:0:0:
56,128,79574,2,0,P|74:173|85:224,1,70,2|0,1:2|0:0,0:0:0:0:
168,98,79979,1,2,1:2:0:0:
168,98,80080,1,2,3:0:0:0:
168,98,80182,1,8,0:0:0:0:
75,31,80384,1,2,1:2:0:0:
261,131,80587,6,0,P|319:120|372:77,1,105,4|0,1:3|3:0,0:0:0:0:
356,94,80993,1,8,0:0:0:0:
452,182,81195,1,4,0:3:0:0:
441,215,81297,1,4,0:3:0:0:
427,247,81398,1,4,3:0:0:0:
414,279,81499,1,4,3:0:0:0:
404,313,81601,1,4,3:0:0:0:
290,342,81803,2,0,L|288:319,2,23.3333333333333,8|0|0,3:2|3:0|3:0,3:0:0:0:
214,280,82006,2,0,L|215:297,3,11.6666666666667,0|0|0|0,3:0|3:0|3:0|3:0,3:0:0:0:
297,215,82209,5,4,1:3:0:0:
209,169,82411,1,4,3:0:0:0:
209,169,82513,1,4,3:0:0:0:
209,169,82614,1,0,3:0:0:0:
375,85,82817,2,0,P|423:93|461:121,1,70,6|0,1:3|0:0,0:0:0:0:
293,49,83222,1,2,1:2:0:0:
280,148,83425,1,8,0:0:0:0:
367,217,83628,5,2,2:2:0:0:
367,217,83729,2,0,L|368:194,2,17.5,0|0|0,1:0|0:0|0:0,0:0:0:0:
388,284,83932,6,0,L|387:314,2,17.5,0|0|0,1:0|0:0|0:0,0:0:0:0:
435,238,84134,6,0,L|435:216,2,17.5,0|0|0,1:0|0:0|0:0,0:0:0:0:
454,259,84337,6,0,L|455:278,2,17.5
176,308,84641,6,0,L|173:371,2,58.3333333333333,0|0|0,0:0|3:0|0:0,0:0:0:0:
148,291,85047,6,0,L|147:267,5,23.3333333333333
142,232,87074,5,4,1:0:0:0:
78,172,87276,1,4,3:0:0:0:
78,172,87378,1,4,3:0:0:0:
78,172,87479,2,0,P|17:188|-7:190,1,70,8|6,0:0|0:3,0:0:0:0:
102,78,87884,2,0,L|143:83,3,35,0|8|4|4,3:0|3:2|3:0|3:0,3:0:0:0:
206,30,88290,2,0,L|244:59,3,35,8|4|6|0,3:2|3:0|3:0|3:0,3:0:0:0:
206,125,88695,5,6,1:3:0:0:
190,223,88898,1,4,3:0:0:0:
190,223,88999,1,4,3:0:0:0:
190,223,89101,1,8,0:0:0:0:
95,201,89303,1,6,0:3:0:0:
277,217,89506,5,0,3:0:0:0:
277,217,89607,1,8,3:2:0:0:
277,217,89709,1,4,3:0:0:0:
289,318,89911,1,8,0:0:0:0:
392,302,90114,1,2,0:3:0:0:
186,349,90317,6,2,B|141:330|141:330|77:351,1,105,0|0,3:0|3:0,0:2:0:0:
67,353,90722,1,8,0:0:0:0:
2,281,90925,1,4,0:3:0:0:
136,187,91128,1,2,0:2:0:0:
136,187,91229,1,8,0:2:0:0:
136,187,91330,1,0,0:0:0:0:
50,160,91533,2,0,L|54:191,4,17.5,8|0|0|0|0,3:2|3:0|3:0|3:0|3:0,3:0:0:0:
186,102,91938,6,0,P|239:135|332:115,2,140,0|2|2,3:0|0:0|0:0,0:0:0:0:
120,34,92952,1,0,3:0:0:0:
206,18,93155,1,8,0:0:0:0:
206,18,93256,1,0,0:0:0:0:
206,18,93357,1,2,0:3:0:0:
37,131,93560,6,0,L|45:255,1,105,2|0,0:0|3:0,0:0:0:0:
43,235,93965,1,8,0:0:0:0:
172,208,94168,1,6,0:3:0:0:
123,282,94371,2,0,L|135:338,3,35,0|2|0|0,3:0|3:0|3:0|3:0,3:0:0:0:
251,193,94776,2,0,L|223:136,3,35,8|0|2|0,3:2|3:0|3:0|3:0,3:0:0:0:
351,250,95182,6,0,P|416:283|484:265,1,140,2|0,0:0|0:0,0:0:0:0:
478,268,95790,1,6,0:3:0:0:
281,282,95993,2,0,P|274:316|271:377,1,70,0|0,3:0|0:0,0:0:0:0:
225,218,96398,2,0,P|223:173|214:139,2,70,8|0|2,0:0|3:0|0:0,0:0:0:0:
289,34,97209,5,2,0:0:0:0:
190,32,97411,1,4,3:0:0:0:
135,113,97614,2,0,L|140:196,2,46.6666666666667,2|0|0,0:0|3:0|3:0,0:0:0:0:
68,78,98020,2,0,L|65:44,2,35,8|0|0,0:0|0:0|0:0,0:0:0:0:
39,219,98425,5,2,3:0:0:0:
87,296,98629,2,0,L|89:340,2,35,0|0|0,3:0|3:0|3:0,3:0:0:0:
243,219,99037,1,6,1:3:0:0:
180,272,99241,1,0,3:0:0:0:
180,272,99343,1,8,3:2:0:0:
180,272,99445,2,0,L|183:330,1,35,0|0,3:0|3:0,3:0:0:0:
264,128,99649,2,0,L|262:76,1,35,8|0,3:2|3:0,3:0:0:0:
345,133,99853,2,0,L|342:181,1,35,2|0,3:0|3:0,3:0:0:0:
345,251,100057,5,4,0:3:0:0:
492,211,100259,1,0,0:0:0:0:
492,211,100361,1,0,0:0:0:0:
492,211,100462,1,0,0:0:0:0:
448,358,100665,1,4,0:3:0:0:
423,273,100867,5,2,0:2:0:0:
300,302,101070,1,0,0:0:0:0:
300,302,101171,1,2,0:3:0:0:
183,324,101374,1,2,0:2:0:0:
270,211,101577,5,2,0:3:0:0:
270,211,101678,2,0,P|270:169|269:128,1,70,0|4,0:0|3:0,0:0:0:0:
257,123,101982,2,0,B|214:141|214:141|144:119,1,105,4|4,0:3|0:3,0:0:0:0:
57,26,102489,2,0,L|137:40,1,70,2|4,0:2|3:0,0:0:0:0:
125,38,102793,1,0,0:0:0:0:
125,38,102894,1,2,0:2:0:0:
239,60,103097,1,0,0:0:0:0:
392,89,103300,6,0,L|380:203,1,105,4|0,0:3|2:0,0:0:0:0:
363,205,103705,2,0,L|307:199,1,35,6|0,0:3|2:0,0:0:0:0:
439,274,103908,2,0,L|490:267,1,35,4|0,0:3|2:0,0:0:0:0:
332,311,104111,2,0,L|331:360,2,35,2|8|0,0:2|0:0|0:0,0:0:0:0:
241,208,104516,5,8,0:0:0:0:
240,230,104617,1,4,0:3:0:0:
240,250,104719,2,0,L|238:306,1,35,2|0,0:3|2:0,0:0:0:0:
154,156,105023,5,4,3:0:0:0:
156,177,105124,1,4,3:0:0:0:
158,198,105225,1,4,0:3:0:0:
175,39,105428,5,8,0:0:0:0:
175,39,105529,1,4,0:3:0:0:
175,39,105631,2,0,L|130:36,1,35,4|0,0:3|2:0,0:0:0:0:
253,117,105834,1,8,0:0:0:0:
253,117,105935,2,0,L|298:114,1,35,4|4,3:0|3:0,0:0:0:0:
79,219,106138,1,8,0:0:0:0:
69,121,106340,1,2,3:0:0:0:
222,209,106543,5,2,0:2:0:0:
222,209,106644,2,0,L|228:299,1,70,0|0,0:0|0:0,0:0:0:0:
211,302,106948,2,0,L|188:297,4,17.5,8|0|0|0|0,0:0|3:0|3:0|3:0|3:0,3:0:0:0:
395,245,107354,1,8,0:2:0:0:
476,301,107557,1,0,0:0:0:0:
476,301,107658,1,8,0:2:0:0:
389,337,107861,1,8,0:2:0:0:
343,169,108063,1,8,0:0:0:0:
343,169,108165,1,4,0:3:0:0:
292,246,108367,6,4,L|305:283,2,35,4|4|8,3:0|3:0|0:0,3:0:0:0:
343,169,108773,1,4,0:3:0:0:
397,90,108975,2,0,L|394:67,6,17.5,0|0|0|0|0|0|0,3:0|3:0|3:0|3:0|3:0|3:0|3:0,3:0:0:0:
367,40,109381,2,0,P|326:36|286:41,2,70,8|2|4,0:0|3:0|0:3,0:0:0:0:
196,95,109989,5,4,0:3:0:0:
196,95,110090,1,4,0:3:0:0:
196,95,110192,1,8,0:0:0:0:
276,329,110394,1,4,0:3:0:0:
255,171,110597,2,0,L|254:149,2,17.5,0|0|0,3:0|3:0|3:0,3:0:0:0:
241,187,110800,1,0,0:0:0:0:
225,201,110901,1,0,0:0:0:0:
151,208,111104,1,0,0:0:0:0:
380,358,111408,5,4,0:3:0:0:
380,358,111510,1,4,3:0:0:0:
119,307,111716,1,4,3:0:0:0:
119,307,111818,1,8,0:0:0:0:
337,196,112024,1,2,0:3:0:0:
337,196,112127,1,8,0:0:0:0:
337,196,112229,5,8,0:0:0:0:
329,155,112332,1,8,0:0:0:0:
321,113,112435,1,8,0:0:0:0:
313,72,112538,1,8,0:0:0:0:
305,31,112640,1,8,0:2:0:0:
158,306,112846,1,4,3:0:0:0:
162,326,112949,1,4,3:0:0:0:
167,349,113051,6,0,P|126:341|62:330,1,83.9999974365235,4|0,1:2|0:0,0:0:0:0:
53,348,113355,1,0,1:0:0:0:
53,348,113456,2,0,L|64:246,1,83.9999974365235,2|4,1:3|1:3,0:0:0:0:
80,158,113861,1,2,3:2:0:0:
110,171,113963,1,0,3:0:0:0:
141,181,114064,1,0,3:0:0:0:
173,192,114165,1,0,3:0:0:0:
205,201,114267,2,0,L|305:188,1,83.9999974365235,2|0,1:3|3:0,0:0:0:0:
476,65,114672,5,4,0:3:0:0:
375,29,114875,1,4,3:0:0:0:
375,29,114976,1,4,3:0:0:0:
375,29,115078,1,2,0:3:0:0:
398,186,115280,2,0,L|413:289,2,83.9999974365235,4|0|0,1:3|3:0|0:0,0:0:0:0:
232,196,115888,1,8,0:0:0:0:
208,320,116091,1,2,0:3:0:0:
128,184,116294,5,4,1:2:0:0:
160,88,116496,1,0,3:0:0:0:
160,88,116598,1,0,3:0:0:0:
160,88,116699,1,2,1:3:0:0:
304,116,116902,1,4,1:3:0:0:
106,23,117105,1,2,3:2:0:0:
79,43,117206,1,0,3:0:0:0:
58,69,117307,1,0,3:0:0:0:
45,99,117409,1,0,3:0:0:0:
38,131,117510,2,0,P|34:178|42:238,1,83.9999974365235,2|0,1:3|3:0,0:0:0:0:
183,351,117915,5,6,1:3:0:0:
156,257,118118,1,4,3:0:0:0:
156,257,118219,1,4,3:0:0:0:
156,257,118321,1,8,0:0:0:0:
84,320,118523,1,4,1:3:0:0:
171,161,118726,1,4,1:3:0:0:
275,240,118929,1,0,3:0:0:0:
308,119,119132,2,0,L|324:8,1,83.9999974365235,8|0,0:0|3:0,0:0:0:0:
474,193,119537,6,0,P|481:271|484:351,1,125.999996154785,4|0,1:2|0:0,0:0:0:0:
455,338,119942,2,0,P|414:323|355:327,1,83.9999974365235,2|4,0:3|1:3,0:0:0:0:
181,332,120348,1,2,3:2:0:0:
206,310,120449,1,0,3:0:0:0:
221,279,120551,1,0,3:0:0:0:
227,246,120652,1,0,3:0:0:0:
227,212,120753,2,0,P|219:158|202:113,1,83.9999974365235,2|0,1:3|3:0,0:0:0:0:
49,31,121159,6,0,P|44:85|48:138,1,83.9999974365235,4|4,1:3|3:0,0:0:0:0:
72,135,121463,1,4,3:0:0:0:
105,139,121564,1,4,1:3:0:0:
280,29,121767,1,6,1:3:0:0:
280,29,122172,1,2,0:3:0:0:
280,29,122273,1,2,0:3:0:0:
280,29,122375,1,8,0:0:0:0:
189,37,122578,1,2,0:3:0:0:
347,103,122780,6,0,P|365:162|369:238,1,125.999996154785,4|0,1:0|0:0,0:0:0:0:
369,225,123186,1,8,0:0:0:0:
468,132,123388,1,4,0:3:0:0:
251,219,123591,1,0,3:3:0:0:
242,251,123692,1,0,3:0:0:0:
235,283,123794,1,0,3:0:0:0:
233,316,123895,1,0,3:0:0:0:
234,349,123996,2,0,P|281:345|330:355,1,83.9999974365235,8|2,1:0|3:0,0:0:0:0:
163,166,124402,5,4,0:3:0:0:
138,263,124605,1,4,3:0:0:0:
138,263,124706,1,4,3:0:0:0:
138,263,124807,1,6,1:3:0:0:
103,357,125010,1,6,0:3:0:0:
48,170,125213,6,0,L|33:118,3,41.9999987182618,0|0|0|0,3:0|3:0|3:0|3:0,0:0:0:0:
97,79,125618,2,0,L|80:20,1,41.9999987182618,8|0,0:0|0:0,0:0:0:0:
187,69,125821,2,0,L|180:129,1,41.9999987182618,2|0,0:3|0:0,0:0:0:0:
266,183,126023,6,0,P|321:169|394:179,1,125.999996154785,4|0,1:2|3:0,0:0:0:0:
403,207,126429,2,0,P|463:213|502:206,1,83.9999974365235,2|6,1:3|0:3,0:0:0:0:
238,104,126834,1,2,3:2:0:0:
214,127,126936,1,0,3:0:0:0:
185,145,127037,1,0,3:0:0:0:
154,159,127138,1,0,3:0:0:0:
120,162,127240,2,0,L|61:153,1,41.9999987182618,10|0,1:2|0:0,0:0:0:0:
41,79,127442,2,0,L|100:82,1,41.9999987182618,2|0,0:3|0:0,0:0:0:0:
191,228,127645,6,0,P|189:271|187:324,1,83.9999974365235,4|4,1:3|3:0,0:0:0:0:
187,311,127949,1,4,3:0:0:0:
187,311,128050,1,8,0:0:0:0:
30,247,128253,1,4,1:3:0:0:
59,343,128456,1,2,0:0:0:0:
103,156,128659,1,0,3:0:0:0:
103,156,128760,1,0,3:0:0:0:
103,156,128861,2,0,P|100:110|102:47,1,83.9999974365235,8|2,0:0|0:3,0:0:0:0:
337,144,129267,6,0,L|396:175,1,41.9999987182618,4|0,1:2|0:0,0:0:0:0:
436,116,129469,2,0,L|450:156,1,41.9999987182618,2|0,0:0|0:0,0:0:0:0:
321,35,129672,6,0,L|259:18,1,41.9999987182618,8|0,0:0|0:0,0:0:0:0:
232,86,129875,2,0,L|205:130,1,41.9999987182618,6|0,0:3|0:0,0:0:0:0:
240,191,130078,5,2,3:2:0:0:
244,224,130179,1,0,3:0:0:0:
249,257,130280,1,0,3:0:0:0:
253,290,130382,1,0,3:0:0:0:
260,322,130483,2,0,L|140:311,1,83.9999974365235,8|2,0:0|0:3,0:0:0:0:
348,288,130888,5,6,1:3:0:0:
432,351,131092,1,4,3:0:0:0:
432,351,131194,1,4,3:0:0:0:
432,351,131296,1,2,0:3:0:0:
377,213,131500,1,4,1:3:0:0:
271,307,131704,2,0,L|241:343,3,41.9999987182618,0|0|0|0,3:0|3:0|3:0|3:0,3:0:0:0:
290,275,132112,2,0,L|290:376,1,83.9999974365235,8|0,0:0|3:0,0:0:0:0:
302,155,132520,6,0,B|346:140|379:211|457:180,1,125.999996154785,4|0,1:2|0:0,0:0:0:0:
456,182,132925,1,2,0:3:0:0:
503,84,133128,1,4,1:3:0:0:
397,22,133330,1,2,3:2:0:0:
364,27,133432,1,0,3:0:0:0:
330,32,133533,1,0,3:0:0:0:
297,38,133634,1,0,3:0:0:0:
264,44,133736,2,0,L|196:40,1,41.9999987182618,8|0,1:2|0:0,0:0:0:0:
125,77,133938,2,0,L|70:72,1,41.9999987182618,0|0,3:0|0:0,0:0:0:0:
241,209,134141,5,4,1:3:0:0:
207,128,134344,1,4,3:0:0:0:
207,128,134445,1,4,3:0:0:0:
207,128,134547,1,2,1:3:0:0:
38,230,134749,2,0,L|52:347,2,83.9999974365235,4|2|0,1:3|3:0|3:0,0:0:0:0:
150,268,135357,2,0,L|140:338,1,41.9999987182618,8|0,0:0|0:0,0:0:0:0:
217,353,135560,2,0,L|282:338,1,41.9999987182618,2|0,0:3|0:0,0:0:0:0:
468,369,135763,5,4,0:2:0:0:
468,369,136168,1,2,0:0:0:0:
468,369,136574,1,2,0:0:0:0:
394,343,136979,5,4,0:2:0:0:
394,343,137384,1,2,0:0:0:0:
394,343,137790,1,2,0:0:0:0:
325,365,138195,5,0,0:0:0:0:
325,365,138601,2,2,L|272:358,1,52.5,0|0,0:0|0:0,0:2:0:0:
253,370,139006,6,0,L|234:369,2,17.5,0|0|2,0:0|0:0|0:0,0:0:0:0:
157,352,139614,1,2,0:0:0:0:
157,352,140020,5,0,0:0:0:0:
81,361,140222,1,2,0:0:0:0:
137,330,140425,1,0,0:0:0:0:
53,345,140628,5,0,1:0:0:0:
86,226,140830,1,2,0:0:0:0:
184,28,142047,5,2,0:0:0:0:
101,75,142249,1,0,1:0:0:0:
189,116,142452,1,2,0:0:0:0:
272,72,142857,1,2,0:0:0:0:
275,76,143263,1,2,0:0:0:0:
192,36,143668,5,0,1:0:0:0:
192,36,144074,1,2,0:0:0:0:
192,36,144479,1,2,0:0:0:0:
192,36,144884,5,0,0:0:0:0:
217,127,145087,1,2,0:0:0:0:
244,216,145290,1,0,0:0:0:0:
244,216,147114,5,0,1:0:0:0:
324,238,147317,1,2,0:0:0:0:
324,238,147722,1,2,0:0:0:0:
324,238,148128,5,0,0:0:0:0:
400,229,148330,1,2,0:0:0:0:
344,260,148533,1,0,0:0:0:0:
428,245,148736,5,0,1:0:0:0:
395,364,148938,1,2,0:0:0:0:
338,32,150155,5,2,0:0:0:0:
278,105,150357,1,0,1:0:0:0:
194,61,150560,1,2,0:0:0:0:
357,110,150965,5,2,0:0:0:0:
304,256,151371,1,2,0:0:0:0:
122,206,151776,5,0,1:0:0:0:
168,56,152182,1,0,0:0:0:0:
248,136,152587,5,2,0:0:0:0:
223,222,152992,1,0,0:0:0:0:
424,284,155244,5,0,1:0:0:0:
355,291,155446,1,2,0:0:0:0:
355,291,155852,1,2,0:0:0:0:
355,291,156257,1,0,0:0:0:0:
297,337,156460,1,2,0:0:0:0:
371,360,156662,1,0,0:0:0:0:
280,260,156865,1,0,1:0:0:0:
280,260,157068,1,2,0:0:0:0:
306,363,158284,5,2,0:0:0:0:
306,363,158487,1,0,1:0:0:0:
306,363,158689,1,2,0:0:0:0:
186,377,159095,1,2,0:0:0:0:
186,377,159500,1,2,0:0:0:0:
181,249,159906,1,0,1:0:0:0:
181,249,160311,1,2,0:0:0:0:
306,242,160716,1,2,0:0:0:0:
306,242,161122,5,0,0:0:0:0:
250,280,161325,1,2,0:0:0:0:
289,335,161527,1,0,0:0:0:0:
42,190,163362,5,0,1:0:0:0:
137,177,163564,1,2,0:0:0:0:
137,177,163970,1,2,0:0:0:0:
137,177,164375,1,0,0:0:0:0:
137,177,164578,1,2,0:0:0:0:
66,191,164780,1,0,0:0:0:0:
66,120,164983,1,0,1:0:0:0:
133,101,165186,1,2,0:0:0:0:
307,108,166402,5,2,0:0:0:0:
307,108,166605,1,0,1:0:0:0:
307,108,166807,1,2,0:0:0:0:
212,146,167213,1,2,0:0:0:0:
196,220,167618,1,2,0:0:0:0:
303,273,168024,5,0,1:0:0:0:
319,206,168429,1,0,0:0:0:0:
290,220,168834,1,2,0:0:0:0:
296,240,169240,1,0,0:0:0:0:
