osu file format v14

[General]
AudioFilename: audio.mp3
AudioLeadIn: 0
PreviewTime: 86735
Countdown: 0
SampleSet: Soft
StackLeniency: 0.7
Mode: 3
LetterboxInBreaks: 0
SpecialStyle: 0
WidescreenStoryboard: 1

[Editor]
DistanceSpacing: 1.2
BeatDivisor: 6
GridSize: 4
TimelineZoom: 1.9

[Metadata]
Title:Flim
TitleUnicode:Flim
Artist:Aphex Twin
ArtistUnicode:Aphex Twin
Creator:Davvy
Version:Hard
Source:
Tags:IDM, drum and bass, tech, Warp, Come to Daddy, WAP94CDD, Electronic, Instrumental, Richard David James
BeatmapID:2479720
BeatmapSetID:1178598

[Difficulty]
HPDrainRate:7.5
CircleSize:4
OverallDifficulty:8
ApproachRate:5
SliderMultiplier:1.4
SliderTickRate:1

[Events]
//Background and Video events
0,0,"background.jpg",0,0
//Break Periods
//Storyboard Layer 0 (Background)
//Storyboard Layer 1 (Fail)
//Storyboard Layer 2 (Pass)
//Storyboard Layer 3 (Foreground)
//Storyboard Layer 4 (Overlay)
//Storyboard Sound Samples

[TimingPoints]
2503,405.350628293474,4,2,1,60,1,0
75475,402.684563758389,4,2,1,60,1,8
75475,-101.010101010101,4,2,1,60,0,0
78696,405.405405405405,4,2,1,60,1,0
86819,400,4,2,1,60,1,8
86819,-102.040816326531,4,2,1,60,0,0
88427,405.816706121069,4,2,1,60,1,8

[HitObjects]
192,192,2502,5,2,0:0:0:0:
320,192,2807,1,2,0:0:0:0:
64,192,2908,1,8,0:0:0:0:
192,192,2908,1,0,0:0:0:0:
320,192,3111,1,2,0:0:0:0:
448,192,3313,1,0,0:0:0:0:
64,192,3415,1,8,0:0:0:0:
320,192,3516,1,2,0:0:0:0:
64,192,3719,1,8,0:0:0:0:
192,192,3719,1,0,0:0:0:0:
320,192,3820,1,2,0:0:0:0:
64,192,3921,1,0,0:0:0:0:
192,192,4023,1,2,0:0:0:0:
320,192,4124,1,2,0:0:0:0:
192,192,4327,1,2,0:0:0:0:
448,192,4529,1,8,0:0:0:0:
320,192,4529,1,0,0:0:0:0:
64,192,4631,1,0,0:0:0:0:
192,192,4732,1,2,0:0:0:0:
448,192,4935,1,0,0:0:0:0:
64,192,5036,1,8,0:0:0:0:
192,192,5036,1,0,0:0:0:0:
320,192,5137,1,2,0:0:0:0:
192,192,5239,1,2,0:0:0:0:
448,192,5340,1,8,0:0:0:0:
320,192,5340,1,0,0:0:0:0:
192,192,5441,1,2,0:0:0:0:
64,192,5543,1,0,0:0:0:0:
320,192,5644,1,2,0:0:0:0:
192,192,5745,1,2,0:0:0:0:
320,192,5948,1,2,0:0:0:0:
192,192,6049,1,2,0:0:0:0:
448,192,6151,1,0,0:0:0:0:
320,192,6151,1,8,0:0:0:0:
192,192,6353,1,2,0:0:0:0:
448,192,6556,1,0,0:0:0:0:
64,192,6657,1,8,0:0:0:0:
192,192,6657,1,0,0:0:0:0:
320,192,6759,1,2,0:0:0:0:
192,192,6860,1,2,0:0:0:0:
320,192,6961,128,8,7164:0:0:0:0:
448,192,6961,1,0,0:0:0:0:
64,192,7164,1,0,0:0:0:0:
192,192,7265,1,2,0:0:0:0:
320,192,7367,1,2,0:0:0:0:
320,192,7671,1,2,0:0:0:0:
64,192,7772,1,0,0:0:0:0:
448,192,7873,1,0,0:0:0:0:
192,192,7975,1,0,0:0:0:0:
64,192,7975,1,8,0:0:0:0:
448,192,8177,1,0,0:0:0:0:
64,192,8279,1,8,0:0:0:0:
192,192,8279,1,0,0:0:0:0:
320,192,8380,1,2,0:0:0:0:
192,192,8583,1,8,0:0:0:0:
64,192,8583,1,0,0:0:0:0:
320,192,8684,1,2,0:0:0:0:
64,192,8785,1,0,0:0:0:0:
192,192,8887,1,2,0:0:0:0:
320,192,8988,1,2,0:0:0:0:
192,192,9292,1,0,0:0:0:0:
448,192,9393,1,8,0:0:0:0:
320,192,9393,1,0,0:0:0:0:
192,192,9596,1,2,0:0:0:0:
448,192,9799,1,0,0:0:0:0:
64,192,9900,1,0,0:0:0:0:
448,192,10001,1,0,0:0:0:0:
192,192,10103,1,2,0:0:0:0:
448,192,10204,1,8,0:0:0:0:
320,192,10204,1,0,0:0:0:0:
192,192,10305,1,2,0:0:0:0:
64,192,10407,1,0,0:0:0:0:
192,192,10610,1,2,0:0:0:0:
320,192,10812,1,2,0:0:0:0:
192,192,10914,1,2,0:0:0:0:
448,192,11015,1,8,0:0:0:0:
192,192,11218,1,2,0:0:0:0:
448,192,11420,1,0,0:0:0:0:
64,192,11522,1,8,0:0:0:0:
320,192,11623,1,2,0:0:0:0:
64,192,11826,1,8,0:0:0:0:
192,192,11826,1,0,0:0:0:0:
320,192,11927,1,2,0:0:0:0:
448,192,12028,1,0,0:0:0:0:
192,192,12231,1,2,0:0:0:0:
320,192,12434,1,2,0:0:0:0:
64,192,12636,1,8,0:0:0:0:
192,192,12636,128,0,12839:0:0:0:0:
320,192,12839,1,2,0:0:0:0:
448,192,13042,1,0,0:0:0:0:
448,192,13177,1,0,0:0:0:0:
448,192,13312,1,0,0:0:0:0:
192,192,13447,1,0,0:0:0:0:
64,192,13447,1,8,0:0:0:0:
320,192,13548,1,2,0:0:0:0:
64,192,13650,1,0,0:0:0:0:
192,192,13751,1,2,0:0:0:0:
320,192,13852,1,2,0:0:0:0:
320,192,14055,1,2,0:0:0:0:
192,192,14156,1,2,0:0:0:0:
448,192,14258,1,0,0:0:0:0:
320,192,14460,1,2,0:0:0:0:
448,192,14663,1,0,0:0:0:0:
64,192,14764,1,8,0:0:0:0:
192,192,14764,1,0,0:0:0:0:
320,192,14866,1,2,0:0:0:0:
192,192,14967,1,2,0:0:0:0:
448,192,15068,1,8,0:0:0:0:
320,192,15068,1,0,0:0:0:0:
192,192,15170,1,2,0:0:0:0:
448,192,15271,1,0,0:0:0:0:
192,192,15372,1,2,0:0:0:0:
320,192,15474,1,2,0:0:0:0:
320,192,15676,1,2,0:0:0:0:
192,192,15778,1,2,0:0:0:0:
320,192,15879,1,8,0:0:0:0:
448,192,15879,1,0,0:0:0:0:
192,192,16082,1,2,0:0:0:0:
448,192,16284,1,0,0:0:0:0:
64,192,16386,1,8,0:0:0:0:
192,192,16386,1,0,0:0:0:0:
320,192,16487,1,2,0:0:0:0:
192,192,16588,1,2,0:0:0:0:
320,192,16690,1,8,0:0:0:0:
448,192,16690,1,0,0:0:0:0:
192,192,16791,1,2,0:0:0:0:
448,192,16892,1,0,0:0:0:0:
320,192,16994,1,2,0:0:0:0:
192,192,17095,1,2,0:0:0:0:
192,192,17298,1,2,0:0:0:0:
320,192,17399,1,2,0:0:0:0:
64,192,17500,1,0,0:0:0:0:
192,192,17703,1,2,0:0:0:0:
448,192,17906,1,0,0:0:0:0:
64,192,18007,1,8,0:0:0:0:
192,192,18007,1,0,0:0:0:0:
320,192,18108,1,2,0:0:0:0:
192,192,18210,1,2,0:0:0:0:
448,192,18311,1,8,0:0:0:0:
320,192,18413,1,2,0:0:0:0:
64,192,18514,1,0,0:0:0:0:
192,192,18615,1,2,0:0:0:0:
320,192,18717,1,2,0:0:0:0:
64,192,18717,1,0,0:0:0:0:
320,192,18919,1,0,0:0:0:0:
64,192,19021,1,8,0:0:0:0:
192,192,19122,1,2,0:0:0:0:
448,192,19223,1,0,0:0:0:0:
192,192,19325,1,2,0:0:0:0:
448,192,19527,1,0,0:0:0:0:
64,192,19629,1,8,0:0:0:0:
192,192,19629,1,0,0:0:0:0:
320,192,19730,1,2,0:0:0:0:
192,192,19831,1,2,0:0:0:0:
448,192,19933,1,8,0:0:0:0:
320,192,19933,1,0,0:0:0:0:
192,192,20034,1,2,0:0:0:0:
64,192,20135,1,0,0:0:0:0:
320,192,20237,1,2,0:0:0:0:
192,192,20338,1,2,0:0:0:0:
448,192,20439,1,2,0:0:0:0:
192,192,20541,1,2,0:0:0:0:
192,192,20642,1,2,0:0:0:0:
448,192,20743,1,8,0:0:0:0:
64,192,20845,1,8,0:0:0:0:
320,192,20946,1,2,0:0:0:0:
320,192,21047,1,2,0:0:0:0:
448,192,21149,1,0,0:0:0:0:
64,192,21250,1,8,0:0:0:0:
192,192,21250,1,0,0:0:0:0:
320,192,21351,1,2,0:0:0:0:
192,192,21453,1,2,0:0:0:0:
448,192,21554,1,8,0:0:0:0:
320,192,21554,1,0,0:0:0:0:
192,192,21655,1,2,0:0:0:0:
448,192,21757,1,0,0:0:0:0:
320,192,21858,1,2,0:0:0:0:
192,192,21959,1,2,0:0:0:0:
448,192,22061,1,8,0:0:0:0:
64,192,22162,1,0,0:0:0:0:
64,192,22365,1,8,0:0:0:0:
192,192,22365,1,0,0:0:0:0:
448,192,22466,128,0,22567:0:0:0:0:
448,192,22669,128,0,22770:0:0:0:0:
64,192,22770,1,8,0:0:0:0:
192,192,22770,1,0,0:0:0:0:
64,192,22973,1,8,0:0:0:0:
192,192,22973,1,0,0:0:0:0:
448,192,23074,1,0,0:0:0:0:
320,192,23074,1,8,0:0:0:0:
320,192,23277,1,8,0:0:0:0:
64,192,23479,1,0,0:0:0:0:
192,192,23479,1,8,0:0:0:0:
192,192,23783,1,2,0:0:0:0:
320,192,23885,1,2,0:0:0:0:
64,192,23986,1,8,0:0:0:0:
192,192,23986,1,0,0:0:0:0:
320,192,24189,1,2,0:0:0:0:
448,192,24391,128,0,24493:0:0:0:0:
320,192,24493,128,8,24594:0:0:0:0:
192,192,24594,128,8,24695:0:0:0:0:
320,192,24695,128,8,24797:0:0:0:0:
64,192,24797,1,8,0:0:0:0:
192,192,24797,1,0,0:0:0:0:
448,192,24999,1,0,0:0:0:0:
192,192,25202,1,2,0:0:0:0:
320,192,25405,1,2,0:0:0:0:
192,192,25506,1,2,0:0:0:0:
448,192,25607,1,8,0:0:0:0:
320,192,25607,1,0,0:0:0:0:
192,192,25810,1,2,0:0:0:0:
64,192,26013,128,8,26216:0:0:0:0:
448,192,26013,128,0,26216:0:0:0:0:
192,192,26216,1,2,0:0:0:0:
320,192,26317,1,2,0:0:0:0:
64,192,26418,1,0,0:0:0:0:
192,192,26520,1,2,0:0:0:0:
448,192,26621,1,0,0:0:0:0:
320,192,26824,1,2,0:0:0:0:
192,192,26925,1,2,0:0:0:0:
448,192,27026,1,0,0:0:0:0:
192,192,27128,1,2,0:0:0:0:
64,192,27229,128,0,27330:0:0:0:0:
64,192,27634,128,0,27736:0:0:0:0:
64,192,27837,128,0,27972:0:0:0:0:
64,192,28040,128,0,28268:0:0:0:0:
64,192,28344,1,0,0:0:0:0:
192,192,28445,1,2,0:0:0:0:
448,192,28445,1,0,0:0:0:0:
448,192,28749,1,0,0:0:0:0:
64,192,28850,1,8,0:0:0:0:
192,192,28850,1,0,0:0:0:0:
320,192,29053,1,2,0:0:0:0:
64,192,29256,1,0,0:0:0:0:
448,192,29357,1,0,0:0:0:0:
64,192,29458,1,0,0:0:0:0:
320,192,29661,1,8,0:0:0:0:
448,192,29661,1,0,0:0:0:0:
192,192,29762,1,2,0:0:0:0:
448,192,29864,1,0,0:0:0:0:
64,192,29965,1,0,0:0:0:0:
192,192,30066,1,2,0:0:0:0:
320,192,30269,1,2,0:0:0:0:
192,192,30370,1,2,0:0:0:0:
448,192,30472,1,8,0:0:0:0:
192,192,30674,1,2,0:0:0:0:
448,192,30877,1,0,0:0:0:0:
64,192,30978,1,8,0:0:0:0:
192,192,31080,1,2,0:0:0:0:
320,192,31181,1,2,0:0:0:0:
64,192,31282,1,8,0:0:0:0:
192,192,31282,1,0,0:0:0:0:
320,192,31384,1,2,0:0:0:0:
448,192,31485,1,0,0:0:0:0:
320,192,31688,1,2,0:0:0:0:
64,192,31688,1,0,0:0:0:0:
448,192,31992,1,0,0:0:0:0:
64,192,32093,1,8,0:0:0:0:
192,192,32093,1,0,0:0:0:0:
320,192,32296,1,2,0:0:0:0:
448,192,32498,1,0,0:0:0:0:
64,192,32600,1,0,0:0:0:0:
448,192,32701,1,0,0:0:0:0:
64,192,32904,1,8,0:0:0:0:
192,192,32904,1,0,0:0:0:0:
320,192,33005,1,2,0:0:0:0:
64,192,33106,1,0,0:0:0:0:
448,192,33208,1,0,0:0:0:0:
192,192,33309,1,2,0:0:0:0:
320,192,33512,1,2,0:0:0:0:
192,192,33613,1,2,0:0:0:0:
448,192,33714,1,8,0:0:0:0:
320,192,33917,1,2,0:0:0:0:
192,192,34120,1,2,0:0:0:0:
448,192,34221,1,0,0:0:0:0:
320,192,34323,1,0,0:0:0:0:
64,192,34525,1,8,0:0:0:0:
192,192,34525,1,0,0:0:0:0:
320,192,34627,1,2,0:0:0:0:
448,192,34728,1,0,0:0:0:0:
320,192,34931,1,2,0:0:0:0:
64,192,34931,1,0,0:0:0:0:
448,192,35235,1,0,0:0:0:0:
64,192,35336,1,8,0:0:0:0:
192,192,35336,1,0,0:0:0:0:
320,192,35539,1,2,0:0:0:0:
448,192,35741,1,0,0:0:0:0:
64,192,35843,1,0,0:0:0:0:
448,192,35944,1,0,0:0:0:0:
64,192,36147,1,8,0:0:0:0:
192,192,36147,1,0,0:0:0:0:
320,192,36248,1,2,0:0:0:0:
64,192,36349,1,0,0:0:0:0:
448,192,36552,1,2,0:0:0:0:
192,192,36552,1,0,0:0:0:0:
192,192,36755,1,2,0:0:0:0:
320,192,36856,1,2,0:0:0:0:
192,192,36957,1,2,0:0:0:0:
320,192,37160,1,2,0:0:0:0:
448,192,37363,1,0,0:0:0:0:
64,192,37464,1,8,0:0:0:0:
320,192,37565,1,2,0:0:0:0:
64,192,37768,1,8,0:0:0:0:
192,192,37768,1,0,0:0:0:0:
320,192,37869,1,2,0:0:0:0:
448,192,37971,1,0,0:0:0:0:
320,192,38173,1,2,0:0:0:0:
64,192,38173,1,0,0:0:0:0:
448,192,38477,1,0,0:0:0:0:
64,192,38579,1,8,0:0:0:0:
192,192,38579,1,0,0:0:0:0:
320,192,38781,1,2,0:0:0:0:
64,192,38984,1,0,0:0:0:0:
448,192,39085,1,0,0:0:0:0:
64,192,39187,1,0,0:0:0:0:
448,192,39389,1,0,0:0:0:0:
320,192,39389,1,8,0:0:0:0:
192,192,39491,1,2,0:0:0:0:
64,192,39592,1,0,0:0:0:0:
448,192,39795,1,2,0:0:0:0:
192,192,39795,1,0,0:0:0:0:
320,192,39997,1,2,0:0:0:0:
192,192,40099,1,2,0:0:0:0:
448,192,40200,1,8,0:0:0:0:
192,192,40403,1,2,0:0:0:0:
448,192,40605,1,0,0:0:0:0:
64,192,40707,1,8,0:0:0:0:
320,192,40808,1,2,0:0:0:0:
64,192,41011,1,8,0:0:0:0:
192,192,41011,1,0,0:0:0:0:
320,192,41112,1,2,0:0:0:0:
448,192,41213,1,0,0:0:0:0:
320,192,41416,1,2,0:0:0:0:
64,192,41416,1,0,0:0:0:0:
448,192,41720,1,0,0:0:0:0:
64,192,41822,1,8,0:0:0:0:
192,192,41822,1,0,0:0:0:0:
320,192,42024,1,2,0:0:0:0:
448,192,42227,1,0,0:0:0:0:
64,192,42328,1,0,0:0:0:0:
448,192,42430,1,0,0:0:0:0:
192,192,42531,1,2,0:0:0:0:
448,192,42632,1,8,0:0:0:0:
320,192,42632,1,0,0:0:0:0:
192,192,42734,1,2,0:0:0:0:
64,192,42835,1,0,0:0:0:0:
448,192,43038,1,0,0:0:0:0:
192,192,43038,1,2,0:0:0:0:
192,192,43240,1,2,0:0:0:0:
320,192,43342,1,2,0:0:0:0:
64,192,43443,1,8,0:0:0:0:
192,192,43646,1,2,0:0:0:0:
448,192,43848,1,0,0:0:0:0:
64,192,43950,1,8,0:0:0:0:
192,192,44051,1,2,0:0:0:0:
320,192,44152,1,2,0:0:0:0:
192,192,44254,1,8,0:0:0:0:
64,192,44254,1,0,0:0:0:0:
320,192,44355,1,2,0:0:0:0:
448,192,44456,1,0,0:0:0:0:
320,192,44659,1,0,0:0:0:0:
64,192,44659,1,2,0:0:0:0:
448,192,44963,1,0,0:0:0:0:
64,192,45064,1,8,0:0:0:0:
192,192,45064,1,0,0:0:0:0:
320,192,45267,1,2,0:0:0:0:
448,192,45470,1,0,0:0:0:0:
64,192,45571,1,0,0:0:0:0:
448,192,45672,1,0,0:0:0:0:
192,192,45875,1,8,0:0:0:0:
64,192,45875,1,0,0:0:0:0:
320,192,45976,1,2,0:0:0:0:
64,192,46078,1,0,0:0:0:0:
192,192,46280,1,2,0:0:0:0:
448,192,46280,1,0,0:0:0:0:
192,192,46483,1,2,0:0:0:0:
320,192,46584,1,2,0:0:0:0:
64,192,46686,1,8,0:0:0:0:
320,192,46888,1,2,0:0:0:0:
448,192,47091,1,0,0:0:0:0:
64,192,47192,1,8,0:0:0:0:
320,192,47294,1,2,0:0:0:0:
64,192,47496,1,8,0:0:0:0:
192,192,47496,1,0,0:0:0:0:
320,192,47598,1,2,0:0:0:0:
64,192,47699,1,0,0:0:0:0:
192,192,47902,1,2,0:0:0:0:
448,192,47902,1,0,0:0:0:0:
448,192,48206,1,0,0:0:0:0:
64,192,48307,1,8,0:0:0:0:
192,192,48307,1,0,0:0:0:0:
320,192,48510,1,2,0:0:0:0:
448,192,48712,1,0,0:0:0:0:
64,192,48814,1,0,0:0:0:0:
448,192,48915,1,0,0:0:0:0:
192,192,49016,1,2,0:0:0:0:
448,192,49118,1,8,0:0:0:0:
320,192,49118,1,0,0:0:0:0:
192,192,49219,1,2,0:0:0:0:
64,192,49320,1,0,0:0:0:0:
192,192,49523,1,2,0:0:0:0:
448,192,49523,1,0,0:0:0:0:
192,192,49726,1,2,0:0:0:0:
320,192,49827,1,2,0:0:0:0:
64,192,49929,1,8,0:0:0:0:
320,192,50131,1,2,0:0:0:0:
448,192,50334,1,0,0:0:0:0:
64,192,50435,1,8,0:0:0:0:
192,192,50537,1,2,0:0:0:0:
320,192,50638,1,2,0:0:0:0:
64,192,50739,1,8,0:0:0:0:
192,192,50739,1,0,0:0:0:0:
320,192,50841,1,2,0:0:0:0:
64,192,50942,1,0,0:0:0:0:
192,192,51145,1,2,0:0:0:0:
448,192,51145,1,0,0:0:0:0:
448,192,51449,1,0,0:0:0:0:
64,192,51550,1,8,0:0:0:0:
192,192,51550,1,0,0:0:0:0:
320,192,51820,1,2,0:0:0:0:
448,192,51955,1,0,0:0:0:0:
64,192,52090,1,0,0:0:0:0:
320,192,52226,1,2,0:0:0:0:
192,192,52361,1,8,0:0:0:0:
64,192,52361,1,0,0:0:0:0:
192,192,52496,1,2,0:0:0:0:
448,192,52631,1,0,0:0:0:0:
320,192,52766,1,2,0:0:0:0:
64,192,52766,1,0,0:0:0:0:
192,192,53036,1,2,0:0:0:0:
64,192,53171,1,8,0:0:0:0:
192,192,53442,1,2,0:0:0:0:
448,192,53577,1,0,0:0:0:0:
64,192,53712,1,0,0:0:0:0:
320,192,53847,1,2,0:0:0:0:
448,192,53982,1,8,0:0:0:0:
192,192,54117,1,2,0:0:0:0:
64,192,54252,1,0,0:0:0:0:
192,192,54387,1,2,0:0:0:0:
448,192,54387,1,0,0:0:0:0:
448,192,54691,1,0,0:0:0:0:
64,192,54793,1,8,0:0:0:0:
192,192,54793,1,0,0:0:0:0:
320,192,54995,1,2,0:0:0:0:
448,192,55198,1,0,0:0:0:0:
64,192,55299,1,0,0:0:0:0:
448,192,55401,1,0,0:0:0:0:
192,192,55603,1,0,0:0:0:0:
64,192,55603,1,8,0:0:0:0:
320,192,55705,1,2,0:0:0:0:
64,192,55806,1,0,0:0:0:0:
192,192,56009,1,0,0:0:0:0:
448,192,56009,1,2,0:0:0:0:
192,192,56211,1,2,0:0:0:0:
320,192,56313,1,2,0:0:0:0:
64,192,56414,1,8,0:0:0:0:
320,192,56617,1,2,0:0:0:0:
448,192,56819,1,0,0:0:0:0:
64,192,56921,1,8,0:0:0:0:
192,192,57022,1,2,0:0:0:0:
320,192,57225,1,8,0:0:0:0:
448,192,57225,1,0,0:0:0:0:
192,192,57326,1,2,0:0:0:0:
448,192,57428,1,0,0:0:0:0:
320,192,57630,1,2,0:0:0:0:
64,192,57630,1,0,0:0:0:0:
448,192,57934,1,0,0:0:0:0:
64,192,58036,1,8,0:0:0:0:
192,192,58036,1,0,0:0:0:0:
320,192,58238,1,2,0:0:0:0:
448,192,58441,1,0,0:0:0:0:
64,192,58542,1,0,0:0:0:0:
448,192,58644,1,0,0:0:0:0:
192,192,58846,1,8,0:0:0:0:
64,192,58846,1,0,0:0:0:0:
320,192,58948,1,2,0:0:0:0:
64,192,59049,1,0,0:0:0:0:
448,192,59150,1,0,0:0:0:0:
320,192,59252,1,2,0:0:0:0:
64,192,59252,1,0,0:0:0:0:
192,192,59454,1,2,0:0:0:0:
320,192,59556,1,2,0:0:0:0:
64,192,59657,1,8,0:0:0:0:
192,192,59860,1,2,0:0:0:0:
448,192,60062,1,0,0:0:0:0:
64,192,60164,1,8,0:0:0:0:
320,192,60265,1,2,0:0:0:0:
192,192,60468,1,8,0:0:0:0:
64,192,60468,1,0,0:0:0:0:
448,192,60670,1,0,0:0:0:0:
320,192,60873,1,2,0:0:0:0:
64,192,60873,1,0,0:0:0:0:
448,192,61177,1,0,0:0:0:0:
64,192,61278,1,8,0:0:0:0:
192,192,61278,1,0,0:0:0:0:
320,192,61481,128,0,61886:0:0:0:0:
320,192,62494,1,2,0:0:0:0:
64,192,62494,1,0,0:0:0:0:
192,192,62697,1,2,0:0:0:0:
320,192,62798,1,2,0:0:0:0:
64,192,62900,1,8,0:0:0:0:
192,192,63102,1,2,0:0:0:0:
448,192,63305,1,0,0:0:0:0:
64,192,63406,1,8,0:0:0:0:
320,192,63508,1,2,0:0:0:0:
192,192,63710,1,8,0:0:0:0:
64,192,63710,1,0,0:0:0:0:
64,192,64521,1,0,0:0:0:0:
192,192,64521,1,8,0:0:0:0:
320,192,64724,1,2,0:0:0:0:
448,192,64926,1,0,0:0:0:0:
64,192,65028,1,0,0:0:0:0:
448,192,65129,1,0,0:0:0:0:
64,192,65332,1,8,0:0:0:0:
192,192,65332,1,0,0:0:0:0:
320,192,65433,1,2,0:0:0:0:
448,192,65535,1,0,0:0:0:0:
320,192,65737,1,2,0:0:0:0:
64,192,65737,1,0,0:0:0:0:
192,192,65940,1,2,0:0:0:0:
320,192,66041,1,2,0:0:0:0:
64,192,66143,1,8,0:0:0:0:
192,192,66345,1,2,0:0:0:0:
448,192,66548,1,0,0:0:0:0:
64,192,66649,1,8,0:0:0:0:
320,192,66751,1,2,0:0:0:0:
192,192,66852,1,2,0:0:0:0:
448,192,66953,1,0,0:0:0:0:
320,192,66953,1,8,0:0:0:0:
192,192,67055,1,2,0:0:0:0:
64,192,67156,1,0,0:0:0:0:
448,192,67359,1,0,0:0:0:0:
192,192,67359,1,2,0:0:0:0:
448,192,67663,1,0,0:0:0:0:
192,192,67967,1,2,0:0:0:0:
448,192,68169,1,0,0:0:0:0:
64,192,68271,1,0,0:0:0:0:
448,192,68372,1,0,0:0:0:0:
448,192,68575,1,0,0:0:0:0:
320,192,68575,1,8,0:0:0:0:
192,192,68676,1,2,0:0:0:0:
64,192,68777,1,0,0:0:0:0:
448,192,68879,1,0,0:0:0:0:
192,192,69183,1,2,0:0:0:0:
64,192,69385,1,8,0:0:0:0:
320,192,69588,1,2,0:0:0:0:
448,192,69791,1,0,0:0:0:0:
64,192,69892,1,8,0:0:0:0:
320,192,69993,1,2,0:0:0:0:
192,192,70095,1,2,0:0:0:0:
320,192,70196,1,0,0:0:0:0:
448,192,70196,1,8,0:0:0:0:
192,192,70297,1,2,0:0:0:0:
448,192,70399,1,0,0:0:0:0:
320,192,70601,1,2,0:0:0:0:
64,192,70601,1,0,0:0:0:0:
448,192,70905,1,0,0:0:0:0:
64,192,71007,1,8,0:0:0:0:
192,192,71007,1,0,0:0:0:0:
320,192,71209,1,2,0:0:0:0:
448,192,71412,1,0,0:0:0:0:
64,192,71513,1,0,0:0:0:0:
448,192,71615,1,0,0:0:0:0:
192,192,71817,1,8,0:0:0:0:
64,192,71817,1,0,0:0:0:0:
320,192,71919,1,2,0:0:0:0:
64,192,72020,1,0,0:0:0:0:
448,192,72172,1,0,0:0:0:0:
192,192,72223,1,2,0:0:0:0:
320,192,72358,1,2,0:0:0:0:
192,192,72493,1,2,0:0:0:0:
320,192,72628,1,8,0:0:0:0:
448,192,72628,1,0,0:0:0:0:
192,192,72831,1,2,0:0:0:0:
448,192,73034,1,0,0:0:0:0:
64,192,73135,1,8,0:0:0:0:
320,192,73236,1,2,0:0:0:0:
64,192,73439,1,0,0:0:0:0:
192,192,73439,1,8,0:0:0:0:
320,192,73540,1,2,0:0:0:0:
64,192,73642,1,0,0:0:0:0:
448,192,73844,1,0,0:0:0:0:
192,192,73844,1,2,0:0:0:0:
448,192,74148,1,0,0:0:0:0:
64,192,74250,1,8,0:0:0:0:
192,192,74250,1,0,0:0:0:0:
320,192,74452,1,2,0:0:0:0:
448,192,74655,1,0,0:0:0:0:
64,192,74756,1,0,0:0:0:0:
448,192,74858,1,0,0:0:0:0:
192,192,75060,1,8,0:0:0:0:
64,192,75060,1,0,0:0:0:0:
320,192,75162,1,2,0:0:0:0:
64,192,75263,1,0,0:0:0:0:
192,192,75364,1,0,0:0:0:0:
320,192,75415,128,8,75525:0:0:0:0:
192,192,75525,128,8,75626:0:0:0:0:
320,192,75626,128,8,75726:0:0:0:0:
192,192,75726,128,8,75827:0:0:0:0:
64,192,75827,1,8,0:0:0:0:
448,192,75877,1,8,0:0:0:0:
320,192,76079,1,2,0:0:0:0:
448,192,76280,1,0,0:0:0:0:
64,192,76381,1,8,0:0:0:0:
192,192,76481,1,2,0:0:0:0:
64,192,76683,1,8,0:0:0:0:
192,192,76683,1,0,0:0:0:0:
320,192,76783,1,2,0:0:0:0:
448,192,76884,1,0,0:0:0:0:
448,192,77387,1,0,0:0:0:0:
64,192,77488,1,0,0:0:0:0:
192,192,77488,1,8,0:0:0:0:
448,192,77891,1,0,0:0:0:0:
64,192,77991,1,0,0:0:0:0:
448,192,78092,1,0,0:0:0:0:
64,192,78293,1,0,0:0:0:0:
192,192,78293,1,8,0:0:0:0:
320,192,78394,1,2,0:0:0:0:
64,192,78495,1,0,0:0:0:0:
320,192,78696,1,0,0:0:0:0:
448,192,78696,1,8,0:0:0:0:
448,192,79101,1,0,0:0:0:0:
64,192,79202,1,0,0:0:0:0:
448,192,79304,1,0,0:0:0:0:
192,192,79506,1,8,0:0:0:0:
64,192,79506,1,0,0:0:0:0:
320,192,79608,1,2,0:0:0:0:
64,192,79709,1,0,0:0:0:0:
448,192,79912,1,8,0:0:0:0:
320,192,79912,1,0,0:0:0:0:
64,192,80114,1,0,0:0:0:0:
320,192,80317,1,2,0:0:0:0:
64,192,80621,1,0,0:0:0:0:
448,192,80723,1,8,0:0:0:0:
320,192,80723,1,0,0:0:0:0:
320,192,80925,128,2,81027:0:0:0:0:
192,192,81027,128,2,81128:0:0:0:0:
320,192,81128,128,2,81229:0:0:0:0:
192,192,81229,1,2,0:0:0:0:
320,192,81331,1,2,0:0:0:0:
192,192,81432,1,2,0:0:0:0:
448,192,81533,1,8,0:0:0:0:
320,192,81533,1,0,0:0:0:0:
192,192,81635,1,2,0:0:0:0:
448,192,81685,1,8,0:0:0:0:
320,192,81736,1,8,0:0:0:0:
64,192,81837,1,0,0:0:0:0:
192,192,81939,1,2,0:0:0:0:
448,192,81939,1,0,0:0:0:0:
192,192,82141,1,2,0:0:0:0:
320,192,82243,1,2,0:0:0:0:
64,192,82344,1,8,0:0:0:0:
320,192,82547,1,2,0:0:0:0:
448,192,82750,1,0,0:0:0:0:
64,192,82851,1,8,0:0:0:0:
192,192,82952,1,2,0:0:0:0:
320,192,83155,1,8,0:0:0:0:
448,192,83155,1,0,0:0:0:0:
192,192,83256,1,2,0:0:0:0:
448,192,83358,1,0,0:0:0:0:
320,192,83459,128,0,83560:0:0:0:0:
320,192,83662,128,0,83763:0:0:0:0:
320,192,83864,128,0,83966:0:0:0:0:
320,192,84067,128,0,84270:0:0:0:0:
192,192,84371,1,0,0:0:0:0:
320,192,84439,1,0,0:0:0:0:
192,192,84574,128,0,84675:0:0:0:0:
320,192,84675,128,0,84777:0:0:0:0:
64,192,84844,1,0,0:0:0:0:
320,192,84912,1,0,0:0:0:0:
192,192,84979,1,0,0:0:0:0:
448,192,85047,1,0,0:0:0:0:
64,192,85114,1,0,0:0:0:0:
192,192,86819,1,2,0:0:0:0:
448,192,86819,1,0,0:0:0:0:
192,192,87019,1,2,0:0:0:0:
320,192,87119,1,2,0:0:0:0:
64,192,87219,1,8,0:0:0:0:
192,192,87219,1,0,0:0:0:0:
320,192,87419,1,2,0:0:0:0:
448,192,87619,1,0,0:0:0:0:
64,192,87719,1,0,0:0:0:0:
192,192,87719,1,8,0:0:0:0:
320,192,87819,1,2,0:0:0:0:
64,192,88019,1,8,0:0:0:0:
192,192,88019,1,0,0:0:0:0:
320,192,88119,1,2,0:0:0:0:
448,192,88219,1,0,0:0:0:0:
320,192,88419,1,2,0:0:0:0:
64,192,88419,1,0,0:0:0:0:
192,192,88629,1,2,0:0:0:0:
320,192,88731,1,2,0:0:0:0:
192,192,88832,1,0,0:0:0:0:
64,192,88832,1,8,0:0:0:0:
448,192,88934,1,0,0:0:0:0:
320,192,89035,1,2,0:0:0:0:
448,192,89238,1,0,0:0:0:0:
192,192,89340,1,0,0:0:0:0:
64,192,89340,1,8,0:0:0:0:
320,192,89441,1,2,0:0:0:0:
192,192,89644,1,0,0:0:0:0:
64,192,89644,1,8,0:0:0:0:
320,192,89745,1,2,0:0:0:0:
448,192,89847,1,0,0:0:0:0:
192,192,90050,1,2,0:0:0:0:
192,192,90253,1,2,0:0:0:0:
320,192,90354,1,2,0:0:0:0:
64,192,90456,1,8,0:0:0:0:
192,192,90658,1,2,0:0:0:0:
448,192,90861,1,0,0:0:0:0:
64,192,90963,1,8,0:0:0:0:
320,192,91064,1,2,0:0:0:0:
64,192,91267,1,8,0:0:0:0:
192,192,91267,128,0,91470:0:0:0:0:
448,192,91470,1,0,0:0:0:0:
320,192,91572,1,2,0:0:0:0:
192,192,91673,1,2,0:0:0:0:
320,192,91876,1,2,0:0:0:0:
192,192,91977,1,2,0:0:0:0:
448,192,92079,1,0,0:0:0:0:
320,192,92180,1,0,0:0:0:0:
64,192,92282,1,8,0:0:0:0:
448,192,92485,1,0,0:0:0:0:
64,192,92586,1,8,0:0:0:0:
192,192,92688,1,2,0:0:0:0:
64,192,92890,1,8,0:0:0:0:
320,192,92992,1,2,0:0:0:0:
448,192,93093,1,0,0:0:0:0:
192,192,93195,1,2,0:0:0:0:
320,192,93296,1,2,0:0:0:0:
448,192,93601,1,0,0:0:0:0:
64,192,93702,1,8,0:0:0:0:
320,192,93905,1,2,0:0:0:0:
448,192,94108,1,0,0:0:0:0:
64,192,94209,1,0,0:0:0:0:
448,192,94311,1,0,0:0:0:0:
64,192,94514,1,8,0:0:0:0:
192,192,94615,1,2,0:0:0:0:
448,192,94717,1,0,0:0:0:0:
320,192,94920,1,2,0:0:0:0:
192,192,95122,1,2,0:0:0:0:
320,192,95224,1,2,0:0:0:0:
64,192,95325,1,8,0:0:0:0:
320,192,95528,1,2,0:0:0:0:
448,192,95731,1,0,0:0:0:0:
64,192,95833,1,8,0:0:0:0:
192,192,95934,1,0,0:0:0:0:
64,192,96137,1,8,0:0:0:0:
448,192,96340,1,0,0:0:0:0:
192,192,96543,1,2,0:0:0:0:
320,192,96746,1,2,0:0:0:0:
64,192,96949,1,8,0:0:0:0:
192,192,96949,128,0,97152:0:0:0:0:
320,192,97152,1,2,0:0:0:0:
448,192,97354,1,0,0:0:0:0:
448,192,97490,1,0,0:0:0:0:
448,192,97625,1,0,0:0:0:0:
64,192,97760,1,8,0:0:0:0:
320,192,97862,1,2,0:0:0:0:
448,192,97963,1,0,0:0:0:0:
192,192,98065,1,2,0:0:0:0:
320,192,98166,1,2,0:0:0:0:
64,192,98166,1,0,0:0:0:0:
192,192,98369,1,2,0:0:0:0:
320,192,98470,1,2,0:0:0:0:
448,192,98572,1,0,0:0:0:0:
192,192,98775,1,2,0:0:0:0:
448,192,98978,1,0,0:0:0:0:
64,192,99079,1,8,0:0:0:0:
320,192,99181,1,2,0:0:0:0:
64,192,99384,1,8,0:0:0:0:
192,192,99485,1,2,0:0:0:0:
448,192,99586,1,0,0:0:0:0:
320,192,99789,1,2,0:0:0:0:
64,192,99789,1,0,0:0:0:0:
320,192,99992,1,2,0:0:0:0:
192,192,100094,1,2,0:0:0:0:
448,192,100195,1,8,0:0:0:0:
320,192,100195,1,0,0:0:0:0:
192,192,100398,1,2,0:0:0:0:
64,192,100601,1,0,0:0:0:0:
448,192,100702,1,8,0:0:0:0:
320,192,100702,1,0,0:0:0:0:
192,192,100804,1,2,0:0:0:0:
448,192,101007,1,8,0:0:0:0:
320,192,101007,1,0,0:0:0:0:
192,192,101108,1,2,0:0:0:0:
64,192,101210,1,0,0:0:0:0:
320,192,101311,1,2,0:0:0:0:
192,192,101413,1,2,0:0:0:0:
448,192,101413,1,0,0:0:0:0:
320,192,101616,1,2,0:0:0:0:
192,192,101717,1,2,0:0:0:0:
448,192,101818,1,8,0:0:0:0:
192,192,102021,1,2,0:0:0:0:
64,192,102224,1,0,0:0:0:0:
448,192,102326,1,8,0:0:0:0:
320,192,102326,1,0,0:0:0:0:
192,192,102427,1,2,0:0:0:0:
64,192,102630,1,8,0:0:0:0:
320,192,102732,1,2,0:0:0:0:
448,192,102833,1,0,0:0:0:0:
320,192,103036,1,2,0:0:0:0:
64,192,103036,1,0,0:0:0:0:
320,192,103239,1,0,0:0:0:0:
64,192,103340,1,8,0:0:0:0:
192,192,103442,1,2,0:0:0:0:
448,192,103543,1,0,0:0:0:0:
192,192,103645,1,2,0:0:0:0:
448,192,103848,1,0,0:0:0:0:
64,192,103949,1,8,0:0:0:0:
192,192,103949,1,0,0:0:0:0:
320,192,104050,1,2,0:0:0:0:
64,192,104253,1,8,0:0:0:0:
192,192,104253,1,0,0:0:0:0:
320,192,104355,1,2,0:0:0:0:
448,192,104456,1,0,0:0:0:0:
192,192,104558,1,2,0:0:0:0:
320,192,104659,1,2,0:0:0:0:
64,192,104761,1,8,0:0:0:0:
320,192,104862,1,2,0:0:0:0:
320,192,104964,1,2,0:0:0:0:
64,192,105065,1,0,0:0:0:0:
448,192,105166,1,8,0:0:0:0:
192,192,105268,1,2,0:0:0:0:
192,192,105369,1,2,0:0:0:0:
448,192,105471,1,0,0:0:0:0:
64,192,105572,1,8,0:0:0:0:
192,192,105572,1,0,0:0:0:0:
320,192,105674,1,2,0:0:0:0:
64,192,105877,1,8,0:0:0:0:
192,192,105877,1,0,0:0:0:0:
320,192,105978,1,2,0:0:0:0:
448,192,106080,1,0,0:0:0:0:
192,192,106282,1,2,0:0:0:0:
64,192,106384,1,8,0:0:0:0:
448,192,106485,1,0,0:0:0:0:
64,192,106688,1,8,0:0:0:0:
192,192,106688,1,0,0:0:0:0:
448,192,106790,128,0,106891:0:0:0:0:
448,192,106993,128,0,107094:0:0:0:0:
192,192,107094,1,0,0:0:0:0:
64,192,107094,1,8,0:0:0:0:
320,192,107297,1,8,0:0:0:0:
448,192,107297,1,0,0:0:0:0:
192,192,107398,1,8,0:0:0:0:
64,192,107398,1,0,0:0:0:0:
320,192,107601,1,8,0:0:0:0:
64,192,107804,1,0,0:0:0:0:
192,192,107804,1,8,0:0:0:0:
320,192,108109,1,2,0:0:0:0:
192,192,108210,1,2,0:0:0:0:
320,192,108312,1,8,0:0:0:0:
448,192,108312,1,0,0:0:0:0:
192,192,108514,1,2,0:0:0:0:
448,192,108717,128,0,108819:0:0:0:0:
320,192,108819,128,8,108920:0:0:0:0:
192,192,108920,128,8,109022:0:0:0:0:
320,192,109022,128,8,109123:0:0:0:0:
192,192,109123,1,0,0:0:0:0:
64,192,109123,1,8,0:0:0:0:
448,192,109326,1,0,0:0:0:0:
192,192,109529,128,2,109732:0:0:0:0:
320,192,109732,1,2,0:0:0:0:
192,192,109833,1,2,0:0:0:0:
448,192,109935,1,0,0:0:0:0:
320,192,109935,1,8,0:0:0:0:
192,192,110138,1,2,0:0:0:0:
448,192,110341,128,8,110544:0:0:0:0:
64,192,110341,128,0,110544:0:0:0:0:
192,192,110544,1,2,0:0:0:0:
320,192,110645,1,2,0:0:0:0:
64,192,110746,1,8,0:0:0:0:
192,192,110848,1,2,0:0:0:0:
448,192,110949,1,0,0:0:0:0:
320,192,111152,1,2,0:0:0:0:
192,192,111254,1,2,0:0:0:0:
448,192,111355,1,0,0:0:0:0:
192,192,111457,1,2,0:0:0:0:
448,192,111558,1,0,0:0:0:0:
320,192,111558,1,8,0:0:0:0:
448,192,111761,1,0,0:0:0:0:
192,192,111862,1,8,0:0:0:0:
64,192,111862,1,0,0:0:0:0:
320,192,111964,1,8,0:0:0:0:
448,192,111964,1,0,0:0:0:0:
192,192,112065,1,8,0:0:0:0:
64,192,112065,1,0,0:0:0:0:
320,192,112167,1,8,0:0:0:0:
64,192,112268,1,8,0:0:0:0:
192,192,112370,1,8,0:0:0:0:
192,192,112573,1,2,0:0:0:0:
320,192,112674,1,2,0:0:0:0:
64,192,112776,1,0,0:0:0:0:
192,192,112776,1,2,0:0:0:0:
448,192,113080,1,0,0:0:0:0:
64,192,113181,1,8,0:0:0:0:
192,192,113181,1,0,0:0:0:0:
320,192,113384,1,2,0:0:0:0:
448,192,113587,1,0,0:0:0:0:
64,192,113689,1,0,0:0:0:0:
448,192,113790,1,0,0:0:0:0:
192,192,113993,1,8,0:0:0:0:
64,192,113993,1,0,0:0:0:0:
320,192,114094,1,2,0:0:0:0:
448,192,114196,1,0,0:0:0:0:
192,192,114399,1,2,0:0:0:0:
192,192,114602,1,2,0:0:0:0:
320,192,114703,1,2,0:0:0:0:
64,192,114805,1,8,0:0:0:0:
192,192,115007,1,2,0:0:0:0:
448,192,115210,1,0,0:0:0:0:
64,192,115312,1,8,0:0:0:0:
192,192,115413,1,2,0:0:0:0:
64,192,115616,1,8,0:0:0:0:
192,192,115616,1,0,0:0:0:0:
320,192,115718,1,2,0:0:0:0:
448,192,115819,1,0,0:0:0:0:
320,192,116022,1,0,0:0:0:0:
64,192,116022,1,2,0:0:0:0:
64,192,116326,1,0,0:0:0:0:
448,192,116428,1,8,0:0:0:0:
320,192,116428,1,0,0:0:0:0:
192,192,116631,1,2,0:0:0:0:
64,192,116834,1,0,0:0:0:0:
448,192,116935,1,0,0:0:0:0:
64,192,117037,1,0,0:0:0:0:
448,192,117239,1,0,0:0:0:0:
320,192,117239,1,8,0:0:0:0:
192,192,117341,1,2,0:0:0:0:
64,192,117442,1,0,0:0:0:0:
64,192,117645,1,0,0:0:0:0:
320,192,117645,1,2,0:0:0:0:
192,192,117848,1,2,0:0:0:0:
320,192,117950,1,2,0:0:0:0:
64,192,118051,1,8,0:0:0:0:
192,192,118254,1,2,0:0:0:0:
64,192,118457,1,0,0:0:0:0:
320,192,118457,1,2,0:0:0:0:
448,192,118558,1,8,0:0:0:0:
192,192,118660,1,2,0:0:0:0:
448,192,118863,1,0,0:0:0:0:
320,192,118863,1,8,0:0:0:0:
192,192,118964,1,2,0:0:0:0:
448,192,119066,1,0,0:0:0:0:
64,192,119269,1,2,0:0:0:0:
320,192,119269,1,0,0:0:0:0:
64,192,119573,1,0,0:0:0:0:
320,192,119674,1,0,0:0:0:0:
448,192,119674,1,8,0:0:0:0:
192,192,119877,1,2,0:0:0:0:
64,192,120080,1,0,0:0:0:0:
448,192,120182,1,0,0:0:0:0:
64,192,120283,1,0,0:0:0:0:
320,192,120486,1,0,0:0:0:0:
448,192,120486,1,8,0:0:0:0:
192,192,120587,1,2,0:0:0:0:
64,192,120689,1,0,0:0:0:0:
320,192,120892,1,2,0:0:0:0:
64,192,120892,1,0,0:0:0:0:
192,192,121095,1,2,0:0:0:0:
320,192,121196,1,2,0:0:0:0:
192,192,121298,1,2,0:0:0:0:
320,192,121501,1,2,0:0:0:0:
64,192,121703,1,0,0:0:0:0:
448,192,121805,1,8,0:0:0:0:
192,192,121906,1,2,0:0:0:0:
448,192,122109,1,8,0:0:0:0:
320,192,122109,1,0,0:0:0:0:
192,192,122211,1,2,0:0:0:0:
64,192,122312,1,0,0:0:0:0:
448,192,122515,1,0,0:0:0:0:
192,192,122515,1,2,0:0:0:0:
448,192,122819,1,0,0:0:0:0:
192,192,122921,1,8,0:0:0:0:
64,192,122921,1,0,0:0:0:0:
320,192,123124,1,2,0:0:0:0:
448,192,123327,1,0,0:0:0:0:
64,192,123428,1,0,0:0:0:0:
448,192,123530,1,0,0:0:0:0:
192,192,123733,1,8,0:0:0:0:
64,192,123733,1,0,0:0:0:0:
320,192,123834,1,2,0:0:0:0:
448,192,123935,1,0,0:0:0:0:
448,192,124138,1,0,0:0:0:0:
192,192,124138,1,2,0:0:0:0:
192,192,124341,1,2,0:0:0:0:
320,192,124443,1,2,0:0:0:0:
64,192,124544,1,8,0:0:0:0:
192,192,124747,1,2,0:0:0:0:
448,192,124950,1,0,0:0:0:0:
64,192,125051,1,8,0:0:0:0:
320,192,125153,1,2,0:0:0:0:
320,192,125356,1,8,0:0:0:0:
448,192,125356,1,0,0:0:0:0:
192,192,125457,1,2,0:0:0:0:
64,192,125559,1,0,0:0:0:0:
320,192,125762,1,2,0:0:0:0:
64,192,125762,1,0,0:0:0:0:
64,192,126066,1,0,0:0:0:0:
320,192,126167,1,8,0:0:0:0:
448,192,126167,1,0,0:0:0:0:
192,192,126370,1,2,0:0:0:0:
64,192,126573,1,0,0:0:0:0:
448,192,126675,1,0,0:0:0:0:
64,192,126776,1,0,0:0:0:0:
320,192,126979,1,8,0:0:0:0:
448,192,126979,1,0,0:0:0:0:
192,192,127081,1,2,0:0:0:0:
64,192,127182,1,0,0:0:0:0:
448,192,127385,1,2,0:0:0:0:
192,192,127385,1,0,0:0:0:0:
192,192,127588,1,2,0:0:0:0:
320,192,127689,1,2,0:0:0:0:
64,192,127791,1,8,0:0:0:0:
320,192,127994,1,2,0:0:0:0:
448,192,128197,1,0,0:0:0:0:
64,192,128298,1,8,0:0:0:0:
192,192,128399,1,2,0:0:0:0:
192,192,128602,1,8,0:0:0:0:
64,192,128602,1,0,0:0:0:0:
320,192,128704,1,2,0:0:0:0:
448,192,128805,1,0,0:0:0:0:
192,192,129008,1,2,0:0:0:0:
448,192,129008,1,0,0:0:0:0:
448,192,129313,1,0,0:0:0:0:
64,192,129414,1,8,0:0:0:0:
192,192,129414,1,0,0:0:0:0:
320,192,129617,1,2,0:0:0:0:
448,192,129820,1,0,0:0:0:0:
64,192,129921,1,0,0:0:0:0:
448,192,130023,1,0,0:0:0:0:
448,192,130226,1,0,0:0:0:0:
320,192,130226,1,8,0:0:0:0:
192,192,130327,1,2,0:0:0:0:
64,192,130429,1,0,0:0:0:0:
320,192,130631,1,2,0:0:0:0:
64,192,130631,1,0,0:0:0:0:
320,192,130834,1,2,0:0:0:0:
192,192,130936,1,2,0:0:0:0:
448,192,131037,1,8,0:0:0:0:
192,192,131240,1,2,0:0:0:0:
64,192,131443,1,0,0:0:0:0:
448,192,131545,1,8,0:0:0:0:
320,192,131646,1,2,0:0:0:0:
448,192,131849,1,8,0:0:0:0:
320,192,131849,1,0,0:0:0:0:
192,192,131950,1,2,0:0:0:0:
64,192,132052,1,0,0:0:0:0:
320,192,132255,1,2,0:0:0:0:
64,192,132255,1,0,0:0:0:0:
64,192,132559,1,0,0:0:0:0:
320,192,132661,1,0,0:0:0:0:
448,192,132661,1,8,0:0:0:0:
192,192,132863,1,2,0:0:0:0:
64,192,133066,1,0,0:0:0:0:
448,192,133168,1,0,0:0:0:0:
64,192,133269,1,0,0:0:0:0:
448,192,133472,1,0,0:0:0:0:
320,192,133472,1,8,0:0:0:0:
192,192,133574,1,2,0:0:0:0:
64,192,133675,1,0,0:0:0:0:
448,192,133878,1,0,0:0:0:0:
192,192,133878,1,2,0:0:0:0:
192,192,134081,1,2,0:0:0:0:
320,192,134182,1,2,0:0:0:0:
64,192,134284,1,8,0:0:0:0:
320,192,134487,1,2,0:0:0:0:
448,192,134690,1,0,0:0:0:0:
64,192,134791,1,8,0:0:0:0:
192,192,134893,1,2,0:0:0:0:
192,192,135095,1,0,0:0:0:0:
64,192,135095,1,8,0:0:0:0:
320,192,135197,1,2,0:0:0:0:
448,192,135298,1,0,0:0:0:0:
64,192,135501,1,0,0:0:0:0:
448,192,135907,1,0,0:0:0:0:
64,192,136313,1,0,0:0:0:0:
448,192,136719,1,0,0:0:0:0:
64,192,137125,1,0,0:0:0:0:
448,192,137530,1,0,0:0:0:0:
64,192,137936,1,0,0:0:0:0:
448,192,138342,128,0,138545:0:0:0:0:
