osu file format v14

[General]
AudioFilename: audio.mp3
AudioLeadIn: 0
PreviewTime: 252334
Countdown: 0
SampleSet: Normal
StackLeniency: 0.7
Mode: 1
LetterboxInBreaks: 0
WidescreenStoryboard: 0

[Editor]
Bookmarks: 114396
DistanceSpacing: 0.3
BeatDivisor: 4
GridSize: 8
TimelineZoom: 5.399998

[Metadata]
Title:Bucephalus Bouncing Ball
TitleUnicode:Bucephalus Bouncing Ball
Artist:Aphex Twin
ArtistUnicode:Aphex Twin
Creator:Nifty
Version:Euclid
Source:Pi
Tags:original soundtrack experimental electronic instrumental analog come to daddy richard davis james
BeatmapID:4273074
BeatmapSetID:2046925

[Difficulty]
HPDrainRate:6.5
CircleSize:2
OverallDifficulty:6.5
ApproachRate:3.1
SliderMultiplier:1.4
SliderTickRate:1

[Events]
//Background and Video events
0,0,"pi.jpg",0,0
//Break Periods
//Storyboard Layer 0 (Background)
//Storyboard Layer 1 (Fail)
//Storyboard Layer 2 (Pass)
//Storyboard Layer 3 (Foreground)
//Storyboard Layer 4 (Overlay)
//Storyboard Sound Samples

[TimingPoints]
32,357.142857142857,8,1,0,60,1,0
32,-142.857142857143,4,1,0,60,0,0
5746,-99.009900990099,4,1,0,60,0,0
8603,352.941176470588,8,1,0,60,1,8
8604,352.941176470588,8,1,0,60,1,0
10015,357.568533969011,8,1,0,60,1,8
10015,-98.7166831194472,8,1,0,60,0,8
11445,357.568533969011,8,1,0,60,1,0
11445,-98.7166831194472,8,1,0,60,0,0
17165,-98.7166831194472,4,1,0,40,0,0
17344,-101.500435,4,1,0,40,0,0
17522,-103.01481,4,1,0,40,0,0
17701,-104.56048,4,1,0,40,0,0
18059,-107.72173,4,1,0,40,0,0
18238,-109.33803,4,1,0,40,0,0
18327,-110.150665,4,1,0,40,0,0
18416,-110.96933,4,1,0,40,0,0
18506,-111.8034,4,1,0,40,0,0
18595,-112.634346,4,1,0,40,0,0
18685,-113.480934,4,1,0,40,0,0
18774,-114.324356,4,1,0,40,0,0
18863,-115.17406,4,1,0,40,0,0
18953,-116.03972,4,1,0,40,0,0
19131,-117.771,4,1,0,40,0,0
19310,-119.53809,4,1,0,40,0,0
19489,-121.33168,4,1,0,40,0,0
19668,-123.15217,4,1,0,40,0,0
19847,-125,4,1,0,40,0,0
20026,-100,4,1,0,60,0,0
28608,361.44578313253,8,1,0,60,1,0
28608,-99.009900990099,8,1,0,60,0,0
31499,357.142857142857,8,1,0,60,1,0
31499,-100.200400801603,8,1,0,60,0,0
45695,-95.2380952380952,8,1,0,60,0,0
45784,-90.9090909090909,8,1,0,60,0,0
47213,361.44578313253,8,1,0,60,1,0
47213,-90.0900900900901,8,1,0,60,0,0
48658,357.142857142857,8,1,0,60,1,0
48658,-90.9090909090909,8,1,0,60,0,0
56246,-100,8,1,0,60,0,0
56335,-99.12921,8,1,0,60,0,0
56453,-97.98636,8,1,0,60,0,0
56542,-97.1331,8,1,0,60,0,0
56632,-96.27782,8,1,0,60,0,0
56721,-95.43943,8,1,0,60,0,0
56810,-94.60836,8,1,0,60,0,0
56900,-93.77529,8,1,0,60,0,0
56989,-92.95871,8,1,0,60,0,0
57078,-92.14923,8,1,0,60,0,0
57152,-91.48155,8,1,0,60,0,0
57229,357.568533969011,8,1,0,60,1,0
57229,-90.69277,8,1,0,60,0,0
80070,357.568533969011,8,1,0,20,1,0
80070,-90.90909,4,1,0,20,0,0
80247,-91.77038,4,1,0,20,0,0
80337,-92.208954,4,1,0,20,0,0
80426,-92.64472,4,1,0,20,0,0
80515,-93.08255,4,1,0,20,0,0
80605,-93.5274,4,1,0,20,0,0
80694,-93.96939,4,1,0,20,0,0
80784,-94.41849,4,1,0,20,0,0
80962,-95.31301,4,1,0,20,0,0
81141,-96.221115,4,1,0,20,0,0
81231,-96.68096,4,1,0,20,0,0
81320,-97.13787,4,1,0,20,0,0
81409,-97.596924,4,1,0,20,0,0
81499,-98.063354,4,1,0,20,0,0
81588,-98.52679,4,1,0,20,0,0
81678,-98.99766,4,1,0,20,0,0
81767,-99.465515,4,1,0,20,0,0
81856,-99.93557,4,1,0,20,0,0
81946,-100.41317,4,1,0,20,0,0
82035,-100.88771,4,1,0,20,0,0
82214,-101.84893,4,1,0,20,0,0
82303,-102.33025,4,1,0,20,0,0
82393,-102.819305,4,1,0,20,0,0
82482,-103.305214,4,1,0,20,0,0
82571,-103.79341,4,1,0,20,0,0
82661,-104.28945,4,1,0,20,0,0
82750,-104.78232,4,1,0,20,0,0
82840,-105.28308,4,1,0,20,0,0
82929,-105.78063,4,1,0,20,0,0
83108,-106.78847,4,1,0,20,0,0
83197,-107.293144,4,1,0,20,0,0
83287,-107.80591,4,1,0,20,0,0
83376,-108.31538,4,1,0,20,0,0
83465,-108.82726,4,1,0,20,0,0
83555,-109.34735,4,1,0,20,0,0
83644,-109.86411,4,1,0,20,0,0
83734,-110.389175,4,1,0,20,0,0
83823,-110.910866,4,1,0,20,0,0
84002,-111.96756,4,1,0,20,0,0
84091,-112.496704,4,1,0,20,0,0
84181,-113.03435,4,1,0,20,0,0
84270,-113.568535,4,1,0,20,0,0
84359,-114.10525,4,1,0,20,0,0
84449,-114.65056,4,1,0,20,0,0
84538,-115.19238,4,1,0,20,0,0
84627,-115.73677,4,1,0,20,0,0
84717,-116.289894,4,1,0,20,0,0
84806,-116.83945,4,1,0,20,0,0
84896,-117.39784,4,1,0,20,0,0
84985,-117.95266,4,1,0,20,0,0
85074,-118.510086,4,1,0,20,0,0
85164,-119.07646,4,1,0,20,0,0
85253,-119.639206,4,1,0,20,0,0
85343,-120.210976,4,1,0,20,0,0
85432,-120.77907,4,1,0,20,0,0
85521,-121.34985,4,1,0,20,0,0
85611,-121.9298,4,1,0,20,0,0
85700,-122.50603,4,1,0,20,0,0
85790,-123.09149,4,1,0,20,0,0
85879,-123.6732,4,1,0,20,0,0
85968,-124.25766,4,1,0,20,0,0
86058,-124.85151,4,1,0,20,0,0
86147,-125.44154,4,1,0,20,0,0
86237,-126.04104,4,1,0,20,0,0
86326,-126.636696,4,1,0,20,0,0
86415,-127.23515,4,1,0,20,0,0
86505,-127.84324,4,1,0,20,0,0
86684,-129.06126,4,1,0,20,0,0
86862,-130.28401,4,1,0,20,0,0
86952,-130.90665,4,1,0,20,0,0
87041,-131.52528,4,1,0,20,0,0
87130,-132.14687,4,1,0,20,0,0
87220,-132.77841,4,1,0,20,0,0
87309,-133.4059,4,1,0,20,0,0
87399,-134.04346,4,1,0,20,0,0
87488,-134.67693,4,1,0,20,0,0
87577,-135.31342,4,1,0,20,0,0
87667,-135.96008,4,1,0,20,0,0
87756,-136.60262,4,1,0,20,0,0
87935,-137.9041,4,1,0,20,0,0
88024,-138.55582,4,1,0,20,0,0
88114,-139.21799,4,1,0,20,0,0
88203,-139.87592,4,1,0,20,0,0
88293,-140.5444,4,1,0,20,0,0
88382,-141.20859,4,1,0,20,0,0
88471,-141.87592,4,1,0,20,0,0
88561,-142.55397,4,1,0,20,0,0
88650,-143.22765,4,1,0,20,0,0
88829,-144.59227,4,1,0,20,0,0
88918,-145.27559,4,1,0,20,0,0
89008,-145.96988,4,1,0,20,0,0
89097,-146.6597,4,1,0,20,0,0
89186,-147.35281,4,1,0,20,0,0
89276,-148.05704,4,1,0,20,0,0
89365,-148.75673,4,1,0,20,0,0
89455,-149.46765,4,1,0,20,0,0
89544,-150.17401,4,1,0,20,0,0
89723,-151.60481,4,1,0,20,0,0
89812,-152.32127,4,1,0,20,0,0
89902,-153.04922,4,1,0,20,0,0
89991,-153.77252,4,1,0,20,0,0
90080,-154.49924,4,1,0,20,0,0
90170,-155.2376,4,1,0,20,0,0
90259,-155.97124,4,1,0,20,0,0
90349,-156.71661,4,1,0,20,0,0
90438,-157.45724,4,1,0,20,0,0
90527,-158.20139,4,1,0,20,0,0
90617,-158.95744,4,1,0,20,0,0
90706,-159.70865,4,1,0,20,0,0
90796,-160.47191,4,1,0,20,0,0
90885,-161.23029,4,1,0,20,0,0
90974,-161.99225,4,1,0,20,0,0
91064,-162.7664,4,1,0,20,0,0
91153,-163.53563,4,1,0,20,0,0
91243,-164.3172,4,1,0,20,0,0
91332,-165.09375,4,1,0,20,0,0
91421,-165.87395,4,1,0,20,0,0
91511,-166.66667,4,1,0,60,0,0
103311,-166.66667,4,1,0,20,0,0
103446,-166.66667,4,1,0,60,0,0
103870,-166.66667,4,1,0,20,0,0
104005,-166.66667,4,1,0,60,0,0
104384,-166.66667,4,1,0,20,0,0
104519,-166.66667,4,1,0,60,0,0
114307,-125.000001875,4,1,0,60,0,0
137280,-142.857145306122,4,1,0,60,0,0
159449,-142.85715,8,1,0,60,0,0
159538,-140.50227,8,1,0,60,0,0
159627,-138.18623,8,1,0,60,0,0
159717,-135.883,8,1,0,60,0,0
159806,-133.64311,8,1,0,60,0,0
159896,-131.41557,8,1,0,60,0,0
159985,-129.24933,8,1,0,60,0,0
160074,-127.118774,8,1,0,60,0,0
160164,-125,8,1,0,60,0,0
170891,-125,8,1,0,60,0,0
170980,-123.180725,8,1,0,60,0,0
171070,-121.36795,8,1,0,60,0,0
171159,-119.60153,8,1,0,60,0,0
171248,-117.86084,8,1,0,60,0,0
171338,-116.12635,8,1,0,60,0,0
171427,-114.43623,8,1,0,60,0,0
171517,-112.75213,8,1,0,60,0,0
171605,-111.11112,8,1,0,60,0,0
171725,-107.26611,8,1,0,60,0,0
171844,-103.58456,8,1,0,60,0,0
171964,-100,8,1,0,60,0,0
172054,-111.11112,8,1,0,60,0,0
172174,-107.26611,8,1,0,60,0,0
172293,-103.58456,8,1,0,60,0,0
172413,-100,8,1,0,60,0,0
172680,-111.111111111111,8,1,0,60,0,0
173127,-111.11112,8,1,0,60,0,0
173247,-107.26611,8,1,0,60,0,0
173366,-103.58456,8,1,0,60,0,0
173486,-100,8,1,0,60,0,0
173751,-111.11112,8,1,0,60,0,0
173841,-109.16633,8,1,0,60,0,0
173930,-107.2766,8,1,0,60,0,0
174020,-105.398926,8,1,0,60,0,0
174109,-103.57442,8,1,0,60,0,0
174288,-100,8,1,0,60,0,0
174467,-111.11112,8,1,0,60,0,0
174586,-107.2766,8,1,0,60,0,0
174705,-103.57442,8,1,0,60,0,0
174824,-100,8,1,0,60,0,0
175004,-111.111111111111,8,1,0,60,0,0
182319,355.029585798817,8,1,0,60,1,8
182319,-111.11112,8,1,0,60,0,0
182406,-108.47743,8,1,0,60,0,0
182495,-105.8773,8,1,0,60,0,0
182584,-103.3395,8,1,0,60,0,0
182673,-100.86252,8,1,0,60,0,0
182761,-98.47177,8,1,0,60,0,0
182850,-96.11146,8,1,0,60,0,0
182939,-93.80773,8,1,0,60,0,0
183029,359.281437125748,8,1,0,60,1,0
183029,-90.475685,8,1,0,60,0,0
183049,359.281437125748,8,1,0,60,1,8
183407,-125,8,1,0,60,0,0
183721,-120.12759,8,1,0,60,0,0
184036,-115.4305,8,1,0,60,0,0
184305,-111.564995,8,1,0,60,0,0
184545,-108.225624,8,1,0,60,0,0
184755,-104.9995,8,1,0,60,0,0
184964,-102.633415,8,1,0,60,0,0
185143,-100.33337,8,1,0,60,0,0
185293,-98.445694,8,1,0,60,0,0
185443,-96.59353,8,1,0,60,0,0
185562,-95.14898,8,1,0,60,0,0
185652,-94.070816,8,1,0,60,0,0
185716,-93.31156,8,1,0,60,0,0
185768,-92.69919,8,1,0,60,0,0
185819,-92.102486,8,1,0,60,0,0
185871,-91.324200913242,8,1,0,60,0,0
185922,-90.90909,8,1,0,60,0,0
186281,-125,8,1,0,60,0,0
186595,-120.12759,8,1,0,60,0,0
186910,-115.4305,8,1,0,60,0,0
187179,-111.564995,8,1,0,60,0,0
187419,-108.225624,8,1,0,60,0,0
187629,-104.9995,8,1,0,60,0,0
187838,-102.633415,8,1,0,60,0,0
188017,-100.33337,8,1,0,60,0,0
188167,-98.445694,8,1,0,60,0,0
188317,-96.59353,8,1,0,60,0,0
188436,-95.14898,8,1,0,60,0,0
188526,-94.070816,8,1,0,60,0,0
188590,-93.31156,8,1,0,60,0,0
188642,-92.69919,8,1,0,60,0,0
188693,-92.102486,8,1,0,60,0,0
188746,-91.324200913242,8,1,0,60,0,0
188796,-90.90909,8,1,0,60,0,0
189155,-125,8,1,0,60,0,0
189200,-124.28977,8,1,0,60,0,0
189469,-120.12759,8,1,0,60,0,0
189559,-118.76639,8,1,0,60,0,0
189784,-115.4305,8,1,0,60,0,0
189904,-113.68984,8,1,0,60,0,0
190053,-111.564995,8,1,0,60,0,0
190203,-109.46601,8,1,0,60,0,0
190293,-108.225624,8,1,0,60,0,0
190473,-105.78685,8,1,0,60,0,0
190532,-104.9995,8,1,0,60,0,0
190712,-102.633415,8,1,0,60,0,0
190891,-100.33337,8,1,0,60,0,0
190952,-99.56139,8,1,0,60,0,0
191041,-98.445694,8,1,0,60,0,0
191191,-96.59353,8,1,0,60,0,0
191310,-95.14898,8,1,0,60,0,0
191400,-94.070816,8,1,0,60,0,0
191464,-93.31156,8,1,0,60,0,0
191516,-92.69919,8,1,0,60,0,0
191567,-92.102486,8,1,0,60,0,0
191620,-91.324200913242,8,1,0,60,0,0
191670,-90.90909,8,1,0,60,0,0
192030,-125,8,1,0,60,0,0
192344,-120.12759,8,1,0,60,0,0
192389,-119.44505,8,1,0,60,0,0
192659,-115.4305,8,1,0,60,0,0
192718,-114.57136,8,1,0,60,0,0
192928,-111.564995,8,1,0,60,0,0
193077,-109.479866,8,1,0,60,0,0
193168,-108.225624,8,1,0,60,0,0
193407,-104.9995,8,1,0,60,0,0
193528,-104.166666666667,8,1,0,60,0,0
193587,-102.633415,8,1,0,60,0,0
193766,-100.33337,8,1,0,60,0,0
193916,-98.445694,8,1,0,60,0,0
194066,-96.59353,8,1,0,60,0,0
194125,-95.8746,8,1,0,60,0,0
194185,-95.14898,8,1,0,60,0,0
194275,-94.070816,8,1,0,60,0,0
194339,-93.31156,8,1,0,60,0,0
194391,-92.69919,8,1,0,60,0,0
194442,-92.102486,8,1,0,60,0,0
194494,-91.324200913242,8,1,0,60,0,0
194545,-90.90909,8,1,0,60,0,0
194724,-100,8,1,0,60,0,0
194904,-107.736595,8,1,0,60,0,0
194971,-110.766785,8,1,0,60,0,0
195039,-113.92938,8,1,0,60,0,0
195106,-117.13376,8,1,0,60,0,0
195263,-125,8,1,0,60,0,0
195533,-120.11302,8,1,0,60,0,0
195802,-115.43415,8,1,0,60,0,0
196042,-111.41376,8,1,0,60,0,0
196281,-107.549286,8,1,0,60,0,0
196461,-104.72754,8,1,0,60,0,0
196640,-101.99489,8,1,0,60,0,0
196790,-99.759964,8,1,0,60,0,0
196940,-97.574,8,1,0,60,0,0
197059,-95.873924,8,1,0,60,0,0
197149,-94.60786,8,1,0,60,0,0
197213,-93.71773,8,1,0,60,0,0
197265,-93.000656,8,1,0,60,0,0
197316,-92.30272,8,1,0,60,0,0
197368,-91.5750915750916,8,1,0,60,0,0
197419,-90.90909,8,1,0,60,0,0
197778,-125,8,1,0,60,0,0
198092,-122.49521,8,1,0,60,0,0
198407,-120.03287,8,1,0,60,0,0
198676,-117.96934,8,1,0,60,0,0
198916,-116.158226,8,1,0,60,0,0
199155,-114.38231,8,1,0,60,0,0
199335,-113.06273,8,1,0,60,0,0
199485,-111.974724,8,1,0,60,0,0
199552,-111.49213,8,1,0,60,0,0
199619,-111.01163,8,1,0,60,0,0
199687,-110.526054,8,1,0,60,0,0
199754,-110.04973,8,1,0,60,0,0
199821,-109.57542,8,1,0,60,0,0
199889,-109.096146,8,1,0,60,0,0
200001,-108.31131,8,1,0,60,0,0
200158,-107.22062,8,1,0,60,0,0
200203,-106.91005,8,1,0,60,0,0
200293,-106.291565,8,1,0,60,0,0
200428,-105.37056,8,1,0,60,0,0
200652,-103.85993,8,1,0,60,0,0
200877,-102.36438,8,1,0,60,0,0
201101,-100.89686,8,1,0,60,0,0
201281,-99.73285,8,1,0,60,0,0
201341,-99.347855,8,1,0,60,0,0
201461,-98.58228,8,1,0,60,0,0
201550,-98.01831,8,1,0,60,0,0
201640,-97.45126,8,1,0,60,0,0
201730,-96.88752,8,1,0,60,0,0
201820,-96.32703,8,1,0,60,0,0
201940,-95.58475,8,1,0,60,0,0
202089,-94.671036,8,1,0,60,0,0
202209,-93.94151,8,1,0,60,0,0
202329,-93.2176,8,1,0,60,0,0
202449,-92.49929,8,1,0,60,0,0
202539,-91.96418,8,1,0,60,0,0
202628,-91.43806,8,1,0,60,0,0
202719,359.281437125748,8,1,0,60,1,0
202719,-90.90909,8,1,0,60,0,0
203047,-125,8,1,0,60,0,0
203167,-123.13708,8,1,0,60,0,0
203406,-119.50908,8,1,0,60,0,0
203526,-117.72799,8,1,0,60,0,0
203684,-115.10601,8,1,0,60,0,0
203795,-113.83125,8,1,0,60,0,0
203954,-111.29607,8,1,0,60,0,0
204065,-110.04973,8,1,0,60,0,0
204201,-108.00342,8,1,0,60,0,0
204304,-106.807304,8,1,0,60,0,0
204424,-105.215515,8,1,0,60,0,0
204634,-102.48677,8,1,0,60,0,0
204813,-100.21678,8,1,0,60,0,0
204963,-98.35331,8,1,0,60,0,0
205083,-96.88752,8,1,0,60,0,0
205203,-95.44357,8,1,0,60,0,0
205322,-94.032906,8,1,0,60,0,0
205412,-92.97988,8,1,0,60,0,0
205472,-92.28443,8,1,0,60,0,0
205532,-91.59418,8,1,0,60,0,0
205593,359.281437125748,8,1,0,60,1,8
205593,-90.90909,8,1,0,60,0,8
205683,359.281437125748,8,1,0,60,1,0
205683,-83.333336,8,1,0,60,0,0
205741,-84.16988,8,1,0,60,0,0
205801,-85.02922,8,1,0,60,0,0
205906,-86.554214,8,1,0,60,0,0
206011,-88.10658,8,1,0,60,0,0
206131,-89.914825,8,1,0,60,0,0
206280,-92.21178,8,1,0,60,0,0
206460,-95.06505,8,1,0,60,0,0
206699,-98.990425,8,1,0,60,0,0
206939,-103.095345,8,1,0,60,0,0
207179,-107.3705,8,1,0,60,0,0
207448,-112.37327,8,1,0,60,0,0
207747,-118.20799,8,1,0,60,0,0
208077,-125,8,1,0,60,0,0
208422,359.281437125748,8,1,0,60,1,0
208422,-66.6666666666667,8,1,0,60,0,0
210962,359.281437125748,8,1,0,60,1,0
210962,-125,8,1,0,60,0,0
211320,-118.82666,8,1,0,60,0,0
211634,-113.67762,8,1,0,60,0,0
211949,-108.73637,8,1,0,60,0,0
212218,-104.68707,8,1,0,60,0,0
212458,-101.20178,8,1,0,60,0,0
212697,-97.84632,8,1,0,60,0,0
212877,-95.39285,8,1,0,60,0,0
213056,-93.01402,8,1,0,60,0,0
213206,-91.066345,8,1,0,60,0,0
213356,-89.15944,8,1,0,60,0,0
213475,-87.675064,8,1,0,60,0,0
213565,-86.56888,8,1,0,60,0,0
213629,-85.79075,8,1,0,60,0,0
213681,-85.16369,8,1,0,60,0,0
213732,-84.553116,8,1,0,60,0,0
213784,-84.0336134453781,8,1,0,60,0,0
213835,-83.333336,8,1,0,60,0,0
214464,-76.92308,8,1,0,60,0,0
214509,-80.04618,8,1,0,60,0,0
214553,-83.333336,8,1,0,60,0,0
215003,-76.92308,8,1,0,60,0,0
215048,-80,8,1,0,60,0,0
215092,-83.3333333333333,8,1,0,60,0,0
215272,-87.91539,8,1,0,60,0,0
215362,-90.90909,8,1,0,60,0,0
215677,-76.92308,8,1,0,60,0,0
215722,-80,8,1,0,60,0,0
215766,-83.3333333333333,8,1,0,60,0,0
216013,-88.67093,8,1,0,60,0,0
216080,-90.90909,8,1,0,60,0,0
216260,-100.000015,8,1,0,60,0,0
216350,-94.876915,8,1,0,60,0,0
216440,-90.016304,8,1,0,60,0,0
216504,-86.71212,8,1,0,60,0,0
216555,-84.16615,8,1,0,60,0,0
216606,-81.69493,8,1,0,60,0,0
216659,-80,8,1,0,60,0,0
216709,-76.92308,8,1,0,60,0,0
216786,-50,8,1,0,60,0,0
219554,-33.3333333333333,8,1,0,60,0,0
220480,-66.65405,8,1,0,60,0,0
220750,-70.14581,8,1,0,60,0,0
220810,-70.94627,8,1,0,60,0,0
220870,-71.75587,8,1,0,60,0,0
220930,-72.5747,8,1,0,60,0,0
221289,-77.673,8,1,0,60,0,0
221349,-78.55935,8,1,0,60,0,0
221409,-79.45582,8,1,0,60,0,0
221468,-80.34732,8,1,0,60,0,0
221948,-87.98203,8,1,0,60,0,0
222007,-88.96919,8,1,0,60,0,0
222067,-89.98444,8,1,0,60,0,0
222127,-91.01129,8,1,0,60,0,0
222459,359.281437125748,8,1,0,60,1,8
222696,-101.35085,8,1,0,60,0,0
222776,-102.89585,8,1,0,60,0,0
222856,-104.4644,8,1,0,60,0,0
222936,-106.056854,8,1,0,60,0,0
223535,-118.77767,8,1,0,60,0,0
223625,-120.81658,8,1,0,60,0,0
223715,-122.89048,8,1,0,60,0,0
223805,-125,8,1,0,60,0,0
224370,359.281437125748,8,1,0,60,1,0
224370,-111.11112,8,1,0,60,0,0
224728,-107.18921,8,1,0,60,0,0
224818,-106.22789,8,1,0,60,0,0
224907,-105.28574,8,1,0,60,0,0
224997,-104.34149,8,1,0,60,0,0
225087,-103.405716,8,1,0,60,0,0
225357,-100.64845,8,1,0,60,0,0
225446,-99.75579,8,1,0,60,0,0
225626,-97.974525,8,1,0,60,0,0
225716,-97.09584,8,1,0,60,0,0
225761,-96.65946,8,1,0,60,0,0
225806,-96.22506,8,1,0,60,0,0
225895,-95.37162,8,1,0,60,0,0
225985,-94.51628,8,1,0,60,0,0
226105,-93.387764,8,1,0,60,0,0
226225,-92.27272,8,1,0,60,0,0
226315,-91.44518,8,1,0,60,0,0
226374,-90.90672,8,1,0,60,0,0
226434,-90.36238,8,1,0,60,0,0
226524,-89.55198,8,1,0,60,0,0
226584,-89.01575,8,1,0,60,0,0
226644,-88.48274,8,1,0,60,0,0
226704,-87.95291,8,1,0,60,0,0
226764,-87.42627,8,1,0,60,0,0
226883,-86.39105,8,1,0,60,0,0
226928,-86.00277,8,1,0,60,0,0
226973,-85.61626,8,1,0,60,0,0
227063,-84.84842,8,1,0,60,0,0
227123,-84.340355,8,1,0,60,0,0
227183,-83.83533,8,1,0,60,0,0
227243,-83.333336,8,1,0,60,0,0
227602,-111.11112,8,1,0,60,0,0
227692,-109.97312,8,1,0,60,0,0
227782,-108.84678,8,1,0,60,0,0
227871,-107.7443,8,1,0,60,0,0
227961,-106.640785,8,1,0,60,0,0
228231,-103.39759,8,1,0,60,0,0
228321,-102.33861,8,1,0,60,0,0
228500,-100.2645,8,1,0,60,0,0
228590,-99.23759,8,1,0,60,0,0
228635,-98.72809,8,1,0,60,0,0
228680,-98.2212,8,1,0,60,0,0
228770,-97.21522,8,1,0,60,0,0
228860,-96.21955,8,1,0,60,0,0
228979,-94.91868,8,1,0,60,0,0
229099,-93.624695,8,1,0,60,0,0
229189,-92.665794,8,1,0,60,0,0
229249,-92.03199,8,1,0,60,0,0
229309,-91.40251,8,1,0,60,0,0
229398,-90.47672,8,1,0,60,0,0
229458,-89.857895,8,1,0,60,0,0
229518,-89.243286,8,1,0,60,0,0
229578,-88.63289,8,1,0,60,0,0
229638,-88.02667,8,1,0,60,0,0
229758,-86.82664,8,1,0,60,0,0
229803,-86.38085,8,1,0,60,0,0
229848,-85.93736,8,1,0,60,0,0
229937,-85.06692,8,1,0,60,0,0
229997,-84.485085,8,1,0,60,0,0
230057,-83.90724,8,1,0,60,0,0
230117,-83.333336,8,1,0,60,0,0
230746,-111.11112,8,1,0,60,0,0
230791,-110.47225,8,1,0,60,0,0
230836,-109.83705,8,1,0,60,0,0
231105,-106.11541,8,1,0,60,0,0
231374,-102.519875,8,1,0,60,0,0
231644,-99.03348,8,1,0,60,0,0
231869,-96.21888,8,1,0,60,0,0
232048,-94.036964,8,1,0,60,0,0
232228,-91.89275,8,1,0,60,0,0
232407,-89.80894,8,1,0,60,0,0
232542,-88.26866,8,1,0,60,0,0
232632,-87.2565,8,1,0,60,0,0
232722,-86.255974,8,1,0,60,0,0
232812,-85.2669,8,1,0,60,0,0
232871,-84.624664,8,1,0,60,0,0
232931,-83.976524,8,1,0,60,0,0
232991,-83.333336,8,1,0,60,0,0
233322,-111.111111111111,8,1,0,30,0,0
235837,-111.11112,8,1,0,60,0,0
235867,-16.6666666666667,8,1,0,60,0,0
236225,-107.18921,8,1,0,60,0,0
236404,-105.28574,8,1,0,60,0,0
236494,-104.34149,8,1,0,60,0,0
236584,-103.405716,8,1,0,60,0,0
236674,-102.47833,8,1,0,60,0,0
236764,-101.55928,8,1,0,60,0,0
236854,-100.64845,8,1,0,60,0,0
237033,-98.86114,8,1,0,60,0,0
237123,-97.974525,8,1,0,60,0,0
237213,-97.09584,8,1,0,60,0,0
237392,-95.37162,8,1,0,60,0,0
237602,-93.387764,8,1,0,60,0,0
237812,-91.44518,8,1,0,60,0,0
237991,-89.821304,8,1,0,60,0,0
238141,-88.48274,8,1,0,60,0,0
238291,-87.16412,8,1,0,60,0,0
238410,-86.132,8,1,0,60,0,0
238500,-85.35954,8,1,0,60,0,0
238560,-84.84842,8,1,0,60,0,0
238620,-84.340355,8,1,0,60,0,0
238680,-83.83533,8,1,0,60,0,0
238740,-83.333336,8,1,0,60,0,0
238830,-85.79496,8,1,0,60,0,0
238919,-88.30073,8,1,0,60,0,0
239009,-90.90909,8,1,0,60,0,0
239190,-111.111109753086,8,1,0,60,0,0
241614,-111.11111,8,1,0,60,0,0
241973,-107.18919,8,1,0,60,0,0
242153,-105.2752,8,1,0,60,0,0
242243,-104.33104,8,1,0,60,0,0
242333,-103.39536,8,1,0,60,0,0
242422,-102.47833,8,1,0,60,0,0
242512,-101.55928,8,1,0,60,0,0
242602,-100.648445,8,1,0,60,0,0
242782,-98.851234,8,1,0,60,0,0
242871,-97.97451,8,1,0,60,0,0
242961,-97.09584,8,1,0,60,0,0
243051,-96.22504,8,1,0,60,0,0
243141,-95.36207,8,1,0,60,0,0
243366,-93.23831,8,1,0,60,0,0
243455,-92.41137,8,1,0,60,0,0
243545,-91.582596,8,1,0,60,0,0
243635,-90.761246,8,1,0,60,0,0
243725,-89.94726,8,1,0,60,0,0
243904,-88.34998,8,1,0,60,0,0
244039,-87.164116,8,1,0,60,0,0
244159,-86.12338,8,1,0,60,0,0
244249,-85.35099,8,1,0,60,0,0
244309,-84.83992,8,1,0,60,0,0
244368,-84.340355,8,1,0,60,0,0
244428,-83.83533,8,1,0,60,0,0
244488,-83.333336,8,1,0,60,0,0
244578,-84.377304,8,1,0,60,0,0
244668,-85.434364,8,1,0,60,0,0
244758,-86.50466,8,1,0,60,0,0
244848,-87.58836,8,1,0,60,0,0
244907,-88.306145,8,1,0,60,0,0
244967,-89.04213,8,1,0,60,0,0
245027,-89.78425,8,1,0,60,0,0
245117,-90.90904,8,1,0,60,0,0
245207,-92.04792,8,1,0,60,0,0
245297,-93.20108,8,1,0,60,0,0
245476,-95.53766,8,1,0,60,0,0
245566,-96.734535,8,1,0,60,0,0
245611,-97.33857,8,1,0,60,0,0
245701,-98.55801,8,1,0,60,0,0
245746,-99.17344,8,1,0,60,0,0
245791,-99.79272,8,1,0,60,0,0
245806,-100,8,1,0,60,0,0
245925,-111.11111,8,1,0,60,0,0
246015,-107.18115,8,1,0,60,0,0
246105,-103.39019,8,1,0,60,0,0
246195,-99.733315,8,1,0,60,0,0
246285,-96.2058,8,1,0,60,0,0
246374,-92.84017,8,1,0,60,0,0
246464,-89.55646,8,1,0,60,0,0
246509,-87.95841,8,1,0,60,0,0
246554,-86.38887,8,1,0,60,0,0
246644,-83.333336,8,1,0,60,0,0
247003,-100.000015,8,1,0,60,0,0
247093,-95.54429,8,1,0,60,0,0
247183,-91.2871,8,1,0,60,0,0
247273,-87.219604,8,1,0,60,0,0
247318,-85.254326,8,1,0,60,0,0
247363,-83.333336,8,1,0,60,0,0
247722,-111.11112,8,1,0,60,0,0
247901,-108.85923,8,1,0,60,0,0
247991,-107.7443,8,1,0,60,0,0
248081,-106.640785,8,1,0,60,0,0
248171,-105.54858,8,1,0,60,0,0
248261,-104.46756,8,1,0,60,0,0
248351,-103.39759,8,1,0,60,0,0
248530,-101.302025,8,1,0,60,0,0
248620,-100.2645,8,1,0,60,0,0
248680,-99.578705,8,1,0,60,0,0
248740,-98.89764,8,1,0,60,0,0
248800,-98.2212,8,1,0,60,0,0
248889,-97.22634,8,1,0,60,0,0
249114,-94.75595,8,1,0,60,0,0
249294,-92.82491,8,1,0,60,0,0
249488,-90.787735,8,1,0,60,0,0
249668,-88.93756,8,1,0,60,0,0
249788,-87.72511,8,1,0,60,0,0
249907,-86.53909,8,1,0,60,0,0
249997,-85.652756,8,1,0,60,0,0
250057,-85.06692,8,1,0,60,0,0
250117,-84.485085,8,1,0,60,0,0
250177,-83.90724,8,1,0,60,0,0
250237,-83.333336,8,1,0,60,0,0
250327,-85.04386,8,1,0,60,0,0
250416,-86.7699,8,1,0,60,0,0
250506,-88.55096,8,1,0,60,0,0
250596,-90.36857,8,1,0,60,0,0
250776,-94.11649,8,1,0,60,0,0
250955,-97.99775,8,1,0,60,0,0
251045,-100.00926,8,1,0,60,0,0
251315,-106.29498,8,1,0,60,0,0
251494,-110.678444,8,1,0,60,0,0
252033,-125.00001,8,1,0,60,0,0
252392,-111.11112,8,1,0,60,0,0
252452,-107.2766,8,1,0,60,0,0
252512,-103.57443,8,1,0,60,0,0
252572,-100.000015,8,1,0,60,0,0
252753,-83.3333377777777,8,1,0,60,0,0
253112,359.281437125748,8,1,0,60,1,8
253415,359.281437125748,8,1,0,60,1,0
253415,-83.3333333333333,8,1,0,60,0,0
259521,-111.11112,8,1,0,60,0,0
259835,-107.19112,8,1,0,60,0,0
260150,-103.39759,8,1,0,60,0,0
260419,-100.2645,8,1,0,60,0,0
260659,-97.54939,8,1,0,60,0,0
260898,-94.91868,8,1,0,60,0,0
261078,-92.98433,8,1,0,60,0,0
261257,-91.09981,8,1,0,60,0,0
261407,-89.55006,8,1,0,60,0,0
261557,-88.02667,8,1,0,60,0,0
261676,-86.83657,8,1,0,60,0,0
261766,-85.94719,8,1,0,60,0,0
261830,-85.3203,8,1,0,60,0,0
261882,-84.81431,8,1,0,60,0,0
261933,-84.32097,8,1,0,60,0,0
261986,-83.6120401337793,8,1,0,60,0,0
262036,-83.333336,8,1,0,60,0,0
262396,-111.11112,8,1,0,60,0,0
262665,-107.56229,8,1,0,60,0,0
262964,-103.75051,8,1,0,60,0,0
263204,-100.788864,8,1,0,60,0,0
263414,-98.266846,8,1,0,60,0,0
263623,-95.819496,8,1,0,60,0,0
263803,-93.76064,8,1,0,60,0,0
263968,-91.75712,8,1,0,60,0,0
264102,-90.43797,8,1,0,60,0,0
264222,-89.13781,8,1,0,60,0,0
264312,-88.17498,8,1,0,60,0,0
264402,-87.22253,8,1,0,60,0,0
264491,-86.29079,8,1,0,60,0,0
264551,-85.668274,8,1,0,60,0,0
264611,-85.05025,8,1,0,60,0,0
264671,-84.43668,8,1,0,60,0,0
264702,-84.0336134453781,8,1,0,60,0,0
264781,359.281437125748,8,1,0,60,1,0
264781,-83.333336,8,1,0,60,0,0
269360,-83.333336,8,1,0,60,0,0
269420,-82.991394,8,1,0,60,0,0
269480,-82.65085,8,1,0,60,0,0
269540,-82.31171,8,1,0,60,0,0
269600,-81.97395,8,1,0,60,0,0
269660,-81.63757,8,1,0,60,0,0
269720,-81.30259,8,1,0,60,0,0
269780,-80.96899,8,1,0,60,0,0
269929,-80.146416,8,1,0,60,0,0
270049,-79.490036,8,1,0,60,0,0
270288,-78.19871,8,1,0,60,0,0
270348,-77.87783,8,1,0,60,0,0
270408,-77.55827,8,1,0,60,0,0
270468,-77.24001,8,1,0,60,0,0
270528,-76.92307,8,1,0,60,0,0
270887,-111.1111,8,1,0,60,0,0
271067,-108.846756,8,1,0,60,0,0
271157,-107.73196,8,1,0,60,0,0
271247,-106.62856,8,1,0,60,0,0
271336,-105.54854,8,1,0,60,0,0
271426,-104.46752,8,1,0,60,0,0
271516,-103.397575,8,1,0,60,0,0
271696,-101.29043,8,1,0,60,0,0
271785,-100.26448,8,1,0,60,0,0
271875,-99.23758,8,1,0,60,0,0
272025,-97.54939,8,1,0,60,0,0
272264,-94.91866,8,1,0,60,0,0
272444,-92.984314,8,1,0,60,0,0
272623,-91.09981,8,1,0,60,0,0
272773,-89.55005,8,1,0,60,0,0
272923,-88.02666,8,1,0,60,0,0
273042,-86.83655,8,1,0,60,0,0
273132,-85.94718,8,1,0,60,0,0
273196,-85.32028,8,1,0,60,0,0
273248,-84.81429,8,1,0,60,0,0
273299,-84.320946,8,1,0,60,0,0
273352,-83.6820083682008,8,1,0,60,0,0
273402,-83.33333,8,1,0,60,0,0
273492,-84.32147,8,1,0,60,0,0
273582,-85.321335,8,1,0,60,0,0
273672,-86.33306,8,1,0,60,0,0
273762,-87.35678,8,1,0,60,0,0
273941,-89.42906,8,1,0,60,0,0
274121,-91.56251,8,1,0,60,0,0
274211,-92.64823,8,1,0,60,0,0
274271,-93.379196,8,1,0,60,0,0
274330,-94.10359,8,1,0,60,0,0
274480,-95.97069,8,1,0,60,0,0
274540,-96.727875,8,1,0,60,0,0
274600,-97.49102,8,1,0,60,0,0
274660,-98.26019,8,1,0,60,0,0
274780,-99.81678,8,1,0,60,0,0
274794,-99.99998,8,1,0,60,0,0
274898,359.281437125748,8,1,0,60,1,8
275347,359.281437125748,8,1,0,60,1,1
275347,-83.3333333333333,8,1,0,60,0,1
277277,-100,8,1,0,60,0,1
277456,-96.59838,8,1,0,60,0,1
277621,-93.56539,8,1,0,60,0,1
277741,-91.41956,8,1,0,60,0,1
277801,-90.36517,8,1,0,60,0,1
277861,-89.32295,8,1,0,60,0,1
277950,-87.79908,8,1,0,60,0,1
278010,-86.786446,8,1,0,60,0,1
278070,-85.7855,8,1,0,60,0,1
278130,-84.7961,8,1,0,60,0,1
278220,-83.333336,8,1,0,60,0,1
280152,-100,8,1,0,60,0,1
280331,-96.59838,8,1,0,60,0,1
280496,-93.56539,8,1,0,60,0,1
280616,-91.41956,8,1,0,60,0,1
280676,-90.36517,8,1,0,60,0,1
280736,-89.32295,8,1,0,60,0,1
280825,-87.79908,8,1,0,60,0,1
280885,-86.786446,8,1,0,60,0,1
280945,-85.7855,8,1,0,60,0,1
281005,-84.7961,8,1,0,60,0,1
281095,-83.333336,8,1,0,60,0,1
283026,-100,8,1,0,60,0,1
283205,-96.59838,8,1,0,60,0,1
283370,-93.56539,8,1,0,60,0,1
283490,-91.41956,8,1,0,60,0,1
283550,-90.36517,8,1,0,60,0,1
283610,-89.32295,8,1,0,60,0,1
283699,-87.79908,8,1,0,60,0,1
283759,-86.786446,8,1,0,60,0,1
283819,-85.7855,8,1,0,60,0,1
283879,-84.7961,8,1,0,60,0,1
283969,-83.333336,8,1,0,60,0,1
285900,-100,8,1,0,60,0,1
286079,-96.59838,8,1,0,60,0,1
286244,-93.56539,8,1,0,60,0,1
286364,-91.41956,8,1,0,60,0,1
286424,-90.36517,8,1,0,60,0,1
286484,-89.32295,8,1,0,60,0,1
286573,-87.79908,8,1,0,60,0,1
286633,-86.786446,8,1,0,60,0,1
286693,-85.7855,8,1,0,60,0,1
286753,-84.7961,8,1,0,60,0,1
286843,-83.333336,8,1,0,60,0,1
288775,-100,8,1,0,60,0,1
288954,-96.59838,8,1,0,60,0,1
289119,-93.56539,8,1,0,60,0,1
289239,-91.41956,8,1,0,60,0,1
289299,-90.36517,8,1,0,60,0,1
289359,-89.32295,8,1,0,60,0,1
289448,-87.79908,8,1,0,60,0,1
289508,-86.786446,8,1,0,60,0,1
289568,-85.7855,8,1,0,60,0,1
289628,-84.7961,8,1,0,60,0,1
289718,-83.333336,8,1,0,60,0,1
291649,-100,8,1,0,60,0,1
291828,-96.59838,8,1,0,60,0,1
291993,-93.56539,8,1,0,60,0,1
292113,-91.41956,8,1,0,60,0,1
292173,-90.36517,8,1,0,60,0,1
292233,-89.32295,8,1,0,60,0,1
292322,-87.79908,8,1,0,60,0,1
292382,-86.786446,8,1,0,60,0,1
292442,-85.7855,8,1,0,60,0,1
292502,-84.7961,8,1,0,60,0,1
292592,-83.333336,8,1,0,60,0,1
294523,-100,8,1,0,60,0,1
294702,-96.59838,8,1,0,60,0,1
294867,-93.56539,8,1,0,60,0,1
294987,-91.41956,8,1,0,60,0,1
295047,-90.36517,8,1,0,60,0,1
295107,-89.32295,8,1,0,60,0,1
295196,-87.79908,8,1,0,60,0,1
295256,-86.786446,8,1,0,60,0,1
295316,-85.7855,8,1,0,60,0,1
295376,-84.7961,8,1,0,60,0,1
295466,-83.333336,8,1,0,60,0,1
297397,-100,8,1,0,60,0,1
297576,-96.59838,8,1,0,60,0,1
297741,-93.56539,8,1,0,60,0,1
297861,-91.41956,8,1,0,60,0,1
297921,-90.36517,8,1,0,60,0,1
297981,-89.32295,8,1,0,60,0,1
298070,-87.79908,8,1,0,60,0,1
298130,-86.786446,8,1,0,60,0,1
298190,-85.7855,8,1,0,60,0,1
298250,-84.7961,8,1,0,60,0,1
298340,-83.333336,8,1,0,60,0,1
300272,-100,8,1,0,60,0,1
300451,-96.59838,8,1,0,60,0,1
300616,-93.56539,8,1,0,60,0,1
300736,-91.41956,8,1,0,60,0,1
300796,-90.36517,8,1,0,60,0,1
300856,-89.32295,8,1,0,60,0,1
300945,-87.79908,8,1,0,60,0,1
301005,-86.786446,8,1,0,60,0,1
301065,-85.7855,8,1,0,60,0,1
301125,-84.7961,8,1,0,60,0,1
301215,-83.333336,8,1,0,60,0,1
303146,-100,8,1,0,60,0,1
303325,-96.59838,8,1,0,60,0,1
303490,-93.56539,8,1,0,60,0,1
303610,-91.41956,8,1,0,60,0,1
303670,-90.36517,8,1,0,60,0,1
303730,-89.32295,8,1,0,60,0,1
303819,-87.79908,8,1,0,60,0,1
303879,-86.786446,8,1,0,60,0,1
303939,-85.7855,8,1,0,60,0,1
303999,-84.7961,8,1,0,60,0,1
304089,-83.333336,8,1,0,60,0,1
305974,-83.333336,8,1,0,60,0,1
306064,-84.687454,8,1,0,60,0,1
306109,-85.372734,8,1,0,60,0,1
306154,-86.063576,8,1,0,60,0,1
306244,-87.46205,8,1,0,60,0,1
306334,-88.88326,8,1,0,60,0,1
306394,-89.84354,8,1,0,60,0,1
306453,-90.79793,8,1,0,60,0,1
306513,-91.77889,8,1,0,60,0,1
306633,-93.77273,8,1,0,60,0,1
306783,-96.32604,8,1,0,60,0,1
306963,359.281437125748,8,1,0,60,1,9
306993,359.281437125748,8,1,0,60,1,0
306993,-100,8,1,0,60,0,0
308055,359.281437125748,8,1,0,60,1,8
309583,359.281437125748,8,1,0,60,1,0
309583,-90.9090909090909,8,1,0,60,0,0
323729,-76.9230769230769,8,1,0,60,0,0
323922,-100,8,1,0,60,0,0
324807,-83.3333333333333,8,1,0,60,0,0
325809,-90.90909,8,1,0,60,0,0
325869,-88.31026,8,1,0,60,0,0
325929,-85.7857,8,1,0,60,0,0
325989,-83.333336,8,1,0,60,0,0
326289,-90.9090940826447,8,1,0,60,0,0
326559,-100.00000384,8,1,0,60,0,0
327726,-90.9090940826447,8,1,0,60,0,0
327905,-83.333336,8,1,0,60,0,0
327995,-84.87006,8,1,0,60,0,0
328084,-86.41758,8,1,0,60,0,0
328174,-88.01119,8,1,0,60,0,0
328264,-89.634186,8,1,0,60,0,0
328384,-91.84482,8,1,0,60,0,0
328504,-94.10998,8,1,0,60,0,0
328623,-96.41143,8,1,0,60,0,0
328803,-100.000015,8,1,0,60,0,0
328983,-96.41143,8,1,0,60,0,0
329073,-94.665726,8,1,0,60,0,0
329162,-92.970505,8,1,0,60,0,0
329252,-91.2871,8,1,0,60,0,0
329342,-89.63418,8,1,0,60,0,0
329402,-88.5489,8,1,0,60,0,0
329462,-87.476746,8,1,0,60,0,0
329522,-86.41759,8,1,0,60,0,0
329611,-84.87006,8,1,0,60,0,0
329701,-83.333336,8,1,0,60,0,0
329762,-86.9565217391304,8,1,0,60,0,0
329822,-90.9090940826447,8,1,0,60,0,0
330039,-86.9565217391304,8,1,0,60,0,0
330100,-88.8888888888889,8,1,0,60,0,0
330160,-90.9090940826447,8,1,0,60,0,0
330376,-76.9230791952663,8,1,0,60,0,0
330437,-80,8,1,0,60,0,0
330497,-83.3333360000001,8,1,0,60,0,0
330809,-100.000015,8,1,0,60,0,0
330959,-92.02359,8,1,0,60,0,0
331019,-89.0141,8,1,0,60,0,0
331079,-86.103035,8,1,0,60,0,0
331138,-83.333336,8,1,0,60,0,0
331229,-90.9090940826447,8,1,0,60,0,0
337156,-100.000015,8,1,0,60,0,0
337216,-96.87295,8,1,0,60,0,0
337276,-93.84365,8,1,0,60,0,0
337336,-90.909096,8,1,0,60,0,0
337517,-100.00000384,8,1,0,60,0,0
337695,-83.333336,8,1,0,60,0,0
337785,-86.6616,8,1,0,60,0,0
337875,-90.12277,8,1,0,60,0,0
337935,-92.50671,8,1,0,60,0,0
338055,-97.4654,8,1,0,60,0,0
338114,-100.000015,8,1,0,60,0,0
338234,-83.333336,8,1,0,60,0,0
338324,-86.6616,8,1,0,60,0,0
338414,-90.12277,8,1,0,60,0,0
338474,-92.50671,8,1,0,60,0,0
338593,-97.423,8,1,0,60,0,0
338652,-99.956505,8,1,0,60,0,0
338773,-90.90909,8,1,0,60,0,0
338952,-100.000015,8,1,0,60,0,0
339013,-98.04119,8,1,0,60,0,0
339073,-96.151886,8,1,0,60,0,0
339132,-94.32961,8,1,0,60,0,0
339192,-92.51185,8,1,0,60,0,0
339342,-88.11921,8,1,0,60,0,0
339462,-84.75577,8,1,0,60,0,0
339581,-81.547134,8,1,0,60,0,0
339671,-79.20137,8,1,0,60,0,0
339716,-78.05392,8,1,0,60,0,0
339761,-76.92308,8,1,0,60,0,0

[HitObjects]
297,120,5747,5,0,0:0:0:0:
280,92,5925,1,0,0:0:0:0:
297,120,6104,1,8,0:0:0:0:
297,120,6282,1,0,0:0:0:0:
297,120,6639,1,8,0:0:0:0:
297,120,6818,1,0,0:0:0:0:
293,104,6997,1,0,0:0:0:0:
302,126,7175,1,8,0:0:0:0:
304,128,7264,1,8,0:0:0:0:
302,126,7354,1,8,0:0:0:0:
302,126,7443,1,8,0:0:0:0:
304,128,7532,1,0,0:0:0:0:
305,131,7711,1,0,0:0:0:0:
302,126,7889,1,0,0:0:0:0:
310,127,8068,1,0,0:0:0:0:
304,128,8247,1,8,0:0:0:0:
310,127,8425,1,8,0:0:0:0:
304,128,8514,1,8,0:0:0:0:
308,150,8604,1,0,0:0:0:0:
310,124,8780,1,0,0:0:0:0:
310,127,8956,1,8,0:0:0:0:
313,136,9133,1,0,0:0:0:0:
321,131,9486,1,8,0:0:0:0:
321,131,9662,1,0,0:0:0:0:
320,131,9751,1,0,0:0:0:0:
320,131,9839,1,0,0:0:0:0:
320,131,9927,1,0,0:0:0:0:
320,131,10015,1,8,0:0:0:0:
312,121,10104,1,8,0:0:0:0:
311,121,10193,1,8,0:0:0:0:
311,121,10283,1,8,0:0:0:0:
326,126,10372,1,0,0:0:0:0:
311,121,10551,1,8,0:0:0:0:
303,121,10730,1,0,0:0:0:0:
306,124,10908,1,0,0:0:0:0:
319,122,11087,1,8,0:0:0:0:
304,113,11266,1,8,0:0:0:0:
306,116,11355,1,8,0:0:0:0:
310,109,11445,1,0,0:0:0:0:
308,96,11504,1,0,0:0:0:0:
303,92,11564,1,8,0:0:0:0:
314,93,11624,1,8,0:0:0:0:
312,98,11802,1,0,0:0:0:0:
307,109,11981,1,8,0:0:0:0:
315,99,12041,1,8,0:0:0:0:
314,100,12100,1,0,0:0:0:0:
311,101,12160,1,0,0:0:0:0:
319,103,12249,1,8,0:0:0:0:
314,102,12339,1,0,0:0:0:0:
314,102,12428,1,0,0:0:0:0:
315,101,12517,1,8,0:0:0:0:
312,108,12607,1,0,0:0:0:0:
312,107,12696,1,0,0:0:0:0:
312,105,12786,1,0,0:0:0:0:
310,109,12875,1,8,0:0:0:0:
317,96,12964,1,8,0:0:0:0:
314,100,13054,1,8,0:0:0:0:
319,103,13143,1,8,0:0:0:0:
309,106,13233,1,0,0:0:0:0:
314,102,13411,1,8,0:0:0:0:
312,108,13590,1,0,0:0:0:0:
312,105,13769,1,0,0:0:0:0:
309,105,13948,1,8,0:0:0:0:
309,105,14127,1,8,0:0:0:0:
309,106,14216,1,8,0:0:0:0:
318,136,14305,1,0,0:0:0:0:
311,94,14484,1,0,0:0:0:0:
311,95,14663,1,8,0:0:0:0:
320,109,14842,1,0,0:0:0:0:
310,96,15199,1,8,0:0:0:0:
318,99,15378,1,0,0:0:0:0:
329,96,15467,1,0,0:0:0:0:
318,99,15557,1,0,0:0:0:0:
321,96,15646,1,0,0:0:0:0:
318,99,15736,1,8,0:0:0:0:
312,98,15825,1,8,0:0:0:0:
310,96,15914,1,8,0:0:0:0:
310,96,16004,1,8,0:0:0:0:
309,107,16093,1,0,0:0:0:0:
318,99,16272,1,8,0:0:0:0:
316,101,16451,1,0,0:0:0:0:
316,101,16630,1,0,0:0:0:0:
312,98,16808,1,8,0:0:0:0:
316,101,16987,1,8,0:0:0:0:
316,101,17076,1,8,0:0:0:0:
289,136,17166,1,0,0:0:0:0:
301,96,17345,1,0,0:0:0:0:
301,96,17523,1,0,0:0:0:0:
301,96,17702,1,0,0:0:0:0:
294,98,18060,1,0,0:0:0:0:
294,98,18239,1,0,0:0:0:0:
301,96,18328,1,0,0:0:0:0:
301,96,18417,1,0,0:0:0:0:
301,96,18507,1,0,0:0:0:0:
301,96,18596,1,0,0:0:0:0:
301,96,18686,1,0,0:0:0:0:
302,92,18775,1,0,0:0:0:0:
300,94,18864,1,0,0:0:0:0:
300,94,18954,1,0,0:0:0:0:
302,92,19132,1,0,0:0:0:0:
301,96,19311,1,0,0:0:0:0:
301,96,19490,1,0,0:0:0:0:
301,96,19669,1,0,0:0:0:0:
300,94,19848,1,0,0:0:0:0:
308,159,20026,1,0,0:0:0:0:
301,96,20384,1,8,0:0:0:0:
311,89,20473,1,0,0:0:0:0:
319,92,20518,1,0,0:0:0:0:
319,88,20563,1,0,0:0:0:0:
319,88,20652,1,0,0:0:0:0:
319,88,20742,1,0,0:0:0:0:
306,92,20920,1,8,0:0:0:0:
306,92,21010,1,0,0:0:0:0:
306,92,21189,1,8,0:0:0:0:
301,111,21278,1,0,0:0:0:0:
302,109,21323,1,0,0:0:0:0:
303,108,21367,1,8,0:0:0:0:
308,101,21457,1,8,0:0:0:0:
319,88,21546,1,0,0:0:0:0:
319,88,21635,1,0,0:0:0:0:
319,88,21725,1,8,0:0:0:0:
306,92,21904,1,8,0:0:0:0:
311,87,21993,1,0,0:0:0:0:
330,92,22038,1,0,0:0:0:0:
288,66,22082,1,0,0:0:0:0:
310,85,22172,1,8,0:0:0:0:
315,80,22261,1,0,0:0:0:0:
315,80,22351,1,8,0:0:0:0:
315,80,22440,1,8,0:0:0:0:
315,80,22529,1,0,0:0:0:0:
311,88,22708,1,8,0:0:0:0:
314,86,22798,1,8,0:0:0:0:
298,130,22887,1,0,0:0:0:0:
311,87,23245,1,8,0:0:0:0:
312,87,23334,1,0,0:0:0:0:
315,80,23379,1,0,0:0:0:0:
309,88,23423,1,0,0:0:0:0:
309,88,23513,1,0,0:0:0:0:
311,88,23602,1,0,0:0:0:0:
329,86,23781,1,8,0:0:0:0:
329,87,23870,1,0,0:0:0:0:
321,83,24049,1,8,0:0:0:0:
311,87,24138,1,0,0:0:0:0:
332,72,24198,1,0,0:0:0:0:
332,73,24258,1,8,0:0:0:0:
332,73,24317,1,0,0:0:0:0:
322,80,24407,1,8,0:0:0:0:
322,80,24496,1,0,0:0:0:0:
322,80,24585,1,0,0:0:0:0:
321,80,24675,1,8,0:0:0:0:
321,80,24764,1,0,0:0:0:0:
329,87,24854,1,8,0:0:0:0:
331,78,24898,1,8,0:0:0:0:
331,78,24943,1,8,0:0:0:0:
321,83,25032,1,0,0:0:0:0:
326,79,25122,1,0,0:0:0:0:
323,80,25211,1,8,0:0:0:0:
322,80,25301,1,0,0:0:0:0:
328,84,25390,1,8,0:0:0:0:
329,83,25569,1,8,0:0:0:0:
329,83,25658,1,8,0:0:0:0:
315,110,25748,1,0,0:0:0:0:
326,79,26105,1,8,0:0:0:0:
316,91,26194,1,0,0:0:0:0:
322,80,26239,1,0,0:0:0:0:
322,80,26284,1,0,0:0:0:0:
318,84,26373,1,0,0:0:0:0:
318,84,26463,1,0,0:0:0:0:
329,83,26641,1,8,0:0:0:0:
328,78,26731,1,0,0:0:0:0:
326,79,26910,1,8,0:0:0:0:
326,79,26999,1,0,0:0:0:0:
316,94,27044,1,0,0:0:0:0:
319,92,27088,1,8,0:0:0:0:
326,81,27178,1,8,0:0:0:0:
325,85,27267,1,0,0:0:0:0:
325,86,27357,1,0,0:0:0:0:
326,87,27446,1,8,0:0:0:0:
319,90,27625,1,0,0:0:0:0:
319,90,27714,1,8,0:0:0:0:
333,90,27804,1,0,0:0:0:0:
327,100,27848,1,0,0:0:0:0:
327,98,27893,1,8,0:0:0:0:
332,90,27982,1,8,0:0:0:0:
336,89,28072,1,0,0:0:0:0:
336,89,28161,1,0,0:0:0:0:
331,89,28250,1,8,0:0:0:0:
335,88,28429,1,8,0:0:0:0:
335,88,28519,1,8,0:0:0:0:
331,109,28608,1,0,0:0:0:0:
327,97,28969,1,8,0:0:0:0:
327,97,29059,1,0,0:0:0:0:
328,96,29104,1,0,0:0:0:0:
328,96,29150,1,0,0:0:0:0:
326,96,29240,1,0,0:0:0:0:
326,96,29330,1,0,0:0:0:0:
335,100,29511,1,8,0:0:0:0:
335,100,29601,1,0,0:0:0:0:
327,97,29782,1,8,0:0:0:0:
327,97,29873,1,0,0:0:0:0:
345,101,29933,1,0,0:0:0:0:
339,108,29993,1,0,0:0:0:0:
296,144,30053,1,8,0:0:0:0:
328,96,30144,1,8,0:0:0:0:
326,96,30234,1,0,0:0:0:0:
326,96,30324,1,8,0:0:0:0:
335,100,30505,1,0,0:0:0:0:
335,100,30595,1,8,0:0:0:0:
327,97,30686,1,0,0:0:0:0:
327,97,30731,1,0,0:0:0:0:
327,97,30776,1,0,0:0:0:0:
334,90,30867,1,8,0:0:0:0:
334,102,30957,1,0,0:0:0:0:
336,101,31047,1,0,0:0:0:0:
336,101,31138,1,8,0:0:0:0:
332,108,31318,1,8,0:0:0:0:
332,108,31409,1,8,0:0:0:0:
300,133,31499,1,0,0:0:0:0:
326,114,31766,1,8,0:0:0:0:
290,132,31856,1,0,0:0:0:0:
312,118,32034,1,8,0:0:0:0:
324,115,32124,1,0,0:0:0:0:
320,112,32213,1,8,0:0:0:0:
315,111,32391,1,0,0:0:0:0:
314,111,32481,1,0,0:0:0:0:
314,111,32659,1,8,0:0:0:0:
313,112,32749,1,0,0:0:0:0:
296,131,32927,1,8,0:0:0:0:
312,118,33016,1,0,0:0:0:0:
316,119,33106,1,0,0:0:0:0:
311,121,33195,1,0,0:0:0:0:
311,122,33284,1,8,0:0:0:0:
310,117,33463,1,0,0:0:0:0:
310,128,33552,1,8,0:0:0:0:
310,127,33641,1,8,0:0:0:0:
310,127,33731,1,0,0:0:0:0:
314,124,33820,1,8,0:0:0:0:
314,125,33909,1,0,0:0:0:0:
314,125,33999,1,0,0:0:0:0:
311,121,34177,1,8,0:0:0:0:
315,115,34266,1,8,0:0:0:0:
299,129,34356,1,0,0:0:0:0:
318,110,34624,1,8,0:0:0:0:
316,111,34713,1,0,0:0:0:0:
313,110,34891,1,8,0:0:0:0:
316,114,34981,1,0,0:0:0:0:
313,110,35070,1,8,0:0:0:0:
315,115,35249,1,0,0:0:0:0:
316,114,35338,1,0,0:0:0:0:
318,110,35516,1,8,0:0:0:0:
318,110,35606,1,0,0:0:0:0:
307,122,35784,1,8,0:0:0:0:
313,110,35874,1,8,0:0:0:0:
313,110,35963,1,0,0:0:0:0:
313,110,36052,1,0,0:0:0:0:
315,115,36141,1,8,0:0:0:0:
310,107,36320,1,0,0:0:0:0:
309,108,36499,1,8,0:0:0:0:
309,108,36588,1,0,0:0:0:0:
309,108,36766,1,0,0:0:0:0:
317,115,36856,1,8,0:0:0:0:
313,110,36945,1,0,0:0:0:0:
313,110,37034,1,8,0:0:0:0:
313,107,37124,1,8,0:0:0:0:
315,122,37213,1,0,0:0:0:0:
309,108,37481,1,8,0:0:0:0:
309,108,37570,1,0,0:0:0:0:
309,108,37749,1,8,0:0:0:0:
305,111,37838,1,0,0:0:0:0:
305,111,37927,1,8,0:0:0:0:
305,111,38106,1,0,0:0:0:0:
305,111,38195,1,8,0:0:0:0:
309,108,38374,1,0,0:0:0:0:
309,108,38463,1,0,0:0:0:0:
309,108,38552,1,0,0:0:0:0:
321,123,38641,1,8,0:0:0:0:
319,122,38731,1,8,0:0:0:0:
319,122,38820,1,0,0:0:0:0:
319,122,38909,1,0,0:0:0:0:
319,122,38999,1,0,0:0:0:0:
319,122,39177,1,8,0:0:0:0:
319,122,39356,1,8,0:0:0:0:
319,122,39445,1,8,0:0:0:0:
319,122,39534,1,0,0:0:0:0:
321,123,39624,1,8,0:0:0:0:
319,122,39713,1,0,0:0:0:0:
319,122,39891,1,8,0:0:0:0:
319,122,39981,1,8,0:0:0:0:
319,120,40070,1,0,0:0:0:0:
319,122,40338,1,8,0:0:0:0:
319,122,40427,1,0,0:0:0:0:
316,128,40606,1,8,0:0:0:0:
319,122,40695,1,0,0:0:0:0:
316,128,40784,1,8,0:0:0:0:
319,122,40963,1,0,0:0:0:0:
314,125,41052,1,8,0:0:0:0:
309,126,41231,1,8,0:0:0:0:
309,126,41320,1,0,0:0:0:0:
309,126,41409,1,0,0:0:0:0:
306,132,41499,1,8,0:0:0:0:
316,128,41588,1,0,0:0:0:0:
310,126,41677,1,0,0:0:0:0:
309,126,41766,1,0,0:0:0:0:
306,125,41856,1,0,0:0:0:0:
306,125,42034,1,0,0:0:0:0:
299,126,42213,1,0,0:0:0:0:
299,126,42302,1,0,0:0:0:0:
299,126,42481,1,0,0:0:0:0:
299,126,42570,1,0,0:0:0:0:
299,126,42748,1,8,0:0:0:0:
299,126,42838,1,8,0:0:0:0:
311,124,42927,1,0,0:0:0:0:
286,119,43046,1,0,0:0:0:0:
292,117,43165,1,0,0:0:0:0:
293,116,43284,1,8,0:0:0:0:
311,123,43463,1,0,0:0:0:0:
306,119,43552,1,0,0:0:0:0:
305,118,43641,1,0,0:0:0:0:
299,126,43820,1,8,0:0:0:0:
311,124,43909,1,0,0:0:0:0:
310,117,44088,1,8,0:0:0:0:
304,119,44177,1,8,0:0:0:0:
304,119,44266,1,0,0:0:0:0:
311,104,44356,1,8,0:0:0:0:
303,118,44445,1,0,0:0:0:0:
306,119,44534,1,0,0:0:0:0:
305,118,44623,1,0,0:0:0:0:
303,118,44713,1,8,0:0:0:0:
311,114,44891,1,0,0:0:0:0:
310,117,45070,1,8,0:0:0:0:
305,110,45159,1,8,0:0:0:0:
305,110,45338,1,0,0:0:0:0:
306,108,45427,1,0,0:0:0:0:
306,108,45606,1,8,0:0:0:0:
306,108,45695,1,8,0:0:0:0:
311,103,45784,1,0,0:0:0:0:
310,117,45963,1,0,0:0:0:0:
311,113,46052,1,0,0:0:0:0:
311,109,46141,1,8,0:0:0:0:
305,110,46231,1,0,0:0:0:0:
300,90,46275,1,0,0:0:0:0:
295,97,46320,1,8,0:0:0:0:
296,96,46409,1,0,0:0:0:0:
298,96,46498,1,0,0:0:0:0:
306,108,46677,1,8,0:0:0:0:
302,105,46766,1,0,0:0:0:0:
302,104,46856,1,8,0:0:0:0:
302,104,46945,1,8,0:0:0:0:
302,104,47034,1,0,0:0:0:0:
325,100,47094,1,0,0:0:0:0:
325,94,47153,1,0,0:0:0:0:
314,102,47213,1,8,0:0:0:0:
325,104,47303,1,8,0:0:0:0:
322,103,47393,1,0,0:0:0:0:
319,102,47484,1,8,0:0:0:0:
319,102,47664,1,0,0:0:0:0:
316,102,47755,1,8,0:0:0:0:
319,110,47845,1,0,0:0:0:0:
316,111,47890,1,0,0:0:0:0:
317,111,47935,1,0,0:0:0:0:
319,109,48026,1,0,0:0:0:0:
321,108,48116,1,8,0:0:0:0:
321,108,48206,1,0,0:0:0:0:
325,104,48297,1,8,0:0:0:0:
322,103,48387,1,8,0:0:0:0:
321,108,48478,1,8,0:0:0:0:
321,108,48568,1,8,0:0:0:0:
316,90,48658,1,0,0:0:0:0:
308,111,48836,1,0,0:0:0:0:
309,108,48925,1,0,0:0:0:0:
309,108,49015,1,8,0:0:0:0:
311,107,49104,1,0,0:0:0:0:
311,107,49149,1,0,0:0:0:0:
311,107,49193,1,8,0:0:0:0:
311,107,49283,1,0,0:0:0:0:
311,107,49372,1,0,0:0:0:0:
325,94,49550,1,8,0:0:0:0:
309,95,49640,1,0,0:0:0:0:
312,94,49729,1,8,0:0:0:0:
312,94,49818,1,8,0:0:0:0:
312,94,49908,1,0,0:0:0:0:
309,108,49967,1,0,0:0:0:0:
311,107,50027,1,0,0:0:0:0:
321,85,50086,1,8,0:0:0:0:
311,107,50175,1,8,0:0:0:0:
311,107,50265,1,0,0:0:0:0:
304,105,50354,1,8,0:0:0:0:
306,102,50533,1,8,0:0:0:0:
343,112,50622,1,0,0:0:0:0:
342,114,50711,1,8,0:0:0:0:
332,94,50756,1,8,0:0:0:0:
342,112,50800,1,0,0:0:0:0:
342,112,50890,1,8,0:0:0:0:
329,96,50979,1,0,0:0:0:0:
329,96,51068,1,0,0:0:0:0:
329,96,51158,1,8,0:0:0:0:
331,93,51247,1,0,0:0:0:0:
331,93,51336,1,8,0:0:0:0:
331,93,51425,1,8,0:0:0:0:
323,84,51515,1,0,0:0:0:0:
331,104,51693,1,0,0:0:0:0:
332,105,51783,1,0,0:0:0:0:
331,100,51872,1,8,0:0:0:0:
319,89,51961,1,0,0:0:0:0:
319,86,52006,1,0,0:0:0:0:
319,86,52050,1,8,0:0:0:0:
319,86,52140,1,0,0:0:0:0:
319,86,52229,1,0,0:0:0:0:
322,89,52408,1,8,0:0:0:0:
336,96,52497,1,0,0:0:0:0:
327,91,52586,1,8,0:0:0:0:
325,86,52675,1,8,0:0:0:0:
325,86,52765,1,0,0:0:0:0:
323,75,52824,1,0,0:0:0:0:
319,89,52884,1,0,0:0:0:0:
322,87,52943,1,8,0:0:0:0:
315,94,53033,1,8,0:0:0:0:
315,91,53122,1,0,0:0:0:0:
313,92,53211,1,8,0:0:0:0:
311,92,53390,1,8,0:0:0:0:
311,92,53479,1,8,0:0:0:0:
313,80,53568,1,0,0:0:0:0:
312,81,53613,1,0,0:0:0:0:
310,86,53658,1,8,0:0:0:0:
325,86,53747,1,8,0:0:0:0:
319,89,53836,1,0,0:0:0:0:
322,87,53925,1,8,0:0:0:0:
317,86,54015,1,0,0:0:0:0:
315,91,54104,1,8,0:0:0:0:
313,92,54193,1,8,0:0:0:0:
316,86,54283,1,8,0:0:0:0:
332,119,54372,1,0,0:0:0:0:
320,99,54550,1,0,0:0:0:0:
339,112,54640,1,0,0:0:0:0:
332,112,54729,1,8,0:0:0:0:
332,112,54818,1,0,0:0:0:0:
332,112,54863,1,0,0:0:0:0:
332,112,54908,1,8,0:0:0:0:
332,112,54997,1,0,0:0:0:0:
332,112,55086,1,0,0:0:0:0:
322,89,55265,1,8,0:0:0:0:
320,89,55354,1,0,0:0:0:0:
320,89,55443,1,8,0:0:0:0:
320,89,55533,1,8,0:0:0:0:
320,89,55622,1,0,0:0:0:0:
339,98,55681,1,0,0:0:0:0:
335,103,55741,1,0,0:0:0:0:
345,117,55800,1,8,0:0:0:0:
348,90,55890,1,8,0:0:0:0:
341,93,55979,1,0,0:0:0:0:
337,92,56068,1,8,0:0:0:0:
338,96,56247,1,0,0:0:0:0:
338,96,56336,1,8,0:0:0:0:
353,84,56455,1,0,0:0:0:0:
354,84,56544,1,8,0:0:0:0:
354,84,56634,1,8,0:0:0:0:
342,85,56723,1,0,0:0:0:0:
348,90,56812,1,0,0:0:0:0:
349,87,56902,1,8,0:0:0:0:
347,88,56991,1,0,0:0:0:0:
347,88,57080,1,8,0:0:0:0:
326,98,57154,1,8,0:0:0:0:
333,117,57229,1,0,0:0:0:0:
334,92,57407,1,8,0:0:0:0:
338,96,57452,1,0,0:0:0:0:
338,95,57497,1,0,0:0:0:0:
339,97,57586,1,8,0:0:0:0:
333,94,57765,1,0,0:0:0:0:
333,94,57854,1,0,0:0:0:0:
328,92,58033,1,8,0:0:0:0:
342,90,58122,1,0,0:0:0:0:
338,95,58301,1,0,0:0:0:0:
339,97,58391,1,0,0:0:0:0:
339,98,58480,1,8,0:0:0:0:
333,94,58525,1,8,0:0:0:0:
333,94,58569,1,0,0:0:0:0:
320,113,58659,5,8,0:0:0:0:
328,92,58761,1,8,0:0:0:0:
326,88,58863,1,0,0:0:0:0:
326,88,58914,1,0,0:0:0:0:
327,83,58965,1,0,0:0:0:0:
327,91,59016,1,8,0:0:0:0:
346,84,59106,1,0,0:0:0:0:
346,84,59195,1,0,0:0:0:0:
350,82,59285,1,0,0:0:0:0:
350,82,59374,1,8,0:0:0:0:
334,95,59463,1,8,0:0:0:0:
328,92,59553,1,0,0:0:0:0:
333,86,59642,1,0,0:0:0:0:
333,86,59731,1,8,0:0:0:0:
333,86,59821,1,0,0:0:0:0:
333,86,59910,1,8,0:0:0:0:
337,80,60000,1,8,0:0:0:0:
323,153,60089,5,0,0:0:0:0:
317,79,60268,1,8,0:0:0:0:
323,86,60313,1,0,0:0:0:0:
323,83,60357,1,0,0:0:0:0:
321,83,60447,1,8,0:0:0:0:
322,94,60625,1,0,0:0:0:0:
322,94,60715,1,0,0:0:0:0:
326,84,60894,1,8,0:0:0:0:
317,89,60983,1,0,0:0:0:0:
333,88,61162,1,0,0:0:0:0:
337,86,61251,1,0,0:0:0:0:
332,88,61341,1,8,0:0:0:0:
310,83,61430,1,0,0:0:0:0:
289,114,61519,1,8,0:0:0:0:
314,85,61621,1,8,0:0:0:0:
314,85,61724,1,0,0:0:0:0:
317,89,61775,1,0,0:0:0:0:
314,85,61826,1,0,0:0:0:0:
314,85,61877,1,8,0:0:0:0:
311,85,61966,1,0,0:0:0:0:
321,87,62056,1,0,0:0:0:0:
311,85,62145,1,0,0:0:0:0:
308,86,62234,1,8,0:0:0:0:
305,86,62324,1,8,0:0:0:0:
305,86,62413,1,0,0:0:0:0:
303,88,62503,1,0,0:0:0:0:
303,88,62592,1,8,0:0:0:0:
291,91,62681,1,0,0:0:0:0:
296,90,62771,1,8,0:0:0:0:
296,90,62860,1,8,0:0:0:0:
300,110,62950,1,0,0:0:0:0:
305,86,63128,1,8,0:0:0:0:
313,98,63173,1,0,0:0:0:0:
313,95,63218,1,0,0:0:0:0:
313,95,63307,1,8,0:0:0:0:
308,89,63486,1,0,0:0:0:0:
308,89,63575,1,0,0:0:0:0:
305,86,63754,1,8,0:0:0:0:
305,86,63844,1,0,0:0:0:0:
304,95,64022,1,0,0:0:0:0:
304,95,64112,1,0,0:0:0:0:
304,95,64201,1,8,0:0:0:0:
299,93,64246,1,8,0:0:0:0:
299,93,64290,1,0,0:0:0:0:
305,109,64380,1,8,0:0:0:0:
316,89,64482,1,8,0:0:0:0:
317,88,64584,1,0,0:0:0:0:
317,88,64635,1,0,0:0:0:0:
316,88,64686,1,0,0:0:0:0:
316,88,64737,1,8,0:0:0:0:
318,100,64827,1,0,0:0:0:0:
318,100,64916,1,0,0:0:0:0:
314,101,65006,1,0,0:0:0:0:
314,101,65095,1,8,0:0:0:0:
314,101,65184,1,8,0:0:0:0:
317,100,65274,1,0,0:0:0:0:
310,102,65363,1,0,0:0:0:0:
317,100,65453,1,8,0:0:0:0:
311,102,65542,1,0,0:0:0:0:
318,100,65631,1,8,0:0:0:0:
314,101,65721,1,8,0:0:0:0:
310,107,65810,1,0,0:0:0:0:
305,95,65989,1,8,0:0:0:0:
297,95,66034,1,0,0:0:0:0:
302,94,66078,1,0,0:0:0:0:
300,95,66168,1,8,0:0:0:0:
300,96,66346,1,0,0:0:0:0:
302,94,66436,1,0,0:0:0:0:
284,92,66615,1,8,0:0:0:0:
284,92,66704,1,0,0:0:0:0:
294,89,66764,1,0,0:0:0:0:
297,95,66823,1,8,0:0:0:0:
294,89,66883,1,0,0:0:0:0:
298,84,66972,1,0,0:0:0:0:
299,83,67062,1,8,0:0:0:0:
300,96,67106,1,8,0:0:0:0:
302,94,67151,1,0,0:0:0:0:
325,109,67240,1,8,0:0:0:0:
290,79,67343,1,8,0:0:0:0:
294,80,67445,1,0,0:0:0:0:
294,81,67496,1,0,0:0:0:0:
294,81,67547,1,0,0:0:0:0:
294,80,67598,1,8,0:0:0:0:
308,88,67687,1,0,0:0:0:0:
307,88,67777,1,0,0:0:0:0:
307,88,67866,1,0,0:0:0:0:
302,94,67956,1,8,0:0:0:0:
303,90,68045,1,8,0:0:0:0:
306,89,68134,1,0,0:0:0:0:
306,89,68224,1,0,0:0:0:0:
303,90,68313,1,8,0:0:0:0:
308,88,68403,1,0,0:0:0:0:
308,88,68492,1,8,0:0:0:0:
307,88,68581,1,0,0:0:0:0:
298,107,68671,1,8,0:0:0:0:
300,94,68849,1,0,0:0:0:0:
306,89,68894,1,0,0:0:0:0:
306,89,68939,1,0,0:0:0:0:
306,89,69028,1,8,0:0:0:0:
308,88,69207,1,8,0:0:0:0:
308,88,69296,1,0,0:0:0:0:
305,89,69475,1,8,0:0:0:0:
296,92,69565,1,8,0:0:0:0:
306,89,69654,1,0,0:0:0:0:
294,90,69743,1,8,0:0:0:0:
308,88,69922,1,0,0:0:0:0:
308,88,69967,1,0,0:0:0:0:
308,88,70012,1,8,0:0:0:0:
303,101,70101,1,0,0:0:0:0:
305,89,70203,1,0,0:0:0:0:
305,89,70305,1,8,0:0:0:0:
312,91,70356,1,8,0:0:0:0:
312,91,70407,1,8,0:0:0:0:
312,91,70459,1,0,0:0:0:0:
305,93,70548,1,0,0:0:0:0:
308,88,70637,1,8,0:0:0:0:
308,88,70727,1,0,0:0:0:0:
306,98,70816,1,8,0:0:0:0:
304,93,70905,1,0,0:0:0:0:
305,89,70995,1,0,0:0:0:0:
305,89,71084,1,0,0:0:0:0:
306,98,71174,1,8,0:0:0:0:
307,100,71263,1,0,0:0:0:0:
306,98,71352,1,8,0:0:0:0:
307,100,71442,1,0,0:0:0:0:
306,98,71531,1,8,0:0:0:0:
297,95,71710,1,0,0:0:0:0:
294,94,71755,1,0,0:0:0:0:
294,92,71799,1,0,0:0:0:0:
299,103,71889,1,8,0:0:0:0:
306,98,72068,1,8,0:0:0:0:
300,92,72157,1,0,0:0:0:0:
297,95,72336,1,8,0:0:0:0:
299,103,72425,1,8,0:0:0:0:
299,99,72515,1,0,0:0:0:0:
299,103,72604,1,8,0:0:0:0:
314,86,72783,1,0,0:0:0:0:
306,98,72827,1,0,0:0:0:0:
306,95,72872,1,8,0:0:0:0:
319,107,72962,1,0,0:0:0:0:
306,96,73064,1,0,0:0:0:0:
306,96,73166,1,8,0:0:0:0:
337,106,73217,1,8,0:0:0:0:
332,102,73268,1,8,0:0:0:0:
333,96,73319,1,0,0:0:0:0:
328,100,73408,1,0,0:0:0:0:
321,102,73498,1,8,0:0:0:0:
321,102,73587,1,0,0:0:0:0:
311,101,73677,1,8,0:0:0:0:
325,96,73766,1,0,0:0:0:0:
325,96,73855,1,0,0:0:0:0:
324,94,73945,1,0,0:0:0:0:
322,97,74034,1,8,0:0:0:0:
324,94,74124,1,0,0:0:0:0:
311,101,74213,1,8,0:0:0:0:
324,94,74302,1,0,0:0:0:0:
311,101,74392,1,8,0:0:0:0:
325,96,74571,1,0,0:0:0:0:
310,104,74615,1,0,0:0:0:0:
312,104,74660,1,0,0:0:0:0:
318,97,74749,1,8,0:0:0:0:
318,97,74928,1,8,0:0:0:0:
309,113,75018,1,0,0:0:0:0:
315,111,75196,1,8,0:0:0:0:
318,97,75286,1,8,0:0:0:0:
315,98,75375,1,0,0:0:0:0:
318,97,75464,1,8,0:0:0:0:
306,103,75643,1,0,0:0:0:0:
306,103,75688,1,0,0:0:0:0:
306,103,75733,1,8,0:0:0:0:
313,86,75822,1,0,0:0:0:0:
315,111,75924,1,0,0:0:0:0:
300,84,76026,1,8,0:0:0:0:
294,94,76077,1,8,0:0:0:0:
295,93,76129,1,8,0:0:0:0:
295,93,76180,1,0,0:0:0:0:
320,89,76269,1,0,0:0:0:0:
316,91,76358,1,8,0:0:0:0:
318,97,76448,1,0,0:0:0:0:
323,96,76537,1,8,0:0:0:0:
325,95,76627,1,0,0:0:0:0:
325,95,76716,1,0,0:0:0:0:
318,97,76805,1,0,0:0:0:0:
323,96,76895,1,8,0:0:0:0:
318,97,76984,1,0,0:0:0:0:
308,89,77074,1,8,0:0:0:0:
318,97,77163,1,0,0:0:0:0:
308,90,77252,1,8,0:0:0:0:
325,95,77431,1,0,0:0:0:0:
325,95,77476,1,0,0:0:0:0:
329,95,77521,1,0,0:0:0:0:
308,90,77610,1,8,0:0:0:0:
308,89,77789,1,8,0:0:0:0:
318,97,77878,1,0,0:0:0:0:
310,96,78057,1,8,0:0:0:0:
308,90,78146,1,8,0:0:0:0:
312,96,78236,1,0,0:0:0:0:
308,90,78325,1,8,0:0:0:0:
310,97,78504,1,0,0:0:0:0:
310,97,78549,1,0,0:0:0:0:
304,99,78593,1,8,0:0:0:0:
291,90,78683,1,0,0:0:0:0:
327,106,78785,1,0,0:0:0:0:
284,99,78887,1,8,0:0:0:0:
289,97,78938,1,8,0:0:0:0:
289,101,78989,1,8,0:0:0:0:
295,98,79040,1,0,0:0:0:0:
308,90,79130,1,0,0:0:0:0:
310,97,79219,1,8,0:0:0:0:
304,91,79308,1,0,0:0:0:0:
328,118,79398,1,8,0:0:0:0:
304,91,79487,1,0,0:0:0:0:
304,91,79577,1,0,0:0:0:0:
305,90,79666,1,0,0:0:0:0:
336,115,79755,1,8,0:0:0:0:
304,91,79845,1,0,0:0:0:0:
309,103,79934,1,8,0:0:0:0:
319,97,80002,1,8,0:0:0:0:
311,125,80070,5,0,0:0:0:0:
308,110,80248,1,0,0:0:0:0:
308,109,80338,1,0,0:0:0:0:
308,109,80427,1,0,0:0:0:0:
308,109,80516,1,0,0:0:0:0:
308,109,80606,1,0,0:0:0:0:
308,109,80695,1,0,0:0:0:0:
308,109,80785,1,0,0:0:0:0:
308,110,80963,1,0,0:0:0:0:
308,109,81142,1,0,0:0:0:0:
308,109,81232,1,0,0:0:0:0:
308,109,81321,1,0,0:0:0:0:
309,98,81410,1,0,0:0:0:0:
309,98,81500,1,0,0:0:0:0:
309,98,81589,1,0,0:0:0:0:
310,99,81679,1,0,0:0:0:0:
309,98,81768,1,0,0:0:0:0:
309,98,81857,1,0,0:0:0:0:
310,98,81947,1,0,0:0:0:0:
310,99,82036,1,0,0:0:0:0:
317,98,82215,1,0,0:0:0:0:
317,98,82304,1,0,0:0:0:0:
309,98,82394,1,0,0:0:0:0:
317,98,82483,1,0,0:0:0:0:
309,98,82572,1,0,0:0:0:0:
310,98,82662,1,0,0:0:0:0:
310,98,82751,1,0,0:0:0:0:
310,99,82841,1,0,0:0:0:0:
317,98,82930,1,0,0:0:0:0:
307,98,83109,1,0,0:0:0:0:
309,98,83198,1,0,0:0:0:0:
307,98,83288,1,0,0:0:0:0:
309,98,83377,1,0,0:0:0:0:
310,98,83466,1,0,0:0:0:0:
310,99,83556,1,0,0:0:0:0:
310,99,83645,1,0,0:0:0:0:
307,98,83735,1,0,0:0:0:0:
307,98,83824,1,0,0:0:0:0:
307,98,84003,1,0,0:0:0:0:
300,104,84092,1,0,0:0:0:0:
309,98,84182,1,0,0:0:0:0:
303,100,84271,1,0,0:0:0:0:
310,99,84360,1,0,0:0:0:0:
307,98,84450,1,0,0:0:0:0:
307,98,84539,1,0,0:0:0:0:
307,98,84628,1,0,0:0:0:0:
307,98,84718,1,0,0:0:0:0:
306,98,84807,1,0,0:0:0:0:
309,98,84897,1,0,0:0:0:0:
303,100,84986,1,0,0:0:0:0:
303,100,85075,1,0,0:0:0:0:
307,98,85165,1,0,0:0:0:0:
307,98,85254,1,0,0:0:0:0:
307,98,85344,1,0,0:0:0:0:
307,98,85433,1,0,0:0:0:0:
306,98,85522,1,0,0:0:0:0:
306,98,85612,1,0,0:0:0:0:
303,100,85701,1,0,0:0:0:0:
309,96,85791,1,0,0:0:0:0:
331,111,85880,1,0,0:0:0:0:
329,111,85969,1,0,0:0:0:0:
329,111,86059,1,0,0:0:0:0:
329,112,86148,1,0,0:0:0:0:
329,111,86238,1,0,0:0:0:0:
329,111,86327,1,0,0:0:0:0:
327,113,86416,1,0,0:0:0:0:
329,111,86506,1,0,0:0:0:0:
320,117,86685,1,0,0:0:0:0:
320,117,86863,1,0,0:0:0:0:
320,118,86953,1,0,0:0:0:0:
320,118,87042,1,0,0:0:0:0:
320,118,87131,1,0,0:0:0:0:
320,118,87221,1,0,0:0:0:0:
320,117,87310,1,0,0:0:0:0:
320,117,87400,1,0,0:0:0:0:
320,117,87489,1,0,0:0:0:0:
320,117,87578,1,0,0:0:0:0:
320,118,87668,1,0,0:0:0:0:
320,118,87757,1,0,0:0:0:0:
320,118,87936,1,0,0:0:0:0:
317,125,88025,1,0,0:0:0:0:
320,117,88115,1,0,0:0:0:0:
320,117,88204,1,0,0:0:0:0:
320,117,88294,1,0,0:0:0:0:
320,118,88383,1,0,0:0:0:0:
317,125,88472,1,0,0:0:0:0:
320,118,88562,1,0,0:0:0:0:
320,118,88651,1,0,0:0:0:0:
312,127,88830,1,0,0:0:0:0:
312,126,88919,1,0,0:0:0:0:
309,121,89009,1,0,0:0:0:0:
314,125,89098,1,0,0:0:0:0:
314,125,89187,1,0,0:0:0:0:
315,125,89277,1,0,0:0:0:0:
320,118,89366,1,0,0:0:0:0:
309,121,89456,1,0,0:0:0:0:
316,119,89545,1,0,0:0:0:0:
291,122,89724,1,0,0:0:0:0:
291,122,89813,1,0,0:0:0:0:
291,122,89903,1,0,0:0:0:0:
290,121,89992,1,0,0:0:0:0:
290,124,90081,1,0,0:0:0:0:
290,124,90171,1,0,0:0:0:0:
291,124,90260,1,0,0:0:0:0:
290,121,90350,1,0,0:0:0:0:
291,122,90439,1,0,0:0:0:0:
291,122,90528,1,0,0:0:0:0:
291,122,90618,1,0,0:0:0:0:
290,124,90707,1,0,0:0:0:0:
290,124,90797,1,0,0:0:0:0:
290,124,90886,1,0,0:0:0:0:
290,124,90975,1,0,0:0:0:0:
291,122,91065,1,0,0:0:0:0:
291,122,91154,1,0,0:0:0:0:
291,122,91244,1,0,0:0:0:0:
291,122,91333,1,0,0:0:0:0:
290,124,91422,1,0,0:0:0:0:
290,124,91512,1,0,0:0:0:0:
291,122,92048,1,0,0:0:0:0:
291,122,92584,1,0,0:0:0:0:
282,128,93121,1,0,0:0:0:0:
271,121,94372,1,0,0:0:0:0:
289,131,94909,1,0,0:0:0:0:
289,131,95445,1,0,0:0:0:0:
289,131,95981,1,0,0:0:0:0:
287,130,97233,1,0,0:0:0:0:
287,130,97769,1,0,0:0:0:0:
287,130,98305,1,0,0:0:0:0:
287,130,98842,1,0,0:0:0:0:
289,130,100093,1,0,0:0:0:0:
289,130,100630,1,0,0:0:0:0:
289,130,101166,1,0,0:0:0:0:
289,130,101702,1,0,0:0:0:0:
282,129,102954,1,0,0:0:0:0:
287,117,103414,1,8,0:0:0:0:
282,129,103490,1,0,0:0:0:0:
309,120,103947,1,8,0:0:0:0:
282,129,104027,1,0,0:0:0:0:
309,120,104486,1,8,0:0:0:0:
282,129,104563,1,0,0:0:0:0:
282,131,105814,1,0,0:0:0:0:
282,131,106351,1,0,0:0:0:0:
282,131,106887,1,0,0:0:0:0:
282,131,107423,1,0,0:0:0:0:
287,131,108675,1,0,0:0:0:0:
287,131,109211,1,0,0:0:0:0:
287,131,109748,1,0,0:0:0:0:
287,131,110284,1,0,0:0:0:0:
288,130,111536,1,0,0:0:0:0:
288,130,112072,1,0,0:0:0:0:
288,130,112608,1,0,0:0:0:0:
288,130,113145,1,0,0:0:0:0:
310,120,114307,1,8,0:0:0:0:
288,130,114396,1,0,0:0:0:0:
310,120,114485,1,0,0:0:0:0:
310,120,114575,1,8,0:0:0:0:
310,120,114664,1,0,0:0:0:0:
310,120,114754,1,8,0:0:0:0:
308,117,114932,1,0,0:0:0:0:
314,128,115022,1,0,0:0:0:0:
310,120,115111,1,0,0:0:0:0:
310,120,115290,1,8,0:0:0:0:
299,120,115469,1,0,0:0:0:0:
310,120,115558,1,8,0:0:0:0:
302,122,115648,1,0,0:0:0:0:
288,128,115737,1,0,0:0:0:0:
306,121,115826,1,8,0:0:0:0:
299,117,115916,1,8,0:0:0:0:
299,120,116005,1,0,0:0:0:0:
299,120,116184,1,0,0:0:0:0:
297,118,116273,1,0,0:0:0:0:
297,118,116363,1,8,0:0:0:0:
294,118,116541,1,8,0:0:0:0:
296,119,116631,1,0,0:0:0:0:
298,124,116720,1,0,0:0:0:0:
299,120,116810,1,8,0:0:0:0:
299,120,116899,1,8,0:0:0:0:
292,124,116988,1,0,0:0:0:0:
291,125,117078,1,8,0:0:0:0:
303,123,117257,1,0,0:0:0:0:
294,118,117346,1,0,0:0:0:0:
288,119,117435,1,0,0:0:0:0:
288,119,117525,1,0,0:0:0:0:
287,120,117614,1,8,0:0:0:0:
287,120,117704,1,8,0:0:0:0:
303,123,117793,1,0,0:0:0:0:
288,119,117972,1,8,0:0:0:0:
292,111,118151,1,8,0:0:0:0:
292,111,118240,1,0,0:0:0:0:
303,123,118329,1,0,0:0:0:0:
287,120,118419,1,0,0:0:0:0:
292,113,118508,1,8,0:0:0:0:
288,118,118598,1,0,0:0:0:0:
288,119,118687,1,8,0:0:0:0:
303,123,118866,1,0,0:0:0:0:
282,118,119223,1,8,0:0:0:0:
286,126,119402,1,0,0:0:0:0:
288,119,119491,1,0,0:0:0:0:
285,120,119581,1,8,0:0:0:0:
282,118,119670,1,0,0:0:0:0:
282,118,119760,1,8,0:0:0:0:
282,118,119849,1,8,0:0:0:0:
282,118,119938,1,8,0:0:0:0:
266,120,120117,5,0,0:0:0:0:
286,126,120207,1,0,0:0:0:0:
288,119,120296,1,0,0:0:0:0:
285,120,120385,1,0,0:0:0:0:
289,124,120475,1,8,0:0:0:0:
289,124,120564,1,8,0:0:0:0:
304,121,120654,1,0,0:0:0:0:
293,119,120743,1,8,0:0:0:0:
296,118,120832,1,0,0:0:0:0:
294,119,121011,1,8,0:0:0:0:
304,121,121190,1,0,0:0:0:0:
306,112,121279,1,0,0:0:0:0:
306,112,121369,1,0,0:0:0:0:
306,112,121458,1,0,0:0:0:0:
306,112,121547,1,8,0:0:0:0:
306,112,121637,1,8,0:0:0:0:
304,121,121726,1,0,0:0:0:0:
309,110,121905,1,8,0:0:0:0:
307,111,121994,1,0,0:0:0:0:
306,112,122084,1,8,0:0:0:0:
306,112,122263,1,8,0:0:0:0:
306,112,122352,1,0,0:0:0:0:
306,112,122441,1,0,0:0:0:0:
304,113,122531,1,8,0:0:0:0:
309,110,122620,1,8,0:0:0:0:
309,110,122710,1,0,0:0:0:0:
306,112,122799,1,8,0:0:0:0:
280,119,122978,1,0,0:0:0:0:
306,112,123157,1,0,0:0:0:0:
306,112,123246,1,0,0:0:0:0:
304,113,123335,1,8,0:0:0:0:
302,107,123425,1,8,0:0:0:0:
290,109,123514,1,0,0:0:0:0:
298,106,123603,1,0,0:0:0:0:
297,106,123693,1,0,0:0:0:0:
294,108,123782,1,0,0:0:0:0:
296,107,123872,1,8,0:0:0:0:
305,113,124050,1,0,0:0:0:0:
304,113,124140,1,0,0:0:0:0:
301,102,124229,1,0,0:0:0:0:
298,106,124319,1,0,0:0:0:0:
297,106,124408,1,8,0:0:0:0:
297,106,124497,1,8,0:0:0:0:
305,113,124587,1,0,0:0:0:0:
304,113,124944,1,8,0:0:0:0:
297,106,125123,1,8,0:0:0:0:
297,106,125213,1,0,0:0:0:0:
308,97,125302,1,8,0:0:0:0:
294,100,125391,1,8,0:0:0:0:
294,100,125481,1,0,0:0:0:0:
306,100,125570,1,0,0:0:0:0:
306,100,125659,1,8,0:0:0:0:
300,105,125749,1,8,0:0:0:0:
306,110,125838,1,0,0:0:0:0:
294,92,125928,1,0,0:0:0:0:
300,100,126017,1,0,0:0:0:0:
294,94,126106,1,0,0:0:0:0:
294,100,126196,1,8,0:0:0:0:
292,106,126375,1,0,0:0:0:0:
299,91,126464,1,0,0:0:0:0:
315,101,126553,1,0,0:0:0:0:
310,101,126643,1,0,0:0:0:0:
310,101,126732,1,8,0:0:0:0:
292,106,126911,1,0,0:0:0:0:
280,135,127000,1,0,0:0:0:0:
293,119,127090,1,0,0:0:0:0:
294,118,127179,1,0,0:0:0:0:
294,118,127269,1,8,0:0:0:0:
292,106,127447,1,0,0:0:0:0:
297,128,127537,1,0,0:0:0:0:
297,126,127626,1,0,0:0:0:0:
297,126,127716,1,0,0:0:0:0:
282,102,127805,1,8,0:0:0:0:
294,100,127984,1,8,0:0:0:0:
292,106,128162,1,0,0:0:0:0:
292,106,128252,1,8,0:0:0:0:
301,97,128341,1,8,0:0:0:0:
301,97,128520,1,8,0:0:0:0:
306,112,128699,1,0,0:0:0:0:
296,100,129056,1,8,0:0:0:0:
306,112,129235,1,0,0:0:0:0:
301,102,129325,1,0,0:0:0:0:
299,103,129414,1,8,0:0:0:0:
296,100,129593,1,8,0:0:0:0:
306,112,129772,1,0,0:0:0:0:
301,103,129861,1,8,0:0:0:0:
294,107,129950,1,0,0:0:0:0:
294,107,130129,1,8,0:0:0:0:
306,112,130308,1,8,0:0:0:0:
294,107,130397,1,8,0:0:0:0:
294,107,130487,1,0,0:0:0:0:
294,107,130665,1,8,0:0:0:0:
294,107,130844,1,8,0:0:0:0:
292,108,131023,1,0,0:0:0:0:
294,107,131112,1,0,0:0:0:0:
294,107,131202,1,8,0:0:0:0:
294,107,131291,1,8,0:0:0:0:
294,107,131381,1,8,0:0:0:0:
310,103,131559,1,0,0:0:0:0:
329,102,131649,1,0,0:0:0:0:
323,96,131738,1,0,0:0:0:0:
321,97,131828,1,0,0:0:0:0:
301,99,131917,1,8,0:0:0:0:
310,103,132096,1,0,0:0:0:0:
297,100,132185,1,0,0:0:0:0:
294,94,132275,1,0,0:0:0:0:
294,94,132364,1,0,0:0:0:0:
294,94,132453,1,8,0:0:0:0:
310,103,132632,1,0,0:0:0:0:
294,94,132721,1,0,0:0:0:0:
294,94,132811,1,0,0:0:0:0:
294,94,132900,1,0,0:0:0:0:
294,94,132990,1,8,0:0:0:0:
310,103,133168,1,0,0:0:0:0:
298,100,133258,1,0,0:0:0:0:
298,101,133347,1,0,0:0:0:0:
299,99,133437,1,0,0:0:0:0:
299,99,133526,1,8,0:0:0:0:
294,94,133705,1,8,0:0:0:0:
294,96,133973,1,0,0:0:0:0:
293,90,134062,1,8,0:0:0:0:
293,94,134241,1,8,0:0:0:0:
306,102,134420,1,0,0:0:0:0:
304,94,134509,1,8,0:0:0:0:
304,94,134599,1,0,0:0:0:0:
294,96,134777,1,8,0:0:0:0:
293,94,134956,1,0,0:0:0:0:
293,94,135046,1,0,0:0:0:0:
292,94,135135,1,0,0:0:0:0:
294,96,135314,1,8,0:0:0:0:
306,102,135493,1,8,0:0:0:0:
294,96,135582,1,0,0:0:0:0:
299,96,135671,1,0,0:0:0:0:
292,94,135850,1,8,0:0:0:0:
310,101,136029,1,0,0:0:0:0:
306,96,136118,1,8,0:0:0:0:
306,102,136208,1,8,0:0:0:0:
306,96,136387,1,8,0:0:0:0:
303,103,136565,1,0,0:0:0:0:
305,104,136655,1,8,0:0:0:0:
310,101,136744,1,0,0:0:0:0:
305,103,136834,1,0,0:0:0:0:
308,102,136923,1,8,0:0:0:0:
310,100,137012,1,8,0:0:0:0:
310,100,137102,1,8,0:0:0:0:
306,102,137280,1,0,0:0:0:0:
314,103,137638,1,8,0:0:0:0:
306,102,137817,1,0,0:0:0:0:
321,96,138174,1,8,0:0:0:0:
306,102,138353,1,0,0:0:0:0:
321,96,138711,1,8,0:0:0:0:
306,102,138890,1,0,0:0:0:0:
314,97,139247,1,8,0:0:0:0:
314,96,139426,1,8,0:0:0:0:
314,96,139694,1,0,0:0:0:0:
328,97,139783,1,8,0:0:0:0:
327,97,139962,1,8,0:0:0:0:
305,106,140141,1,0,0:0:0:0:
298,96,140409,1,8,0:0:0:0:
314,96,140499,1,8,0:0:0:0:
305,106,140677,1,0,0:0:0:0:
305,99,141035,1,8,0:0:0:0:
305,106,141214,1,0,0:0:0:0:
305,99,141571,1,8,0:0:0:0:
305,106,141750,1,0,0:0:0:0:
305,99,142108,1,8,0:0:0:0:
307,111,142286,1,8,0:0:0:0:
305,99,142644,1,0,0:0:0:0:
305,99,142733,1,8,0:0:0:0:
305,99,142823,1,8,0:0:0:0:
312,103,143002,1,0,0:0:0:0:
305,99,143359,1,8,0:0:0:0:
312,103,143538,1,0,0:0:0:0:
305,99,143895,1,8,0:0:0:0:
304,114,144074,1,0,0:0:0:0:
305,99,144432,1,8,0:0:0:0:
304,114,144611,1,0,0:0:0:0:
305,91,144968,1,8,0:0:0:0:
305,91,145147,1,8,0:0:0:0:
300,93,145415,1,0,0:0:0:0:
305,91,145505,1,8,0:0:0:0:
305,91,145683,1,8,0:0:0:0:
301,106,145862,1,0,0:0:0:0:
311,92,146220,1,8,0:0:0:0:
301,106,146398,1,0,0:0:0:0:
311,92,146756,1,8,0:0:0:0:
301,106,146935,1,0,0:0:0:0:
311,92,147292,1,8,0:0:0:0:
301,106,147471,1,0,0:0:0:0:
299,92,147829,1,8,0:0:0:0:
299,92,148008,1,8,0:0:0:0:
299,92,148097,1,0,0:0:0:0:
299,92,148186,1,8,0:0:0:0:
299,92,148276,1,0,0:0:0:0:
299,92,148365,1,0,0:0:0:0:
299,92,148454,1,8,0:0:0:0:
299,92,148544,1,8,0:0:0:0:
299,92,148633,1,0,0:0:0:0:
325,122,148723,5,0,0:0:0:0:
299,92,149080,1,8,0:0:0:0:
305,109,149259,1,0,0:0:0:0:
302,97,149617,1,8,0:0:0:0:
305,109,149795,1,0,0:0:0:0:
302,97,150153,1,8,0:0:0:0:
305,109,150332,1,0,0:0:0:0:
302,97,150689,1,8,0:0:0:0:
302,97,150868,1,8,0:0:0:0:
305,96,151136,1,0,0:0:0:0:
302,97,151226,1,8,0:0:0:0:
302,97,151404,1,8,0:0:0:0:
309,111,151583,1,0,0:0:0:0:
305,96,151851,1,8,0:0:0:0:
323,89,151941,1,8,0:0:0:0:
309,111,152120,1,0,0:0:0:0:
315,94,152477,1,8,0:0:0:0:
309,111,152656,1,0,0:0:0:0:
315,94,153013,1,8,0:0:0:0:
309,111,153192,1,0,0:0:0:0:
315,94,153550,1,8,0:0:0:0:
308,98,153729,1,8,0:0:0:0:
315,94,154086,1,0,0:0:0:0:
315,94,154176,1,8,0:0:0:0:
315,94,154265,1,8,0:0:0:0:
304,112,154444,1,0,0:0:0:0:
313,102,154801,1,8,0:0:0:0:
304,112,154980,1,0,0:0:0:0:
313,102,155338,1,8,0:0:0:0:
304,112,155516,1,0,0:0:0:0:
313,102,155874,1,8,0:0:0:0:
304,112,156053,1,0,0:0:0:0:
313,102,156410,1,8,0:0:0:0:
313,102,156589,1,8,0:0:0:0:
301,102,156857,1,0,0:0:0:0:
301,102,156947,1,8,0:0:0:0:
301,102,157126,1,8,0:0:0:0:
304,112,157304,1,0,0:0:0:0:
301,102,157662,1,8,0:0:0:0:
304,112,157841,1,0,0:0:0:0:
301,102,158198,1,8,0:0:0:0:
304,112,158377,1,0,0:0:0:0:
301,102,158735,1,8,0:0:0:0:
304,112,158913,1,0,0:0:0:0:
302,108,159271,1,8,0:0:0:0:
302,108,159450,1,8,0:0:0:0:
297,112,159539,1,0,0:0:0:0:
304,112,159628,1,8,0:0:0:0:
295,111,159718,1,0,0:0:0:0:
294,109,159807,1,0,0:0:0:0:
294,109,159897,1,8,0:0:0:0:
291,111,159986,1,8,0:0:0:0:
294,109,160075,1,0,0:0:0:0:
304,112,160165,1,0,0:0:0:0:
285,108,160344,1,0,0:0:0:0:
285,108,160433,1,0,0:0:0:0:
286,106,160522,1,8,0:0:0:0:
304,112,160701,1,0,0:0:0:0:
288,115,160880,1,8,0:0:0:0:
285,108,160969,1,0,0:0:0:0:
288,115,161059,1,8,0:0:0:0:
304,112,161238,1,0,0:0:0:0:
286,107,161416,1,0,0:0:0:0:
288,115,161506,1,8,0:0:0:0:
286,107,161595,1,8,0:0:0:0:
304,112,161774,1,0,0:0:0:0:
296,113,161953,1,8,0:0:0:0:
296,108,162042,1,8,0:0:0:0:
295,107,162131,1,8,0:0:0:0:
288,115,162310,1,8,0:0:0:0:
289,108,162578,1,0,0:0:0:0:
289,108,162668,1,8,0:0:0:0:
296,108,162847,1,8,0:0:0:0:
298,104,163025,1,0,0:0:0:0:
298,100,163204,1,0,0:0:0:0:
305,95,163294,1,0,0:0:0:0:
305,95,163383,1,8,0:0:0:0:
298,104,163562,1,0,0:0:0:0:
298,104,163741,1,8,0:0:0:0:
298,104,163830,1,0,0:0:0:0:
298,100,163919,1,8,0:0:0:0:
298,104,164098,1,0,0:0:0:0:
298,104,164277,1,0,0:0:0:0:
298,104,164366,1,0,0:0:0:0:
298,104,164456,1,8,0:0:0:0:
298,104,164634,1,0,0:0:0:0:
298,104,164813,1,8,0:0:0:0:
298,104,164903,1,8,0:0:0:0:
298,104,164992,1,8,0:0:0:0:
298,104,165171,1,0,0:0:0:0:
298,104,165528,1,0,0:0:0:0:
298,104,165618,1,8,0:0:0:0:
298,104,165707,1,8,0:0:0:0:
303,111,165886,1,0,0:0:0:0:
298,104,166065,1,0,0:0:0:0:
298,104,166154,1,0,0:0:0:0:
298,104,166244,1,8,0:0:0:0:
303,111,166422,1,0,0:0:0:0:
297,102,166601,1,8,0:0:0:0:
294,109,166690,1,0,0:0:0:0:
298,104,166780,1,8,0:0:0:0:
303,111,166959,1,0,0:0:0:0:
311,107,167137,1,0,0:0:0:0:
305,106,167227,1,8,0:0:0:0:
297,102,167316,1,8,0:0:0:0:
303,111,167495,1,0,0:0:0:0:
309,98,167674,1,8,0:0:0:0:
309,97,167763,1,8,0:0:0:0:
300,101,167853,1,8,0:0:0:0:
305,106,168031,1,8,0:0:0:0:
303,111,168300,1,0,0:0:0:0:
304,110,168389,1,8,0:0:0:0:
299,111,168568,1,8,0:0:0:0:
305,109,168746,1,0,0:0:0:0:
300,102,168925,1,8,0:0:0:0:
299,102,169015,1,0,0:0:0:0:
296,102,169104,1,8,0:0:0:0:
305,109,169283,1,0,0:0:0:0:
299,102,169462,1,0,0:0:0:0:
300,102,169551,1,8,0:0:0:0:
296,102,169640,1,8,0:0:0:0:
305,109,169819,1,0,0:0:0:0:
305,109,169998,1,0,0:0:0:0:
308,106,170087,1,0,0:0:0:0:
296,102,170177,1,8,0:0:0:0:
305,109,170356,1,0,0:0:0:0:
305,109,170534,1,8,0:0:0:0:
305,109,170624,1,8,0:0:0:0:
305,109,170713,1,8,0:0:0:0:
323,103,170892,1,8,0:0:0:0:
312,112,170981,1,0,0:0:0:0:
305,109,171071,1,8,0:0:0:0:
305,109,171160,1,0,0:0:0:0:
305,109,171249,1,0,0:0:0:0:
305,109,171339,1,8,0:0:0:0:
305,109,171428,1,8,0:0:0:0:
309,113,171518,1,0,0:0:0:0:
309,108,171607,1,0,0:0:0:0:
341,96,171726,1,0,0:0:0:0:
332,107,171845,1,0,0:0:0:0:
332,106,171965,1,8,0:0:0:0:
309,108,172143,1,0,0:0:0:0:
319,102,172263,1,0,0:0:0:0:
323,89,172382,1,0,0:0:0:0:
323,89,172501,1,8,0:0:0:0:
309,108,172680,1,0,0:0:0:0:
331,92,172859,1,0,0:0:0:0:
331,92,172948,1,0,0:0:0:0:
328,93,173037,1,8,0:0:0:0:
309,108,173216,1,0,0:0:0:0:
325,104,173335,1,0,0:0:0:0:
326,103,173454,1,0,0:0:0:0:
327,102,173574,1,8,0:0:0:0:
322,103,173752,1,0,0:0:0:0:
323,101,173842,1,0,0:0:0:0:
319,102,173931,1,8,0:0:0:0:
309,108,174021,1,0,0:0:0:0:
325,104,174110,1,8,0:0:0:0:
323,110,174289,1,8,0:0:0:0:
305,107,174468,1,0,0:0:0:0:
323,101,174587,1,8,0:0:0:0:
319,102,174706,1,0,0:0:0:0:
319,97,174825,1,8,0:0:0:0:
305,107,175004,1,0,0:0:0:0:
305,107,175183,1,8,0:0:0:0:
321,108,175272,1,0,0:0:0:0:
303,105,175362,1,8,0:0:0:0:
305,107,175540,1,0,0:0:0:0:
312,96,175719,1,0,0:0:0:0:
313,96,175808,1,0,0:0:0:0:
314,94,175898,1,8,0:0:0:0:
305,107,176077,1,0,0:0:0:0:
306,99,176255,1,8,0:0:0:0:
305,107,176345,1,8,0:0:0:0:
308,102,176434,1,8,0:0:0:0:
300,112,176613,1,8,0:0:0:0:
315,102,176971,1,0,0:0:0:0:
315,102,177060,1,8,0:0:0:0:
315,100,177149,1,8,0:0:0:0:
311,113,177328,1,0,0:0:0:0:
306,98,177507,1,0,0:0:0:0:
301,96,177596,1,0,0:0:0:0:
302,96,177686,1,8,0:0:0:0:
311,113,177864,1,0,0:0:0:0:
303,97,178043,1,8,0:0:0:0:
306,98,178133,1,0,0:0:0:0:
306,98,178222,1,8,0:0:0:0:
311,113,178401,1,0,0:0:0:0:
299,98,178580,1,0,0:0:0:0:
299,99,178669,1,0,0:0:0:0:
303,97,178758,1,8,0:0:0:0:
311,113,178937,1,0,0:0:0:0:
295,108,179116,1,8,0:0:0:0:
298,106,179205,1,8,0:0:0:0:
299,98,179295,1,8,0:0:0:0:
297,104,179474,1,8,0:0:0:0:
297,104,179742,1,0,0:0:0:0:
295,108,179831,1,8,0:0:0:0:
303,104,179921,1,0,0:0:0:0:
311,113,180189,1,0,0:0:0:0:
302,98,180367,1,0,0:0:0:0:
297,104,180457,1,8,0:0:0:0:
314,118,180546,1,8,0:0:0:0:
311,113,180725,1,0,0:0:0:0:
283,93,180904,1,8,0:0:0:0:
306,105,180993,1,0,0:0:0:0:
314,118,181083,1,8,0:0:0:0:
311,113,181261,1,0,0:0:0:0:
306,105,181440,1,0,0:0:0:0:
306,105,181530,1,8,0:0:0:0:
307,112,181619,1,8,0:0:0:0:
311,113,181798,1,0,0:0:0:0:
311,113,181977,1,8,0:0:0:0:
306,105,182066,1,8,0:0:0:0:
306,105,182155,1,8,0:0:0:0:
323,111,182319,1,0,0:0:0:0:
317,113,182407,1,8,0:0:0:0:
311,113,182496,1,8,0:0:0:0:
311,113,182585,1,0,0:0:0:0:
311,113,182674,1,0,0:0:0:0:
311,113,182762,1,8,0:0:0:0:
317,113,182851,1,8,0:0:0:0:
323,111,182940,1,0,0:0:0:0:
311,113,183029,1,0,0:0:0:0:
329,111,183408,1,0,0:0:0:0:
329,106,183731,1,0,0:0:0:0:
344,112,184037,1,0,0:0:0:0:
338,109,184306,1,0,0:0:0:0:
314,114,184546,1,0,0:0:0:0:
327,122,184771,1,0,0:0:0:0:
326,106,184965,1,0,0:0:0:0:
329,90,185144,1,0,0:0:0:0:
327,92,185304,1,0,0:0:0:0:
323,94,185444,1,0,0:0:0:0:
323,94,185563,1,0,0:0:0:0:
322,94,185653,1,0,0:0:0:0:
319,95,185717,1,0,0:0:0:0:
324,78,185769,1,8,0:0:0:0:
319,114,185820,1,8,0:0:0:0:
326,106,185871,1,8,0:0:0:0:
321,103,185923,1,0,0:0:0:0:
329,111,186282,1,0,0:0:0:0:
329,106,186608,1,0,0:0:0:0:
344,112,186911,1,0,0:0:0:0:
338,109,187180,1,0,0:0:0:0:
314,114,187420,1,0,0:0:0:0:
327,122,187647,1,0,0:0:0:0:
326,106,187839,1,0,0:0:0:0:
329,90,188018,1,0,0:0:0:0:
327,92,188181,1,0,0:0:0:0:
323,94,188318,1,0,0:0:0:0:
323,94,188437,1,0,0:0:0:0:
322,94,188527,1,0,0:0:0:0:
319,95,188591,1,0,0:0:0:0:
324,78,188643,1,8,0:0:0:0:
304,87,188694,1,8,0:0:0:0:
326,106,188746,1,8,0:0:0:0:
306,107,188797,5,0,0:0:0:0:
329,111,189156,1,0,0:0:0:0:
338,92,189201,1,8,0:0:0:0:
329,106,189470,1,0,0:0:0:0:
331,94,189560,1,8,0:0:0:0:
344,112,189785,1,0,0:0:0:0:
340,90,189905,1,8,0:0:0:0:
338,109,190054,1,0,0:0:0:0:
334,96,190204,1,8,0:0:0:0:
314,114,190294,1,0,0:0:0:0:
334,97,190474,1,8,0:0:0:0:
327,122,190533,1,0,0:0:0:0:
326,106,190713,1,8,0:0:0:0:
344,112,190743,1,0,0:0:0:0:
329,90,190892,1,0,0:0:0:0:
325,97,190953,1,8,0:0:0:0:
327,92,191053,1,0,0:0:0:0:
323,94,191192,1,8,0:0:0:0:
323,94,191311,1,8,0:0:0:0:
322,94,191401,1,0,0:0:0:0:
319,95,191465,1,0,0:0:0:0:
324,78,191517,1,8,0:0:0:0:
304,87,191568,1,8,0:0:0:0:
333,96,191620,1,8,0:0:0:0:
305,127,191671,5,0,0:0:0:0:
329,111,192031,1,0,0:0:0:0:
329,106,192345,1,0,0:0:0:0:
306,84,192390,1,8,0:0:0:0:
344,112,192660,1,0,0:0:0:0:
320,102,192719,1,8,0:0:0:0:
338,109,192929,1,0,0:0:0:0:
329,106,193078,1,8,0:0:0:0:
314,114,193169,1,0,0:0:0:0:
331,98,193408,1,8,0:0:0:0:
334,106,193528,1,0,0:0:0:0:
326,106,193588,1,0,0:0:0:0:
337,98,193767,1,8,0:0:0:0:
327,92,193962,1,0,0:0:0:0:
323,94,194067,1,8,0:0:0:0:
334,85,194126,1,8,0:0:0:0:
323,94,194186,1,0,0:0:0:0:
322,94,194276,1,8,0:0:0:0:
319,95,194340,1,0,0:0:0:0:
324,78,194392,1,0,0:0:0:0:
304,87,194443,1,8,0:0:0:0:
317,84,194494,1,8,0:0:0:0:
323,111,194546,1,0,0:0:0:0:
327,84,194725,1,0,0:0:0:0:
334,85,194905,1,8,0:0:0:0:
329,86,194972,1,8,0:0:0:0:
330,86,195040,1,8,0:0:0:0:
328,88,195107,1,8,0:0:0:0:
329,106,195264,1,0,0:0:0:0:
344,112,195547,1,0,0:0:0:0:
338,109,195803,1,8,0:0:0:0:
314,114,196054,1,8,0:0:0:0:
327,122,196282,1,0,0:0:0:0:
326,106,196477,1,0,0:0:0:0:
329,90,196656,1,8,0:0:0:0:
327,92,196813,1,8,0:0:0:0:
323,94,196941,1,0,0:0:0:0:
323,94,197060,1,8,0:0:0:0:
322,94,197150,1,0,0:0:0:0:
319,95,197214,1,0,0:0:0:0:
324,78,197266,1,8,0:0:0:0:
304,87,197317,1,8,0:0:0:0:
341,110,197368,1,8,0:0:0:0:
318,111,197420,1,0,0:0:0:0:
329,111,197779,1,8,0:0:0:0:
329,106,198116,1,0,0:0:0:0:
344,112,198408,1,0,0:0:0:0:
338,109,198677,1,0,0:0:0:0:
314,114,198917,1,0,0:0:0:0:
327,122,199156,1,0,0:0:0:0:
326,106,199351,1,0,0:0:0:0:
338,109,199486,1,8,0:0:0:0:
329,90,199553,1,0,0:0:0:0:
327,92,199620,1,8,0:0:0:0:
323,105,199688,1,0,0:0:0:0:
323,94,199755,1,8,0:0:0:0:
329,97,199822,1,0,0:0:0:0:
330,97,199890,1,0,0:0:0:0:
322,94,200002,1,8,0:0:0:0:
324,78,200159,1,8,0:0:0:0:
304,87,200204,1,8,0:0:0:0:
323,116,200294,1,0,0:0:0:0:
314,75,200429,1,8,0:0:0:0:
337,95,200653,1,8,0:0:0:0:
333,100,200878,1,8,0:0:0:0:
332,101,201102,1,8,0:0:0:0:
331,102,201282,1,0,0:0:0:0:
331,102,201342,1,8,0:0:0:0:
321,114,201462,1,0,0:0:0:0:
333,100,201551,1,8,0:0:0:0:
333,100,201641,1,0,0:0:0:0:
340,105,201754,1,8,0:0:0:0:
319,103,201821,1,0,0:0:0:0:
331,102,201941,1,8,0:0:0:0:
331,102,202090,1,8,0:0:0:0:
333,100,202210,1,8,0:0:0:0:
333,100,202330,1,8,0:0:0:0:
321,91,202450,1,8,0:0:0:0:
322,92,202540,1,8,0:0:0:0:
322,95,202629,1,8,0:0:0:0:
323,118,202719,1,0,0:0:0:0:
340,92,203048,1,0,0:0:0:0:
335,98,203168,1,8,0:0:0:0:
331,98,203407,1,0,0:0:0:0:
331,98,203527,1,8,0:0:0:0:
331,99,203684,1,0,0:0:0:0:
331,100,203796,1,8,0:0:0:0:
331,98,203954,1,0,0:0:0:0:
331,98,204066,1,8,0:0:0:0:
331,98,204201,1,0,0:0:0:0:
331,98,204305,1,8,0:0:0:0:
340,102,204425,1,0,0:0:0:0:
326,106,204635,1,0,0:0:0:0:
320,106,204814,1,0,0:0:0:0:
337,112,204964,1,0,0:0:0:0:
333,113,205099,1,0,0:0:0:0:
342,112,205220,1,0,0:0:0:0:
333,113,205323,1,0,0:0:0:0:
333,113,205413,1,0,0:0:0:0:
333,113,205473,1,0,0:0:0:0:
333,113,205533,1,8,0:0:0:0:
319,118,205593,1,8,0:0:0:0:
334,123,205683,1,0,0:0:0:0:
346,112,205742,1,0,0:0:0:0:
346,112,205817,1,0,0:0:0:0:
339,112,205907,1,0,0:0:0:0:
334,112,206033,1,0,0:0:0:0:
333,113,206163,1,0,0:0:0:0:
333,113,206324,1,0,0:0:0:0:
331,110,206499,1,0,0:0:0:0:
331,112,206715,1,0,0:0:0:0:
333,113,206940,1,0,0:0:0:0:
344,112,207180,1,0,0:0:0:0:
316,114,207449,1,0,0:0:0:0:
319,113,207748,1,0,0:0:0:0:
323,114,208078,1,0,0:0:0:0:
332,109,208422,1,12,0:0:0:0:
240,170,210962,5,0,0:0:0:0:
329,111,211321,1,0,0:0:0:0:
329,106,211658,1,0,0:0:0:0:
344,112,211950,1,0,0:0:0:0:
338,109,212219,1,0,0:0:0:0:
314,114,212459,1,0,0:0:0:0:
327,122,212698,1,0,0:0:0:0:
326,106,212888,1,0,0:0:0:0:
329,90,213072,1,0,0:0:0:0:
327,92,213229,1,0,0:0:0:0:
323,94,213364,1,0,0:0:0:0:
323,94,213476,1,0,0:0:0:0:
322,94,213566,1,0,0:0:0:0:
319,95,213630,1,0,0:0:0:0:
324,78,213682,1,8,0:0:0:0:
304,87,213733,1,8,0:0:0:0:
258,149,213784,1,8,0:0:0:0:
284,88,213836,1,0,0:0:0:0:
308,85,214464,1,8,0:0:0:0:
308,85,214509,1,8,0:0:0:0:
322,94,214554,1,0,0:0:0:0:
316,92,215003,1,8,0:0:0:0:
321,90,215048,1,8,0:0:0:0:
305,98,215093,1,0,0:0:0:0:
315,86,215273,1,8,0:0:0:0:
301,94,215363,1,0,0:0:0:0:
316,92,215700,1,8,0:0:0:0:
304,83,215744,1,8,0:0:0:0:
305,98,215789,1,0,0:0:0:0:
315,86,216036,1,8,0:0:0:0:
304,105,216081,1,0,0:0:0:0:
305,98,216261,1,0,0:0:0:0:
298,105,216351,1,8,0:0:0:0:
294,96,216441,1,0,0:0:0:0:
294,96,216505,1,0,0:0:0:0:
305,98,216556,1,8,0:0:0:0:
308,96,216607,1,8,0:0:0:0:
266,102,216659,1,8,0:0:0:0:
288,100,216710,1,0,0:0:0:0:
256,192,216890,12,0,218057,0:0:0:0:
289,201,218147,6,0,L|368:173,24,70
303,93,220482,1,8,0:0:0:0:
308,101,220752,1,0,0:0:0:0:
303,93,220812,1,0,0:0:0:0:
303,93,220872,1,8,0:0:0:0:
303,93,220932,1,8,0:0:0:0:
302,88,221291,1,0,0:0:0:0:
302,88,221351,1,0,0:0:0:0:
302,88,221411,1,8,0:0:0:0:
302,88,221470,1,8,0:0:0:0:
305,80,221950,1,0,0:0:0:0:
306,80,222009,1,0,0:0:0:0:
299,79,222069,1,8,0:0:0:0:
299,79,222129,1,8,0:0:0:0:
322,83,222698,1,0,0:0:0:0:
310,85,222778,1,0,0:0:0:0:
312,84,222858,1,8,0:0:0:0:
312,84,222938,1,8,0:0:0:0:
325,83,223536,1,0,0:0:0:0:
312,84,223626,1,0,0:0:0:0:
318,75,223716,1,8,0:0:0:0:
318,75,223806,1,8,0:0:0:0:
322,91,224370,5,0,0:0:0:0:
305,96,224729,1,8,0:0:0:0:
305,96,224819,1,0,0:0:0:0:
305,96,224908,1,0,0:0:0:0:
305,96,224998,1,0,0:0:0:0:
305,96,225088,1,0,0:0:0:0:
314,88,225358,1,0,0:0:0:0:
313,88,225447,1,8,0:0:0:0:
313,95,225627,1,0,0:0:0:0:
309,89,225717,1,8,0:0:0:0:
310,87,225762,1,8,0:0:0:0:
310,87,225807,1,8,0:0:0:0:
315,84,225896,1,0,0:0:0:0:
315,84,225986,1,8,0:0:0:0:
314,88,226106,1,0,0:0:0:0:
314,88,226226,1,8,0:0:0:0:
314,88,226316,1,0,0:0:0:0:
331,95,226375,1,0,0:0:0:0:
327,105,226435,1,8,0:0:0:0:
304,102,226525,1,0,0:0:0:0:
306,92,226585,1,0,0:0:0:0:
304,94,226645,1,8,0:0:0:0:
304,95,226705,1,8,0:0:0:0:
304,95,226765,1,0,0:0:0:0:
325,103,226884,1,8,0:0:0:0:
318,97,226929,1,8,0:0:0:0:
318,97,226974,1,0,0:0:0:0:
321,100,227064,1,8,0:0:0:0:
309,96,227124,1,8,0:0:0:0:
309,96,227184,1,8,0:0:0:0:
309,96,227244,1,0,0:0:0:0:
323,92,227603,1,8,0:0:0:0:
320,111,227693,1,0,0:0:0:0:
320,109,227783,1,0,0:0:0:0:
315,102,227872,1,0,0:0:0:0:
319,106,227962,1,0,0:0:0:0:
330,106,228232,1,0,0:0:0:0:
326,106,228322,1,8,0:0:0:0:
326,106,228501,1,0,0:0:0:0:
308,101,228591,1,8,0:0:0:0:
312,102,228636,1,8,0:0:0:0:
315,103,228681,1,8,0:0:0:0:
314,104,228771,1,0,0:0:0:0:
321,106,228861,1,8,0:0:0:0:
306,97,228980,1,0,0:0:0:0:
314,94,229100,1,8,0:0:0:0:
319,100,229190,1,0,0:0:0:0:
318,100,229250,1,0,0:0:0:0:
318,100,229310,1,8,0:0:0:0:
317,100,229399,1,0,0:0:0:0:
311,91,229459,1,0,0:0:0:0:
311,91,229519,1,8,0:0:0:0:
311,91,229579,1,8,0:0:0:0:
308,89,229639,1,8,0:0:0:0:
331,99,229759,1,0,0:0:0:0:
306,80,229804,1,0,0:0:0:0:
306,80,229849,1,8,0:0:0:0:
306,80,229938,1,0,0:0:0:0:
323,85,229998,1,8,0:0:0:0:
324,85,230058,1,8,0:0:0:0:
323,86,230118,1,0,0:0:0:0:
323,95,230747,1,8,0:0:0:0:
323,95,230792,1,8,0:0:0:0:
323,95,230837,1,0,0:0:0:0:
321,93,231106,1,0,0:0:0:0:
323,95,231375,1,0,0:0:0:0:
323,95,231645,1,0,0:0:0:0:
323,95,231870,1,0,0:0:0:0:
321,93,232049,1,0,0:0:0:0:
323,95,232229,1,0,0:0:0:0:
323,95,232408,1,0,0:0:0:0:
323,95,232543,1,0,0:0:0:0:
323,95,232633,1,0,0:0:0:0:
323,95,232723,1,0,0:0:0:0:
323,95,232813,1,8,0:0:0:0:
323,95,232872,1,8,0:0:0:0:
321,93,232932,1,8,0:0:0:0:
298,111,232992,5,0,0:0:0:0:
298,111,233352,1,8,0:0:0:0:
298,111,233711,1,0,0:0:0:0:
297,120,234070,1,8,0:0:0:0:
298,121,234250,1,0,0:0:0:0:
297,120,234789,1,8,0:0:0:0:
297,120,235148,1,0,0:0:0:0:
308,117,235507,1,0,0:0:0:0:
305,113,235866,1,8,0:0:0:0:
321,112,236226,1,8,0:0:0:0:
317,111,236405,1,0,0:0:0:0:
317,109,236495,1,0,0:0:0:0:
314,109,236585,1,8,0:0:0:0:
314,109,236675,1,8,0:0:0:0:
313,108,236765,1,0,0:0:0:0:
311,99,236855,1,8,0:0:0:0:
321,112,237034,1,0,0:0:0:0:
312,108,237124,1,8,0:0:0:0:
312,108,237214,1,8,0:0:0:0:
317,111,237393,1,0,0:0:0:0:
335,112,237603,1,0,0:0:0:0:
329,108,237813,1,0,0:0:0:0:
331,109,237992,1,0,0:0:0:0:
331,109,238142,1,0,0:0:0:0:
331,109,238292,1,0,0:0:0:0:
331,109,238411,1,0,0:0:0:0:
335,112,238501,1,0,0:0:0:0:
335,112,238561,1,0,0:0:0:0:
322,108,238621,1,8,0:0:0:0:
329,108,238681,1,8,0:0:0:0:
315,118,238741,1,0,0:0:0:0:
328,109,238831,1,0,0:0:0:0:
328,113,238920,1,0,0:0:0:0:
322,115,239010,1,0,0:0:0:0:
317,126,239280,1,8,0:0:0:0:
316,131,239459,1,0,0:0:0:0:
316,131,239549,1,8,0:0:0:0:
320,127,239639,1,0,0:0:0:0:
324,121,239684,1,0,0:0:0:0:
322,115,239729,1,0,0:0:0:0:
322,115,239819,1,8,0:0:0:0:
328,112,239998,1,0,0:0:0:0:
311,117,240537,1,8,0:0:0:0:
311,117,240896,1,0,0:0:0:0:
311,117,241256,1,8,0:0:0:0:
311,117,241615,1,8,0:0:0:0:
293,111,241974,1,8,0:0:0:0:
299,114,242154,1,0,0:0:0:0:
299,114,242244,1,0,0:0:0:0:
311,117,242334,1,8,0:0:0:0:
300,114,242423,1,0,0:0:0:0:
293,111,242513,1,0,0:0:0:0:
311,117,242603,1,8,0:0:0:0:
277,119,242783,1,0,0:0:0:0:
302,118,242872,1,8,0:0:0:0:
300,123,242962,1,0,0:0:0:0:
302,123,243052,1,8,0:0:0:0:
298,123,243142,1,8,0:0:0:0:
311,117,243367,1,8,0:0:0:0:
310,120,243456,1,8,0:0:0:0:
300,109,243546,1,0,0:0:0:0:
303,109,243636,1,0,0:0:0:0:
303,109,243726,1,8,0:0:0:0:
317,113,243905,1,8,0:0:0:0:
315,107,244040,1,0,0:0:0:0:
317,107,244160,1,0,0:0:0:0:
317,107,244250,1,8,0:0:0:0:
313,98,244310,1,0,0:0:0:0:
309,99,244369,1,0,0:0:0:0:
314,98,244429,1,0,0:0:0:0:
313,100,244489,1,8,0:0:0:0:
317,113,244579,1,8,0:0:0:0:
317,113,244669,1,0,0:0:0:0:
326,104,244759,1,0,0:0:0:0:
321,103,244849,1,8,0:0:0:0:
320,94,244908,1,8,0:0:0:0:
320,94,244968,1,8,0:0:0:0:
320,94,245028,1,8,0:0:0:0:
327,103,245118,1,0,0:0:0:0:
327,103,245208,1,8,0:0:0:0:
321,104,245298,1,8,0:0:0:0:
321,104,245477,1,0,0:0:0:0:
326,104,245567,1,8,0:0:0:0:
321,103,245612,1,8,0:0:0:0:
316,102,245702,1,0,0:0:0:0:
316,102,245747,1,0,0:0:0:0:
316,102,245792,1,8,0:0:0:0:
334,95,245926,1,0,0:0:0:0:
333,94,246016,1,0,0:0:0:0:
321,104,246106,1,0,0:0:0:0:
321,104,246196,1,0,0:0:0:0:
314,102,246286,1,8,0:0:0:0:
321,103,246375,1,8,0:0:0:0:
316,102,246465,1,0,0:0:0:0:
328,101,246510,1,0,0:0:0:0:
316,102,246555,1,0,0:0:0:0:
319,97,246645,1,8,0:0:0:0:
306,97,247004,1,8,0:0:0:0:
308,97,247094,1,0,0:0:0:0:
306,97,247184,1,8,0:0:0:0:
304,98,247274,1,0,0:0:0:0:
309,96,247319,1,0,0:0:0:0:
304,96,247364,1,8,0:0:0:0:
306,97,247723,1,8,0:0:0:0:
308,97,247902,1,0,0:0:0:0:
304,98,247992,1,0,0:0:0:0:
297,96,248082,1,8,0:0:0:0:
297,96,248172,1,8,0:0:0:0:
297,96,248262,1,0,0:0:0:0:
297,96,248352,1,8,0:0:0:0:
306,104,248531,1,0,0:0:0:0:
306,104,248621,1,8,0:0:0:0:
306,105,248681,1,0,0:0:0:0:
304,98,248741,1,0,0:0:0:0:
304,98,248801,1,8,0:0:0:0:
297,96,248890,1,0,0:0:0:0:
297,96,249115,1,0,0:0:0:0:
300,95,249295,1,0,0:0:0:0:
306,105,249489,1,0,0:0:0:0:
307,89,249669,1,0,0:0:0:0:
304,90,249789,1,0,0:0:0:0:
308,88,249908,1,0,0:0:0:0:
315,89,249998,1,0,0:0:0:0:
306,91,250058,1,0,0:0:0:0:
311,89,250118,1,8,0:0:0:0:
306,91,250178,1,8,0:0:0:0:
274,102,250238,1,0,0:0:0:0:
325,96,250328,1,0,0:0:0:0:
317,96,250417,1,0,0:0:0:0:
317,96,250507,1,0,0:0:0:0:
308,88,250597,1,8,0:0:0:0:
315,89,250777,1,0,0:0:0:0:
314,94,250956,1,8,0:0:0:0:
312,94,251046,1,8,0:0:0:0:
303,87,251316,1,0,0:0:0:0:
312,100,251495,1,0,0:0:0:0:
297,100,252034,1,8,0:0:0:0:
297,100,252393,1,0,0:0:0:0:
306,86,252453,1,0,0:0:0:0:
303,91,252513,1,8,0:0:0:0:
303,91,252573,1,0,0:0:0:0:
317,103,252753,1,8,0:0:0:0:
304,88,252825,1,8,0:0:0:0:
304,84,252896,1,8,0:0:0:0:
305,84,252968,1,8,0:0:0:0:
305,84,253040,1,8,0:0:0:0:
323,91,253415,5,0,0:0:0:0:
299,78,253504,1,0,0:0:0:0:
309,94,253594,1,0,0:0:0:0:
303,91,253774,1,8,0:0:0:0:
314,72,253909,1,8,0:0:0:0:
305,84,254043,1,8,0:0:0:0:
315,86,254133,1,0,0:0:0:0:
316,83,254313,1,0,0:0:0:0:
312,84,254358,1,0,0:0:0:0:
312,84,254403,1,8,0:0:0:0:
315,83,254492,1,0,0:0:0:0:
312,80,254672,1,8,0:0:0:0:
308,84,254717,1,8,0:0:0:0:
308,84,254762,1,0,0:0:0:0:
308,84,254852,1,8,0:0:0:0:
322,94,255031,1,0,0:0:0:0:
319,92,255151,1,8,0:0:0:0:
316,83,255211,1,0,0:0:0:0:
316,83,255271,1,0,0:0:0:0:
312,84,255331,1,8,0:0:0:0:
307,85,255391,1,0,0:0:0:0:
312,84,255450,1,0,0:0:0:0:
307,85,255510,1,8,0:0:0:0:
312,80,255690,1,0,0:0:0:0:
314,88,255810,1,8,0:0:0:0:
293,84,256049,1,0,0:0:0:0:
302,85,256109,1,0,0:0:0:0:
302,85,256169,1,8,0:0:0:0:
302,85,256229,1,8,0:0:0:0:
302,85,256289,1,0,0:0:0:0:
300,81,256379,1,0,0:0:0:0:
292,85,256468,1,0,0:0:0:0:
296,88,256648,1,8,0:0:0:0:
290,73,256783,1,8,0:0:0:0:
290,73,256917,1,8,0:0:0:0:
293,72,257007,1,0,0:0:0:0:
302,85,257187,1,8,0:0:0:0:
301,73,257232,1,8,0:0:0:0:
302,85,257277,1,0,0:0:0:0:
300,81,257367,1,8,0:0:0:0:
306,97,257456,1,8,0:0:0:0:
321,100,257546,1,0,0:0:0:0:
320,100,257591,1,0,0:0:0:0:
320,100,257636,1,0,0:0:0:0:
320,97,257726,1,8,0:0:0:0:
290,73,257906,1,8,0:0:0:0:
296,96,258025,1,0,0:0:0:0:
302,85,258085,1,8,0:0:0:0:
298,94,258145,1,8,0:0:0:0:
300,95,258205,1,0,0:0:0:0:
308,102,258265,1,0,0:0:0:0:
308,97,258325,1,8,0:0:0:0:
308,99,258385,1,0,0:0:0:0:
311,93,258564,1,0,0:0:0:0:
312,90,258684,1,8,0:0:0:0:
312,90,258804,1,0,0:0:0:0:
313,92,258849,1,0,0:0:0:0:
313,92,258894,1,8,0:0:0:0:
312,85,258983,1,0,0:0:0:0:
302,83,259043,1,8,0:0:0:0:
302,85,259103,1,8,0:0:0:0:
252,114,259163,5,0,0:0:0:0:
329,111,259522,1,0,0:0:0:0:
329,106,259852,1,0,0:0:0:0:
344,112,260151,1,0,0:0:0:0:
338,109,260420,1,0,0:0:0:0:
314,114,260660,1,0,0:0:0:0:
327,122,260899,1,0,0:0:0:0:
326,106,261093,1,0,0:0:0:0:
329,90,261272,1,0,0:0:0:0:
327,92,261424,1,0,0:0:0:0:
323,94,261573,1,0,0:0:0:0:
323,94,261677,1,0,0:0:0:0:
322,94,261767,1,0,0:0:0:0:
319,95,261831,1,0,0:0:0:0:
324,78,261883,1,8,0:0:0:0:
304,87,261934,1,8,0:0:0:0:
276,151,261986,1,8,0:0:0:0:
321,102,262037,1,0,0:0:0:0:
320,102,262397,1,8,0:0:0:0:
310,93,262677,1,8,0:0:0:0:
309,95,262965,1,0,0:0:0:0:
312,93,263205,1,0,0:0:0:0:
286,88,263428,1,8,0:0:0:0:
310,93,263624,1,8,0:0:0:0:
311,86,263804,1,0,0:0:0:0:
309,95,263968,1,0,0:0:0:0:
312,93,264103,1,8,0:0:0:0:
333,94,264223,1,8,0:0:0:0:
327,92,264313,1,0,0:0:0:0:
327,92,264403,1,0,0:0:0:0:
327,92,264492,1,8,0:0:0:0:
332,91,264552,1,8,0:0:0:0:
332,91,264612,1,0,0:0:0:0:
332,91,264672,1,0,0:0:0:0:
305,115,264727,1,0,0:0:0:0:
292,109,264781,5,8,0:0:0:0:
309,102,264870,1,0,0:0:0:0:
309,95,264960,1,0,0:0:0:0:
312,93,265140,1,8,0:0:0:0:
313,81,265275,1,8,0:0:0:0:
312,84,265409,1,8,0:0:0:0:
312,84,265499,1,0,0:0:0:0:
312,83,265679,1,0,0:0:0:0:
310,84,265724,1,0,0:0:0:0:
310,84,265769,1,8,0:0:0:0:
310,84,265858,1,0,0:0:0:0:
310,85,266038,1,8,0:0:0:0:
310,85,266083,1,8,0:0:0:0:
308,82,266128,1,8,0:0:0:0:
313,81,266218,1,0,0:0:0:0:
310,74,266397,1,8,0:0:0:0:
305,79,266517,1,0,0:0:0:0:
299,86,266577,1,0,0:0:0:0:
312,83,266637,1,8,0:0:0:0:
309,74,266697,1,8,0:0:0:0:
304,76,266757,1,0,0:0:0:0:
302,80,266816,1,0,0:0:0:0:
302,80,266876,1,8,0:0:0:0:
310,85,267056,1,0,0:0:0:0:
310,85,267176,1,8,0:0:0:0:
302,82,267295,1,0,0:0:0:0:
309,86,267340,1,0,0:0:0:0:
311,92,267385,1,8,0:0:0:0:
329,90,267475,1,0,0:0:0:0:
317,78,267535,1,0,0:0:0:0:
317,78,267595,1,0,0:0:0:0:
319,78,267655,1,8,0:0:0:0:
312,78,267745,1,0,0:0:0:0:
314,86,267834,1,0,0:0:0:0:
317,83,268014,1,8,0:0:0:0:
310,85,268149,1,8,0:0:0:0:
316,83,268284,1,8,0:0:0:0:
317,88,268373,1,0,0:0:0:0:
317,78,268553,1,8,0:0:0:0:
327,83,268598,1,8,0:0:0:0:
319,78,268643,1,0,0:0:0:0:
315,84,268733,1,0,0:0:0:0:
312,89,268912,1,0,0:0:0:0:
312,89,268957,1,0,0:0:0:0:
311,90,269002,1,8,0:0:0:0:
325,82,269092,1,8,0:0:0:0:
316,83,269272,1,0,0:0:0:0:
317,88,269361,1,8,0:0:0:0:
326,88,269421,1,8,0:0:0:0:
317,78,269481,1,0,0:0:0:0:
317,78,269541,1,0,0:0:0:0:
313,74,269601,1,8,0:0:0:0:
319,78,269661,1,8,0:0:0:0:
313,74,269721,1,0,0:0:0:0:
320,73,269781,1,8,0:0:0:0:
324,78,269930,1,8,0:0:0:0:
325,82,270050,1,8,0:0:0:0:
317,71,270289,1,0,0:0:0:0:
317,71,270349,1,8,0:0:0:0:
317,71,270409,1,8,0:0:0:0:
317,71,270469,1,8,0:0:0:0:
293,113,270529,5,0,0:0:0:0:
329,111,270888,1,0,0:0:0:0:
308,96,271068,1,8,0:0:0:0:
317,97,271158,1,8,0:0:0:0:
329,106,271248,1,0,0:0:0:0:
338,103,271337,1,0,0:0:0:0:
350,100,271427,1,8,0:0:0:0:
344,112,271517,1,0,0:0:0:0:
325,96,271697,1,8,0:0:0:0:
338,109,271786,1,0,0:0:0:0:
338,100,271876,1,8,0:0:0:0:
314,114,272026,1,0,0:0:0:0:
327,122,272265,1,0,0:0:0:0:
326,106,272445,1,0,0:0:0:0:
329,90,272624,1,0,0:0:0:0:
327,92,272774,1,0,0:0:0:0:
323,94,272924,1,0,0:0:0:0:
323,94,273043,1,0,0:0:0:0:
322,94,273133,1,0,0:0:0:0:
319,95,273197,1,0,0:0:0:0:
324,78,273249,1,8,0:0:0:0:
304,87,273300,1,8,0:0:0:0:
315,100,273352,1,8,0:0:0:0:
321,103,273403,1,0,0:0:0:0:
329,90,273493,1,0,0:0:0:0:
329,90,273583,1,0,0:0:0:0:
335,92,273673,1,0,0:0:0:0:
337,92,273763,1,8,0:0:0:0:
337,91,273942,1,8,0:0:0:0:
322,94,274122,1,0,0:0:0:0:
319,95,274212,1,8,0:0:0:0:
321,92,274272,1,8,0:0:0:0:
321,92,274331,1,8,0:0:0:0:
336,89,274481,1,0,0:0:0:0:
337,89,274541,1,0,0:0:0:0:
339,89,274601,1,8,0:0:0:0:
363,85,274661,1,0,0:0:0:0:
326,82,274781,1,8,0:0:0:0:
328,91,275347,1,8,0:0:0:0:
319,76,275436,1,0,0:0:0:0:
318,79,275526,1,0,0:0:0:0:
309,68,275616,1,0,0:0:0:0:
322,72,275706,1,8,0:0:0:0:
317,74,275886,1,8,0:0:0:0:
319,82,275930,1,8,0:0:0:0:
316,81,275975,1,0,0:0:0:0:
322,80,276065,1,8,0:0:0:0:
309,84,276155,1,0,0:0:0:0:
309,84,276200,1,0,0:0:0:0:
309,84,276245,1,8,0:0:0:0:
319,83,276335,1,8,0:0:0:0:
332,97,276514,1,8,0:0:0:0:
329,88,276604,1,0,0:0:0:0:
328,79,276784,1,8,0:0:0:0:
325,79,276874,1,0,0:0:0:0:
325,79,276963,1,8,0:0:0:0:
322,80,277053,1,8,0:0:0:0:
325,91,277278,1,0,0:0:0:0:
322,90,277457,1,0,0:0:0:0:
324,80,277622,1,0,0:0:0:0:
335,86,277742,1,8,0:0:0:0:
335,86,277802,1,8,0:0:0:0:
335,86,277862,1,0,0:0:0:0:
319,87,277951,1,8,0:0:0:0:
322,80,278011,1,8,0:0:0:0:
322,80,278071,1,8,0:0:0:0:
322,80,278131,1,8,0:0:0:0:
308,85,278221,1,0,0:0:0:0:
325,91,278311,1,0,0:0:0:0:
328,88,278400,1,0,0:0:0:0:
322,90,278490,1,0,0:0:0:0:
321,89,278580,1,8,0:0:0:0:
335,86,278760,1,8,0:0:0:0:
329,80,278805,1,8,0:0:0:0:
329,80,278850,1,0,0:0:0:0:
329,80,278939,1,0,0:0:0:0:
322,80,279029,1,8,0:0:0:0:
322,80,279074,1,8,0:0:0:0:
322,80,279119,1,8,0:0:0:0:
325,83,279209,1,0,0:0:0:0:
328,88,279389,1,8,0:0:0:0:
333,77,279478,1,0,0:0:0:0:
323,76,279538,1,0,0:0:0:0:
319,79,279598,1,8,0:0:0:0:
318,80,279658,1,0,0:0:0:0:
320,79,279748,1,0,0:0:0:0:
321,78,279838,1,8,0:0:0:0:
329,80,279927,1,8,0:0:0:0:
322,80,280152,1,0,0:0:0:0:
308,74,280332,1,0,0:0:0:0:
312,78,280496,1,0,0:0:0:0:
319,79,280616,1,0,0:0:0:0:
318,80,280676,1,0,0:0:0:0:
320,87,280736,1,8,0:0:0:0:
315,85,280826,1,0,0:0:0:0:
315,85,280886,1,0,0:0:0:0:
315,85,280945,1,8,0:0:0:0:
315,85,281005,1,8,0:0:0:0:
328,91,281095,1,0,0:0:0:0:
319,76,281184,1,0,0:0:0:0:
318,79,281274,1,0,0:0:0:0:
309,68,281364,1,0,0:0:0:0:
322,72,281454,1,8,0:0:0:0:
317,74,281634,1,8,0:0:0:0:
319,82,281678,1,8,0:0:0:0:
316,81,281723,1,0,0:0:0:0:
322,80,281813,1,8,0:0:0:0:
309,84,281903,1,8,0:0:0:0:
309,84,281993,1,0,0:0:0:0:
309,84,282038,1,0,0:0:0:0:
319,83,282083,1,8,0:0:0:0:
332,97,282262,1,8,0:0:0:0:
329,88,282352,1,0,0:0:0:0:
328,79,282532,1,8,0:0:0:0:
325,79,282622,1,0,0:0:0:0:
331,76,282712,1,8,0:0:0:0:
322,80,282802,1,8,0:0:0:0:
325,91,283026,1,0,0:0:0:0:
322,90,283205,1,0,0:0:0:0:
324,80,283370,1,0,0:0:0:0:
335,86,283490,1,8,0:0:0:0:
335,86,283550,1,8,0:0:0:0:
335,86,283610,1,0,0:0:0:0:
319,87,283699,1,8,0:0:0:0:
322,80,283759,1,0,0:0:0:0:
322,80,283819,1,0,0:0:0:0:
322,80,283879,1,8,0:0:0:0:
308,85,283969,1,0,0:0:0:0:
325,91,284059,1,0,0:0:0:0:
328,88,284148,1,0,0:0:0:0:
322,90,284238,1,0,0:0:0:0:
321,89,284328,1,8,0:0:0:0:
335,86,284508,1,0,0:0:0:0:
329,80,284553,1,0,0:0:0:0:
329,80,284598,1,8,0:0:0:0:
329,80,284687,1,0,0:0:0:0:
322,80,284777,1,0,0:0:0:0:
322,80,284868,1,8,0:0:0:0:
322,80,284912,1,8,0:0:0:0:
325,83,284957,1,0,0:0:0:0:
328,88,285137,1,8,0:0:0:0:
333,77,285226,1,0,0:0:0:0:
323,76,285286,1,0,0:0:0:0:
319,79,285346,1,8,0:0:0:0:
318,80,285406,1,0,0:0:0:0:
320,79,285496,1,0,0:0:0:0:
321,78,285586,1,8,0:0:0:0:
329,80,285675,1,8,0:0:0:0:
322,80,285900,1,0,0:0:0:0:
308,74,286080,1,0,0:0:0:0:
312,78,286244,1,0,0:0:0:0:
319,79,286364,1,0,0:0:0:0:
318,80,286424,1,0,0:0:0:0:
320,87,286484,1,8,0:0:0:0:
315,85,286574,1,0,0:0:0:0:
315,85,286634,1,0,0:0:0:0:
315,85,286693,1,8,0:0:0:0:
315,85,286753,1,8,0:0:0:0:
328,91,286844,1,0,0:0:0:0:
319,76,286933,1,0,0:0:0:0:
318,79,287023,1,0,0:0:0:0:
309,68,287113,1,0,0:0:0:0:
322,72,287203,1,8,0:0:0:0:
317,74,287383,1,8,0:0:0:0:
319,82,287427,1,8,0:0:0:0:
316,81,287472,1,0,0:0:0:0:
322,80,287562,1,8,0:0:0:0:
309,84,287652,1,8,0:0:0:0:
309,84,287742,1,0,0:0:0:0:
309,84,287787,1,0,0:0:0:0:
319,83,287832,1,8,0:0:0:0:
332,97,288011,1,8,0:0:0:0:
329,88,288101,1,0,0:0:0:0:
328,79,288281,1,8,0:0:0:0:
325,79,288371,1,0,0:0:0:0:
331,76,288461,1,8,0:0:0:0:
322,80,288551,1,8,0:0:0:0:
325,91,288775,1,0,0:0:0:0:
322,90,288954,1,0,0:0:0:0:
324,80,289119,1,0,0:0:0:0:
335,86,289239,1,8,0:0:0:0:
335,86,289299,1,8,0:0:0:0:
335,86,289359,1,0,0:0:0:0:
319,87,289448,1,8,0:0:0:0:
322,80,289508,1,8,0:0:0:0:
322,80,289568,1,8,0:0:0:0:
322,80,289628,1,8,0:0:0:0:
308,85,289718,1,0,0:0:0:0:
325,91,289808,1,0,0:0:0:0:
328,88,289897,1,0,0:0:0:0:
322,90,289987,1,0,0:0:0:0:
321,89,290077,1,8,0:0:0:0:
335,86,290257,1,8,0:0:0:0:
329,80,290302,1,8,0:0:0:0:
329,80,290347,1,0,0:0:0:0:
329,80,290436,1,0,0:0:0:0:
322,80,290526,1,8,0:0:0:0:
322,80,290571,1,8,0:0:0:0:
322,80,290616,1,8,0:0:0:0:
325,83,290706,1,0,0:0:0:0:
328,88,290886,1,8,0:0:0:0:
333,77,290975,1,0,0:0:0:0:
323,76,291035,1,0,0:0:0:0:
319,79,291095,1,8,0:0:0:0:
318,80,291155,1,0,0:0:0:0:
320,79,291245,1,0,0:0:0:0:
321,78,291335,1,8,0:0:0:0:
329,80,291424,1,8,0:0:0:0:
322,80,291649,1,0,0:0:0:0:
308,74,291829,1,0,0:0:0:0:
312,78,291993,1,0,0:0:0:0:
319,79,292113,1,0,0:0:0:0:
318,80,292173,1,0,0:0:0:0:
320,87,292233,1,8,0:0:0:0:
315,85,292323,1,0,0:0:0:0:
315,85,292383,1,0,0:0:0:0:
315,85,292442,1,8,0:0:0:0:
315,85,292502,1,8,0:0:0:0:
328,91,292592,1,0,0:0:0:0:
319,76,292681,1,0,0:0:0:0:
318,79,292771,1,0,0:0:0:0:
309,68,292861,1,0,0:0:0:0:
322,72,292951,1,8,0:0:0:0:
317,74,293131,1,8,0:0:0:0:
319,82,293175,1,8,0:0:0:0:
316,81,293220,1,0,0:0:0:0:
322,80,293310,1,8,0:0:0:0:
309,84,293400,1,0,0:0:0:0:
309,84,293445,1,0,0:0:0:0:
309,84,293490,1,0,0:0:0:0:
319,83,293580,1,8,0:0:0:0:
332,97,293759,1,8,0:0:0:0:
329,88,293849,1,0,0:0:0:0:
328,79,294029,1,8,0:0:0:0:
325,79,294119,1,0,0:0:0:0:
331,76,294209,1,8,0:0:0:0:
322,80,294299,1,8,0:0:0:0:
325,91,294523,1,0,0:0:0:0:
322,90,294702,1,0,0:0:0:0:
324,80,294867,1,0,0:0:0:0:
335,86,294987,1,8,0:0:0:0:
335,86,295047,1,8,0:0:0:0:
335,86,295107,1,0,0:0:0:0:
319,87,295196,1,8,0:0:0:0:
322,80,295256,1,0,0:0:0:0:
322,80,295316,1,0,0:0:0:0:
322,80,295376,1,8,0:0:0:0:
308,85,295466,1,0,0:0:0:0:
325,91,295556,1,0,0:0:0:0:
328,88,295645,1,0,0:0:0:0:
322,90,295735,1,0,0:0:0:0:
321,89,295825,1,8,0:0:0:0:
335,86,296005,1,8,0:0:0:0:
329,80,296050,1,8,0:0:0:0:
329,80,296095,1,0,0:0:0:0:
329,80,296184,1,8,0:0:0:0:
322,80,296274,1,8,0:0:0:0:
322,80,296364,1,0,0:0:0:0:
322,80,296409,1,0,0:0:0:0:
325,83,296454,1,8,0:0:0:0:
328,88,296634,1,8,0:0:0:0:
333,77,296723,1,0,0:0:0:0:
323,76,296783,1,0,0:0:0:0:
319,79,296843,1,8,0:0:0:0:
318,80,296903,1,0,0:0:0:0:
320,79,296993,1,0,0:0:0:0:
321,78,297083,1,8,0:0:0:0:
329,80,297172,1,8,0:0:0:0:
322,80,297397,1,0,0:0:0:0:
308,74,297577,1,0,0:0:0:0:
312,78,297741,1,0,0:0:0:0:
319,79,297861,1,0,0:0:0:0:
318,80,297921,1,0,0:0:0:0:
320,87,297981,1,8,0:0:0:0:
315,85,298071,1,0,0:0:0:0:
315,85,298131,1,0,0:0:0:0:
315,85,298190,1,8,0:0:0:0:
315,85,298250,1,8,0:0:0:0:
328,91,298341,1,0,0:0:0:0:
319,76,298430,1,0,0:0:0:0:
318,79,298520,1,0,0:0:0:0:
309,68,298610,1,0,0:0:0:0:
322,72,298700,1,8,0:0:0:0:
317,74,298880,1,8,0:0:0:0:
319,82,298924,1,8,0:0:0:0:
316,81,298969,1,0,0:0:0:0:
322,80,299059,1,8,0:0:0:0:
309,84,299149,1,0,0:0:0:0:
309,84,299194,1,0,0:0:0:0:
309,84,299239,1,0,0:0:0:0:
319,83,299329,1,8,0:0:0:0:
332,97,299508,1,8,0:0:0:0:
329,88,299598,1,0,0:0:0:0:
328,79,299778,1,8,0:0:0:0:
325,79,299868,1,0,0:0:0:0:
331,76,299958,1,8,0:0:0:0:
322,80,300048,1,8,0:0:0:0:
325,91,300272,1,0,0:0:0:0:
322,90,300451,1,0,0:0:0:0:
324,80,300616,1,0,0:0:0:0:
335,86,300736,1,8,0:0:0:0:
335,86,300796,1,8,0:0:0:0:
335,86,300856,1,0,0:0:0:0:
319,87,300945,1,8,0:0:0:0:
322,80,301005,1,8,0:0:0:0:
322,80,301065,1,8,0:0:0:0:
322,80,301125,1,8,0:0:0:0:
308,85,301215,1,0,0:0:0:0:
325,91,301305,1,0,0:0:0:0:
328,88,301394,1,0,0:0:0:0:
322,90,301484,1,0,0:0:0:0:
321,89,301574,1,8,0:0:0:0:
335,86,301754,1,8,0:0:0:0:
329,80,301799,1,8,0:0:0:0:
329,80,301844,1,0,0:0:0:0:
329,80,301933,1,0,0:0:0:0:
322,80,302023,1,8,0:0:0:0:
322,80,302068,1,8,0:0:0:0:
322,80,302113,1,8,0:0:0:0:
325,83,302203,1,0,0:0:0:0:
328,88,302383,1,8,0:0:0:0:
333,77,302472,1,0,0:0:0:0:
323,76,302532,1,0,0:0:0:0:
319,79,302592,1,8,0:0:0:0:
318,80,302652,1,0,0:0:0:0:
320,79,302742,1,0,0:0:0:0:
321,78,302832,1,8,0:0:0:0:
329,80,302921,1,8,0:0:0:0:
322,80,303146,1,0,0:0:0:0:
308,74,303326,1,0,0:0:0:0:
312,78,303490,1,0,0:0:0:0:
319,79,303610,1,0,0:0:0:0:
318,80,303670,1,0,0:0:0:0:
320,87,303730,1,8,0:0:0:0:
315,85,303820,1,0,0:0:0:0:
315,85,303880,1,0,0:0:0:0:
315,85,303939,1,8,0:0:0:0:
315,85,303999,1,8,0:0:0:0:
328,91,304089,1,0,0:0:0:0:
319,76,304178,1,0,0:0:0:0:
318,79,304268,1,0,0:0:0:0:
309,68,304358,1,0,0:0:0:0:
322,72,304448,1,8,0:0:0:0:
317,74,304628,1,8,0:0:0:0:
319,82,304672,1,8,0:0:0:0:
316,81,304717,1,0,0:0:0:0:
322,80,304807,1,8,0:0:0:0:
309,84,304897,1,0,0:0:0:0:
309,84,304942,1,0,0:0:0:0:
309,84,304987,1,0,0:0:0:0:
319,83,305077,1,8,0:0:0:0:
332,97,305256,1,8,0:0:0:0:
329,88,305346,1,0,0:0:0:0:
328,79,305526,1,8,0:0:0:0:
325,79,305616,1,0,0:0:0:0:
180,103,305706,1,8,0:0:0:0:
322,80,305796,1,8,0:0:0:0:
325,81,305975,1,0,0:0:0:0:
338,90,306065,1,8,0:0:0:0:
334,91,306110,1,8,0:0:0:0:
332,97,306155,1,0,0:0:0:0:
332,97,306245,1,8,0:0:0:0:
334,92,306335,1,0,0:0:0:0:
324,85,306395,1,0,0:0:0:0:
328,88,306454,1,0,0:0:0:0:
328,90,306514,1,8,0:0:0:0:
326,93,306634,1,0,0:0:0:0:
328,92,306784,1,0,0:0:0:0:
348,105,306993,1,0,0:0:0:0:
340,96,307353,1,0,0:0:0:0:
340,101,307442,1,0,0:0:0:0:
341,103,307712,1,0,0:0:0:0:
341,103,307802,1,0,0:0:0:0:
339,106,307892,1,0,0:0:0:0:
343,106,308055,1,0,0:0:0:0:
346,108,308234,1,0,0:0:0:0:
349,107,308504,1,0,0:0:0:0:
349,107,308593,1,0,0:0:0:0:
349,107,308683,1,0,0:0:0:0:
349,107,308773,1,0,0:0:0:0:
348,107,308863,1,8,0:0:0:0:
343,106,309043,1,0,0:0:0:0:
327,108,309222,1,0,0:0:0:0:
331,109,309402,1,0,0:0:0:0:
356,112,309583,1,0,0:0:0:0:
331,114,309672,1,0,0:0:0:0:
331,114,309762,1,0,0:0:0:0:
331,114,309852,1,0,0:0:0:0:
331,114,309942,1,8,0:0:0:0:
343,106,310032,1,8,0:0:0:0:
338,110,310121,1,0,0:0:0:0:
340,110,310211,1,8,0:0:0:0:
339,107,310301,1,0,0:0:0:0:
325,97,310361,1,0,0:0:0:0:
329,97,310421,1,0,0:0:0:0:
325,97,310481,1,8,0:0:0:0:
343,107,310571,1,8,0:0:0:0:
343,107,310660,1,0,0:0:0:0:
342,106,310750,1,8,0:0:0:0:
342,106,310840,1,0,0:0:0:0:
342,106,310930,1,0,0:0:0:0:
343,106,311020,1,0,0:0:0:0:
350,103,311199,1,0,0:0:0:0:
349,103,311289,1,8,0:0:0:0:
349,103,311379,1,8,0:0:0:0:
349,103,311469,1,0,0:0:0:0:
349,104,311559,1,8,0:0:0:0:
343,107,311648,1,0,0:0:0:0:
342,106,311738,1,8,0:0:0:0:
342,106,311828,1,8,0:0:0:0:
342,106,311918,1,0,0:0:0:0:
343,106,312008,1,0,0:0:0:0:
342,108,312097,1,8,0:0:0:0:
348,111,312187,1,8,0:0:0:0:
348,111,312277,1,8,0:0:0:0:
362,107,312457,1,0,0:0:0:0:
338,115,312547,1,0,0:0:0:0:
337,115,312636,1,0,0:0:0:0:
338,112,312726,1,0,0:0:0:0:
342,117,312816,1,8,0:0:0:0:
342,120,312906,1,0,0:0:0:0:
342,120,312996,1,8,0:0:0:0:
346,118,313085,1,0,0:0:0:0:
328,107,313130,1,0,0:0:0:0:
329,108,313175,1,8,0:0:0:0:
348,111,313265,1,8,0:0:0:0:
346,116,313355,1,0,0:0:0:0:
346,117,313535,1,8,0:0:0:0:
348,117,313624,1,0,0:0:0:0:
330,112,313669,1,0,0:0:0:0:
330,108,313714,1,0,0:0:0:0:
342,117,313804,1,0,0:0:0:0:
342,120,313894,1,8,0:0:0:0:
366,123,313984,1,0,0:0:0:0:
346,119,314253,1,0,0:0:0:0:
346,116,314343,1,0,0:0:0:0:
338,121,314433,1,8,0:0:0:0:
338,121,314523,1,0,0:0:0:0:
346,117,314568,1,0,0:0:0:0:
362,109,314612,1,8,0:0:0:0:
353,119,314792,1,0,0:0:0:0:
352,119,314882,1,8,0:0:0:0:
346,119,315062,1,0,0:0:0:0:
346,119,315151,1,8,0:0:0:0:
346,119,315241,1,8,0:0:0:0:
344,123,315331,1,0,0:0:0:0:
344,123,315421,1,8,0:0:0:0:
342,126,315511,1,0,0:0:0:0:
342,124,315600,1,8,0:0:0:0:
339,126,315690,1,8,0:0:0:0:
341,127,315780,1,0,0:0:0:0:
342,125,315870,1,0,0:0:0:0:
352,119,315915,1,0,0:0:0:0:
346,119,316050,1,8,0:0:0:0:
356,123,316139,1,0,0:0:0:0:
346,119,316229,1,0,0:0:0:0:
344,123,316409,1,8,0:0:0:0:
339,112,316454,1,8,0:0:0:0:
340,114,316499,1,0,0:0:0:0:
348,120,316588,1,8,0:0:0:0:
354,124,316768,1,0,0:0:0:0:
351,125,316858,1,0,0:0:0:0:
352,119,316948,1,8,0:0:0:0:
346,119,317038,1,0,0:0:0:0:
345,125,317127,1,0,0:0:0:0:
345,125,317217,1,8,0:0:0:0:
319,107,317262,1,8,0:0:0:0:
326,109,317307,1,8,0:0:0:0:
327,111,317397,1,0,0:0:0:0:
348,119,317487,1,8,0:0:0:0:
348,120,317577,1,0,0:0:0:0:
341,117,317666,1,0,0:0:0:0:
341,117,317756,1,0,0:0:0:0:
341,117,317846,1,8,0:0:0:0:
351,125,317906,1,8,0:0:0:0:
352,119,317966,1,8,0:0:0:0:
351,124,318026,1,0,0:0:0:0:
345,125,318115,1,0,0:0:0:0:
345,125,318205,1,0,0:0:0:0:
345,125,318295,1,0,0:0:0:0:
346,126,318385,1,8,0:0:0:0:
346,126,318475,1,0,0:0:0:0:
346,126,318565,1,8,0:0:0:0:
345,127,318654,1,0,0:0:0:0:
339,126,318744,1,0,0:0:0:0:
339,126,318834,1,0,0:0:0:0:
339,126,318924,1,8,0:0:0:0:
339,126,319014,1,0,0:0:0:0:
345,125,319074,1,0,0:0:0:0:
345,125,319133,1,0,0:0:0:0:
345,125,319193,1,8,0:0:0:0:
345,125,319283,1,8,0:0:0:0:
352,121,319463,1,0,0:0:0:0:
346,126,319553,1,8,0:0:0:0:
330,119,319597,1,8,0:0:0:0:
330,119,319642,1,0,0:0:0:0:
340,117,319732,1,0,0:0:0:0:
340,117,319822,1,8,0:0:0:0:
335,119,319912,1,0,0:0:0:0:
339,119,320181,1,0,0:0:0:0:
339,120,320271,1,8,0:0:0:0:
339,120,320361,1,0,0:0:0:0:
342,109,320451,1,8,0:0:0:0:
340,110,320496,1,8,0:0:0:0:
335,120,320541,1,0,0:0:0:0:
340,117,320810,1,8,0:0:0:0:
341,115,320990,1,0,0:0:0:0:
339,119,321080,1,8,0:0:0:0:
339,119,321169,1,8,0:0:0:0:
346,114,321259,1,0,0:0:0:0:
346,114,321349,1,8,0:0:0:0:
346,114,321439,1,0,0:0:0:0:
346,114,321529,1,0,0:0:0:0:
346,114,321618,1,8,0:0:0:0:
346,114,321663,1,8,0:0:0:0:
331,110,321798,1,0,0:0:0:0:
334,109,321888,1,0,0:0:0:0:
333,109,321978,1,8,0:0:0:0:
335,108,322068,1,0,0:0:0:0:
334,108,322157,1,8,0:0:0:0:
334,108,322247,1,0,0:0:0:0:
345,105,322307,1,0,0:0:0:0:
345,105,322367,1,8,0:0:0:0:
345,105,322427,1,8,0:0:0:0:
299,132,322517,5,0,0:0:0:0:
346,114,322696,1,8,0:0:0:0:
337,106,322786,1,0,0:0:0:0:
334,109,322876,1,0,0:0:0:0:
333,109,322966,1,8,0:0:0:0:
335,108,323056,1,0,0:0:0:0:
334,108,323145,1,8,0:0:0:0:
334,108,323190,1,8,0:0:0:0:
334,108,323235,1,8,0:0:0:0:
345,105,323325,1,0,0:0:0:0:
332,103,323415,1,8,0:0:0:0:
351,122,323505,1,0,0:0:0:0:
346,114,323594,1,8,0:0:0:0:
346,114,323684,1,8,0:0:0:0:
256,192,323774,12,0,324672,0:0:0:0:
286,117,324852,5,0,0:0:0:0:
293,102,324942,1,0,0:0:0:0:
293,111,325032,1,8,0:0:0:0:
298,109,325077,1,8,0:0:0:0:
298,109,325121,1,0,0:0:0:0:
298,109,325211,1,0,0:0:0:0:
298,109,325301,1,8,0:0:0:0:
298,109,325346,1,8,0:0:0:0:
298,109,325391,1,0,0:0:0:0:
298,109,325481,1,8,0:0:0:0:
298,109,325571,1,0,0:0:0:0:
294,107,325810,1,0,0:0:0:0:
294,107,325870,1,0,0:0:0:0:
293,102,325930,1,0,0:0:0:0:
293,102,325990,1,8,0:0:0:0:
298,109,326289,1,8,0:0:0:0:
305,99,326559,1,0,0:0:0:0:
305,99,326648,1,8,0:0:0:0:
301,99,326738,1,0,0:0:0:0:
301,99,326918,1,0,0:0:0:0:
301,99,327008,1,8,0:0:0:0:
301,99,327097,1,0,0:0:0:0:
301,99,327277,1,0,0:0:0:0:
305,99,327367,1,8,0:0:0:0:
323,107,327427,1,8,0:0:0:0:
305,99,327487,1,0,0:0:0:0:
305,99,327547,1,0,0:0:0:0:
318,96,327726,1,8,0:0:0:0:
314,109,327906,1,0,0:0:0:0:
317,98,327996,1,8,0:0:0:0:
310,98,328085,1,8,0:0:0:0:
314,104,328175,1,8,0:0:0:0:
314,104,328265,1,0,0:0:0:0:
313,103,328385,1,0,0:0:0:0:
313,103,328505,1,0,0:0:0:0:
313,103,328624,1,0,0:0:0:0:
314,109,328804,1,0,0:0:0:0:
336,89,328984,1,0,0:0:0:0:
310,98,329074,1,0,0:0:0:0:
314,104,329163,1,0,0:0:0:0:
306,103,329253,1,0,0:0:0:0:
321,93,329343,1,8,0:0:0:0:
321,93,329403,1,8,0:0:0:0:
321,93,329463,1,8,0:0:0:0:
321,93,329523,1,0,0:0:0:0:
321,93,329612,1,0,0:0:0:0:
334,103,329702,1,8,0:0:0:0:
334,107,329762,1,8,0:0:0:0:
333,107,329822,1,0,0:0:0:0:
323,96,330062,1,0,0:0:0:0:
333,107,330121,1,0,0:0:0:0:
333,107,330181,1,0,0:0:0:0:
328,114,330421,1,8,0:0:0:0:
331,113,330481,1,8,0:0:0:0:
331,113,330541,1,8,0:0:0:0:
334,107,330810,1,0,0:0:0:0:
327,111,330960,1,8,0:0:0:0:
325,111,331020,1,0,0:0:0:0:
325,112,331080,1,0,0:0:0:0:
332,98,331139,1,8,0:0:0:0:
334,108,331319,1,0,0:0:0:0:
328,114,331409,1,0,0:0:0:0:
331,113,331499,1,8,0:0:0:0:
331,113,331588,1,8,0:0:0:0:
334,107,331678,1,8,0:0:0:0:
334,107,331768,1,0,0:0:0:0:
327,111,331858,1,8,0:0:0:0:
332,111,332038,1,0,0:0:0:0:
323,112,332127,1,8,0:0:0:0:
328,108,332172,1,8,0:0:0:0:
325,106,332217,1,0,0:0:0:0:
321,101,332307,1,0,0:0:0:0:
331,103,332397,1,8,0:0:0:0:
327,107,332577,1,0,0:0:0:0:
326,107,332666,1,0,0:0:0:0:
326,107,332756,1,8,0:0:0:0:
326,107,332846,1,8,0:0:0:0:
340,108,332936,1,0,0:0:0:0:
332,111,333026,1,8,0:0:0:0:
338,109,333115,1,0,0:0:0:0:
337,109,333205,1,8,0:0:0:0:
335,111,333295,1,8,0:0:0:0:
336,111,333385,1,0,0:0:0:0:
337,109,333475,1,0,0:0:0:0:
337,110,333565,1,8,0:0:0:0:
336,109,333654,1,0,0:0:0:0:
336,104,333834,1,0,0:0:0:0:
340,108,333924,1,0,0:0:0:0:
332,111,334014,1,8,0:0:0:0:
338,109,334103,1,8,0:0:0:0:
337,109,334193,1,0,0:0:0:0:
329,104,334283,1,8,0:0:0:0:
329,104,334373,1,0,0:0:0:0:
329,104,334463,1,8,0:0:0:0:
329,104,334553,1,0,0:0:0:0:
329,104,334642,1,8,0:0:0:0:
336,104,334732,1,8,0:0:0:0:
329,105,334912,1,0,0:0:0:0:
332,111,335002,1,0,0:0:0:0:
329,105,335091,1,8,0:0:0:0:
329,106,335181,1,0,0:0:0:0:
329,104,335271,1,8,0:0:0:0:
329,104,335451,1,0,0:0:0:0:
345,103,335496,1,0,0:0:0:0:
340,102,335541,1,8,0:0:0:0:
334,108,335630,1,0,0:0:0:0:
336,104,335690,1,0,0:0:0:0:
347,106,335750,1,0,0:0:0:0:
339,103,335810,1,8,0:0:0:0:
329,105,335900,1,8,0:0:0:0:
329,98,335990,1,0,0:0:0:0:
329,105,336080,1,8,0:0:0:0:
328,97,336169,1,0,0:0:0:0:
328,96,336259,1,8,0:0:0:0:
328,96,336349,1,0,0:0:0:0:
328,96,336439,1,0,0:0:0:0:
328,95,336529,1,8,0:0:0:0:
325,100,336618,1,0,0:0:0:0:
325,100,336708,1,0,0:0:0:0:
325,100,336798,1,0,0:0:0:0:
329,105,336888,1,8,0:0:0:0:
316,99,337157,1,0,0:0:0:0:
311,102,337217,1,0,0:0:0:0:
328,96,337277,1,0,0:0:0:0:
308,93,337337,1,8,0:0:0:0:
331,109,337517,1,0,0:0:0:0:
323,114,337577,1,0,0:0:0:0:
337,109,337696,1,8,0:0:0:0:
331,110,337786,1,8,0:0:0:0:
329,105,337876,1,0,0:0:0:0:
335,107,337936,1,0,0:0:0:0:
328,109,338056,1,0,0:0:0:0:
328,109,338115,1,0,0:0:0:0:
332,111,338235,1,8,0:0:0:0:
323,105,338325,1,8,0:0:0:0:
325,105,338415,1,0,0:0:0:0:
321,96,338475,1,0,0:0:0:0:
335,105,338594,1,0,0:0:0:0:
328,105,338653,1,0,0:0:0:0:
310,90,338774,1,8,0:0:0:0:
331,89,338954,5,0,0:0:0:0:
323,95,339014,1,0,0:0:0:0:
323,95,339074,1,0,0:0:0:0:
323,95,339133,1,0,0:0:0:0:
322,96,339193,1,0,0:0:0:0:
329,99,339343,1,8,0:0:0:0:
329,92,339463,1,8,0:0:0:0:
328,92,339582,1,8,0:0:0:0:
354,139,339672,5,0,0:0:0:0:
354,139,339717,1,0,0:0:0:0:
354,148,339762,5,8,0:0:0:0:
