osu file format v14

[General]
AudioFilename: audio.mp3
AudioLeadIn: 0
PreviewTime: 159694
Countdown: 0
SampleSet: Drum
StackLeniency: 0.4
Mode: 0
LetterboxInBreaks: 0
WidescreenStoryboard: 0

[Editor]
Bookmarks: 17765,22872,33084,38191,48404,53510,63723,68829,84148,99467,114787,124999,130106,145425,155638,160744,176063,191382,206701,237340,247553,252659,262872,267978,278191
DistanceSpacing: 2
BeatDivisor: 4
GridSize: 4
TimelineZoom: 1.2

[Metadata]
Title:Alberto Balsam
TitleUnicode:Alberto Balsam
Artist:Aphex Twin
ArtistUnicode:Aphex Twin
Creator:h3ct1c
Version:Hyper
Source:
Tags:hectic smozit h4d0uk3n1 ambient electronic instrumental electronica idm chillout ...I Care Because You Do trees forest green balsalm
BeatmapID:2204912
BeatmapSetID:1055241

[Difficulty]
HPDrainRate:4
CircleSize:4
OverallDifficulty:7.5
ApproachRate:8
SliderMultiplier:2.2
SliderTickRate:1

[Events]
//Background and Video events
0,0,"sdffgk.jpg",0,0
//Break Periods
2,129974,139875
//Storyboard Layer 0 (Background)
//Storyboard Layer 1 (Fail)
//Storyboard Layer 2 (Pass)
//Storyboard Layer 3 (Foreground)
//Storyboard Layer 4 (Overlay)
//Storyboard Sound Samples

[TimingPoints]
7540,638.297872340426,4,3,1,20,1,0
7540,-333.333333333333,4,3,1,20,0,0
7859,-133.333333333333,4,3,1,20,0,0
11688,-133.333333333333,4,3,1,30,0,0
12646,-333.333333333333,4,3,1,20,0,0
12965,-133.333333333333,4,3,1,20,0,0
17114,-133.333333333333,4,3,1,30,0,0
17433,-133.333333333333,4,3,1,40,0,0
17752,-200,4,2,1,20,0,0
21901,-200,4,2,1,25,0,0
22220,-200,4,2,1,30,0,0
22540,-200,4,2,1,25,0,0
22859,-333.333333333333,4,3,1,20,0,0
23178,-133.333333333333,4,3,1,20,0,0
27965,-333.333333333333,4,3,1,20,0,0
28284,-133.333333333333,4,3,1,20,0,0
32114,-133.333333333333,4,3,1,30,0,0
33071,-200,4,2,1,20,0,0
37540,-200,4,2,1,30,0,0
37859,-200,4,2,1,20,0,0
38178,-333.333333333333,4,3,1,20,0,0
38497,-133.333333333333,4,3,1,20,0,0
39055,-133.333333333333,4,3,1,5,0,0
39135,-133.333333333333,4,3,1,20,0,0
39295,-133.333333333333,4,3,1,25,0,0
39454,-133.333333333333,4,3,1,30,0,0
40571,-133.333333333333,4,3,1,25,0,0
42327,-133.333333333333,4,3,1,30,0,0
43204,-133.333333333333,4,3,1,5,0,0
43284,-333.333333333333,4,3,1,20,0,0
43603,-133.333333333333,4,3,1,20,0,0
44242,-133.333333333333,4,3,1,25,0,0
46157,-133.333333333333,4,3,1,20,0,0
46954,-133.333333333333,4,3,1,30,0,0
47274,-133.333333333333,4,3,1,20,0,0
48071,-133.333333333333,4,3,1,40,0,0
48311,-133.333333333333,4,3,1,5,0,0
48391,-200,4,2,1,20,0,0
52859,-200,4,2,1,30,0,0
53178,-200,4,2,1,20,0,0
53497,-333.333333333333,4,3,1,20,0,0
53816,-133.333333333333,4,3,1,20,0,0
54375,-133.333333333333,4,3,1,5,0,0
54454,-133.333333333333,4,3,1,20,0,0
54614,-133.333333333333,4,3,1,25,0,0
54774,-133.333333333333,4,3,1,30,0,0
55891,-133.333333333333,4,3,1,25,0,0
57646,-133.333333333333,4,3,1,30,0,0
58524,-133.333333333333,4,3,1,5,0,0
58603,-333.333333333333,4,3,1,20,0,0
58922,-133.333333333333,4,3,1,20,0,0
59481,-133.333333333333,4,3,1,5,0,0
59561,-133.333333333333,4,3,1,30,0,0
61476,-133.333333333333,4,3,1,20,0,0
62274,-133.333333333333,4,3,1,30,0,0
62593,-133.333333333333,4,3,1,20,0,0
63391,-133.333333333333,4,3,1,40,0,0
63630,-133.333333333333,4,3,1,5,0,0
63710,-200,4,2,1,20,0,0
68178,-200,4,2,1,25,0,0
68497,-200,4,2,1,20,0,0
68816,-133.333333333333,4,3,1,20,0,0
69375,-133.333333333333,4,3,1,5,0,0
69454,-133.333333333333,4,3,1,20,0,0
70093,-133.333333333333,4,3,1,25,0,0
70571,-133.333333333333,4,3,1,30,0,0
71050,-133.333333333333,4,3,1,25,0,0
71369,-133.333333333333,4,3,1,20,0,0
72965,-133.333333333333,4,3,1,30,0,0
73284,-133.333333333333,4,3,1,40,0,0
73603,-133.333333333333,4,3,1,60,0,0
73922,-133.333333333333,4,3,1,20,0,0
75199,-133.333333333333,4,3,1,25,0,0
75518,-133.333333333333,4,3,1,30,0,0
75997,-133.333333333333,4,3,1,40,0,0
76157,-133.333333333333,4,3,1,25,0,0
77114,-133.333333333333,4,3,1,25,0,0
77752,-133.333333333333,4,3,1,25,0,0
78710,-133.333333333333,4,3,1,30,0,0
79029,-133.333333333333,4,3,1,35,0,0
81502,-133.333333333333,4,3,1,5,0,0
81582,-133.333333333333,4,3,1,35,0,0
82859,-133.333333333333,4,3,1,50,0,0
83816,-133.333333333333,4,3,1,60,0,0
84055,-133.333333333333,4,3,1,5,0,0
84135,-133.333333333333,4,3,1,25,0,0
84694,-133.333333333333,4,3,1,5,0,0
84774,-133.333333333333,4,3,1,20,0,0
85412,-133.333333333333,4,3,1,35,0,0
86688,-133.333333333333,4,3,1,20,0,0
87247,-133.333333333333,4,3,1,5,0,0
87327,-133.333333333333,4,3,1,20,0,0
87965,-133.333333333333,4,3,1,40,0,0
89082,-133.333333333333,4,3,1,20,0,0
90518,-133.333333333333,4,3,1,25,0,0
90837,-133.333333333333,4,3,1,30,0,0
91316,-133.333333333333,4,3,1,35,0,0
91476,-133.333333333333,4,3,1,20,0,0
94029,-133.333333333333,4,3,1,25,0,0
94348,-133.333333333333,4,3,1,40,0,0
96263,-133.333333333333,4,3,1,45,0,0
98178,-133.333333333333,4,3,1,50,0,0
98816,-133.333333333333,4,3,1,40,0,0
99454,-133.333333333333,4,3,1,20,0,0
100731,-133.333333333333,4,3,1,25,0,0
101688,-133.333333333333,4,3,1,20,0,0
102566,-133.333333333333,4,3,1,5,0,0
102646,-133.333333333333,4,3,1,20,0,0
103922,-133.333333333333,4,3,1,25,0,0
104242,-133.333333333333,4,3,1,35,0,0
104561,-133.333333333333,4,3,1,20,0,0
105837,-133.333333333333,4,3,1,25,0,0
106157,-133.333333333333,4,3,1,30,0,0
106635,-133.333333333333,4,3,1,35,0,0
107114,-133.333333333333,4,3,1,20,0,0
108391,-133.333333333333,4,3,1,30,0,0
109667,-133.333333333333,4,3,1,25,0,0
110305,-133.333333333333,4,3,1,35,0,0
111582,-133.333333333333,4,3,1,20,0,0
112220,-133.333333333333,4,3,1,35,0,0
113497,-133.333333333333,4,3,1,35,0,0
114055,-133.333333333333,4,3,1,5,0,0
114135,-133.333333333333,4,3,1,30,0,0
114454,-133.333333333333,4,3,1,40,0,0
114774,-333.333333333333,4,3,1,20,0,0
115093,-133.333333333333,4,3,1,20,0,0
115651,-133.333333333333,4,3,1,5,0,0
115731,-133.333333333333,4,3,1,20,0,0
116050,-133.333333333333,4,3,1,30,0,0
117805,-133.333333333333,4,3,1,20,0,0
118444,-133.333333333333,4,3,1,30,0,0
118922,-133.333333333333,4,3,1,35,0,0
119162,-133.333333333333,4,3,1,5,0,0
119242,-133.333333333333,4,3,1,25,0,0
119880,-133.333333333333,4,3,1,20,0,0
120119,-133.333333333333,4,3,1,5,0,0
120199,-133.333333333333,4,3,1,20,0,0
120837,-133.333333333333,4,3,1,30,0,0
122433,-133.333333333333,4,3,1,20,0,0
122672,-133.333333333333,4,3,1,5,0,0
122752,-133.333333333333,4,3,1,20,0,0
123550,-133.333333333333,4,3,1,35,0,0
124029,-133.333333333333,4,3,1,20,0,0
124667,-133.333333333333,4,3,1,45,0,0
124907,-133.333333333333,4,3,1,20,0,0
124986,-200,4,2,1,20,0,0
129454,-200,4,2,1,30,0,0
129774,-200,4,2,1,25,0,0
145412,-333.333333333333,4,3,1,20,0,0
145731,-133.333333333333,4,3,1,20,0,0
146529,-133.333333333333,4,3,1,25,0,0
146688,-133.333333333333,4,3,1,35,0,0
148284,-133.333333333333,4,3,1,20,0,0
149082,-133.333333333333,4,3,1,25,0,0
149242,-133.333333333333,4,3,1,20,0,0
149561,-133.333333333333,4,3,1,35,0,0
149800,-133.333333333333,4,3,1,5,0,0
149880,-133.333333333333,4,3,1,30,0,0
150518,-333.333333333333,4,3,1,20,0,0
150837,-133.333333333333,4,3,1,20,0,0
151396,-133.333333333333,4,3,1,5,0,0
151476,-133.333333333333,4,3,1,30,0,0
153071,-133.333333333333,4,3,1,20,0,0
153311,-133.333333333333,4,3,1,5,0,0
153391,-133.333333333333,4,3,1,20,0,0
154188,-133.333333333333,4,3,1,35,0,0
154667,-133.333333333333,4,3,1,20,0,0
155305,-133.333333333333,4,3,1,45,0,0
155545,-133.333333333333,4,3,1,5,0,0
155625,-200,4,2,1,20,0,0
160093,-200,4,2,1,30,0,0
160412,-200,4,2,1,25,0,0
160731,-133.333333333333,4,3,1,20,0,0
161290,-133.333333333333,4,3,1,5,0,0
161369,-133.333333333333,4,3,1,20,0,0
162008,-133.333333333333,4,3,1,35,0,0
162965,-133.333333333333,4,3,1,25,0,0
163284,-133.333333333333,4,3,1,20,0,0
164561,-133.333333333333,4,3,1,30,0,0
164880,-133.333333333333,4,3,1,35,0,0
165199,-133.333333333333,4,3,1,40,0,0
165518,-133.333333333333,4,3,1,50,0,0
165837,-133.333333333333,4,3,1,20,0,0
167114,-133.333333333333,4,3,1,30,0,0
167433,-133.333333333333,4,3,1,35,0,0
167912,-133.333333333333,4,3,1,40,0,0
168071,-133.333333333333,4,3,1,20,0,0
169029,-133.333333333333,4,3,1,30,0,0
169667,-133.333333333333,4,3,1,35,0,0
169986,-133.333333333333,4,3,1,40,0,0
170625,-133.333333333333,4,3,1,35,0,0
171582,-133.333333333333,4,3,1,25,0,0
172220,-133.333333333333,4,3,1,35,0,0
172859,-133.333333333333,4,3,1,40,0,0
174774,-133.333333333333,4,3,1,50,0,0
175412,-133.333333333333,4,3,1,70,0,0
176050,-133.333333333333,4,3,1,25,0,0
177327,-133.333333333333,4,3,1,35,0,0
178284,-133.333333333333,4,3,1,25,0,0
178603,-133.333333333333,4,3,1,20,0,0
179880,-133.333333333333,4,3,1,30,0,0
180199,-133.333333333333,4,3,1,35,0,0
180518,-133.333333333333,4,3,1,40,0,0
180837,-133.333333333333,4,3,1,50,0,0
181157,-133.333333333333,4,3,1,20,0,0
182433,-133.333333333333,4,3,1,35,0,0
182752,-133.333333333333,4,3,1,40,0,0
183231,-133.333333333333,4,3,1,45,0,0
183391,-133.333333333333,4,3,1,25,0,0
184348,-133.333333333333,4,3,1,35,0,0
184986,-133.333333333333,4,3,1,35,0,0
185944,-133.333333333333,4,3,1,45,0,0
186263,-133.333333333333,4,3,1,30,0,0
188178,-133.333333333333,4,3,1,25,0,0
188816,-133.333333333333,4,3,1,35,0,0
190093,-133.333333333333,4,3,1,45,0,0
190731,-133.333333333333,4,3,1,60,0,0
191369,-133.333333333333,4,3,1,20,0,0
192646,-133.333333333333,4,3,1,35,0,0
193603,-133.333333333333,4,3,1,20,0,0
195199,-133.333333333333,4,3,1,35,0,0
195837,-133.333333333333,4,3,1,40,0,0
196157,-133.333333333333,4,3,1,45,0,0
196476,-133.333333333333,4,3,1,20,0,0
197752,-133.333333333333,4,3,1,35,0,0
198710,-133.333333333333,4,3,1,20,0,0
200305,-133.333333333333,4,3,1,35,0,0
201183,-133.333333333333,4,3,1,5,0,0
201263,-133.333333333333,4,3,1,45,0,0
202859,-133.333333333333,4,3,1,35,0,0
203497,-133.333333333333,4,3,1,30,0,0
204135,-133.333333333333,4,3,1,35,0,0
204774,-133.333333333333,4,3,1,25,0,0
205412,-133.333333333333,4,3,1,50,0,0
206688,-66.6666666666667,4,1,1,28,0,0
206768,-66.6666666666667,4,2,1,28,0,0
206808,-66.6666666666667,4,1,1,16,0,0
206848,-66.6666666666667,4,2,1,28,0,0
206928,-66.6666666666667,4,1,1,39,0,0
206954,-66.6666666666667,4,2,1,28,0,0
207008,-333.333333333333,4,1,1,28,0,0
211795,-66.6666666666667,4,1,1,28,0,0
211800,-66.6666666666667,4,2,1,28,0,0
211807,-66.6666666666667,4,1,1,60,0,0
211816,-66.6666666666667,4,2,1,28,0,0
211827,-66.6666666666667,4,1,1,17,0,0
211872,-66.6666666666667,4,2,1,28,0,0
211889,-66.6666666666667,4,1,1,34,0,0
211910,-66.6666666666667,4,2,1,28,0,0
211933,-66.6666666666667,4,1,1,55,0,0
211958,-66.6666666666667,4,2,1,28,0,0
211985,-66.6666666666667,4,1,1,28,0,0
212012,-66.6666666666667,4,2,1,28,0,0
212043,-66.6666666666667,4,1,1,28,0,0
212076,-66.6666666666667,4,2,1,28,0,0
212114,-333.333333333333,4,1,1,28,0,0
216821,-333.333333333333,4,1,1,5,0,0
216901,-333.333333333333,4,2,1,20,0,0
222008,-66.6666666666667,4,1,1,28,0,0
222028,-66.6666666666667,4,2,1,28,0,0
222047,-66.6666666666667,4,1,1,41,0,0
222067,-66.6666666666667,4,2,1,28,0,0
222114,-66.6666666666667,4,1,1,81,0,0
222167,-66.6666666666667,4,2,1,28,0,0
222247,-66.6666666666667,4,1,1,28,0,0
222267,-66.6666666666667,4,2,1,28,0,0
222327,-333.333333333333,4,1,1,28,0,0
227114,-66.6666666666667,4,1,1,28,0,0
227141,-66.6666666666667,4,2,1,28,0,0
227433,-333.333333333333,4,1,1,28,0,0
232141,-333.333333333333,4,1,1,5,0,0
232220,-333.333333333333,4,2,1,20,0,0
237327,-133.333333333333,4,3,1,20,0,0
241476,-133.333333333333,4,3,1,35,0,0
242433,-333.333333333333,4,3,1,20,0,0
242672,-333.333333333333,4,3,1,5,0,0
242752,-133.333333333333,4,3,1,20,0,0
245226,-133.333333333333,4,3,1,5,0,0
245305,-133.333333333333,4,3,1,20,0,0
246582,-133.333333333333,4,3,1,35,0,0
246901,-133.333333333333,4,3,1,50,0,0
247220,-133.333333333333,4,3,1,35,0,0
247540,-200,4,2,1,20,0,0
252008,-200,4,2,1,35,0,0
252327,-200,4,2,1,30,0,0
252646,-333.333333333333,4,3,1,20,0,0
252965,-133.333333333333,4,3,1,20,0,0
253524,-133.333333333333,4,3,1,5,0,0
253603,-133.333333333333,4,3,1,20,0,0
256795,-133.333333333333,4,3,1,35,0,0
257752,-333.333333333333,4,3,1,20,0,0
257992,-333.333333333333,4,3,1,5,0,0
258071,-133.333333333333,4,3,1,20,0,0
258710,-133.333333333333,4,3,1,30,0,0
260305,-133.333333333333,4,3,1,20,0,0
260545,-133.333333333333,4,3,1,5,0,0
260625,-133.333333333333,4,3,1,20,0,0
261422,-133.333333333333,4,3,1,35,0,0
261901,-133.333333333333,4,3,1,25,0,0
262540,-133.333333333333,4,3,1,45,0,0
262859,-200,4,2,1,20,0,0
267008,-200,4,2,1,30,0,0
267087,-200,4,2,1,5,0,0
267327,-200,4,2,1,35,0,0
267407,-200,4,2,1,5,0,0
267646,-200,4,2,1,30,0,0
267726,-200,4,2,1,5,0,0
267965,-333.333333333333,4,3,1,20,0,0
268284,-133.333333333333,4,3,1,20,0,0
268843,-133.333333333333,4,3,1,5,0,0
268922,-133.333333333333,4,3,1,20,0,0
269242,-133.333333333333,4,3,1,25,0,0
270758,-133.333333333333,4,3,1,5,0,0
270837,-133.333333333333,4,3,1,20,0,0
271635,-133.333333333333,4,3,1,25,0,0
272114,-133.333333333333,4,3,1,35,0,0
273071,-333.333333333333,4,3,1,20,0,0
273311,-333.333333333333,4,3,1,5,0,0
273391,-133.333333333333,4,3,1,20,0,0
273949,-133.333333333333,4,3,1,5,0,0
274029,-133.333333333333,4,3,1,35,0,0
275864,-133.333333333333,4,3,1,5,0,0
275944,-133.333333333333,4,3,1,20,0,0
276742,-133.333333333333,4,3,1,35,0,0
277141,-133.333333333333,4,3,1,5,0,0
277220,-133.333333333333,4,3,1,20,0,0
277859,-133.333333333333,4,3,1,50,0,0
278178,-133.333333333333,4,3,1,10,0,0

[Colours]
Combo1 : 70,70,70
Combo2 : 143,143,143
Combo3 : 119,170,130
Combo4 : 67,107,74
Combo5 : 164,0,0

[HitObjects]
156,118,7540,6,0,B|165:132|165:132|160:151,1,32.99999899292,2|0,1:0|0:0,0:0:0:0:
224,203,8019,5,4,0:3:0:0:
284,146,8179,2,0,P|328:148|373:115,1,82.5000031471254,2|0,0:0|0:0,0:0:0:0:
385,38,8657,1,0,0:0:0:0:
507,23,8816,6,0,L|466:28,1,41.2500015735627,0|4,0:0|0:3,0:0:0:0:
307,67,9135,2,0,L|266:62,1,41.2500015735627,0|4,0:0|0:3,0:0:0:0:
213,211,9454,54,0,L|199:130,1,82.5000031471254,2|0,0:0|0:0,0:0:0:0:
184,49,9933,1,0,0:0:0:0:
305,154,10093,6,0,L|299:254,1,82.5000031471254,4|0,0:3|0:0,0:0:0:0:
294,318,10571,1,4,0:3:0:0:
508,343,10731,2,0,L|426:335,1,82.5000031471254,2|0,0:0|0:0,0:0:0:0:
353,374,11210,1,0,0:0:0:0:
239,380,11369,2,0,L|190:385,1,41.2500015735627,0|4,0:0|0:3,0:0:0:0:
126,342,11688,54,0,P|119:310|130:247,1,82.5000031471254,2|0,0:2|0:0,0:0:0:0:
181,151,12167,2,0,P|141:161|105:180,1,82.5000031471254,2|0,0:2|0:0,0:0:0:0:
120,335,12646,54,0,B|143:337|143:337|151:346,1,32.99999899292,2|0,1:0|0:0,0:0:0:0:
219,300,13125,5,4,0:3:0:0:
340,282,13284,2,0,L|300:287,1,41.2500015735627,2|0,0:0|0:0,0:0:0:0:
407,334,13603,1,0,0:0:0:0:
451,185,13763,1,0,0:0:0:0:
482,259,13922,6,0,P|484:280|483:301,1,41.2500015735627,0|4,0:0|0:3,0:0:0:0:
371,207,14242,2,0,P|358:171|359:154,1,41.2500015735627,0|4,0:0|0:3,0:0:0:0:
414,347,14561,2,0,L|314:356,1,82.5000031471254,2|0,0:0|0:0,0:0:0:0:
249,360,15040,1,4,0:3:0:0:
95,312,15199,54,0,L|178:317,1,82.5000031471254,4|0,0:3|0:0,0:0:0:0:
239,261,15678,1,4,0:3:0:0:
84,230,15838,2,0,L|42:233,2,41.2500015735627,2|0|0,0:0|0:0|0:0,0:0:0:0:
165,224,16316,1,0,0:0:0:0:
210,111,16476,2,0,L|206:152,1,41.2500015735627,0|4,0:0|0:3,0:0:0:0:
234,268,16795,6,0,P|236:288|234:308,1,41.2500015735627,2|4,0:2|0:3,0:0:0:0:
319,136,17114,2,0,P|339:140|357:148,1,41.2500015735627,2|0,0:2|0:0,0:0:0:0:
299,217,17433,2,0,P|313:232|324:249,1,41.2500015735627,2|0,0:2|0:0,0:0:0:0:
329,331,17752,54,0,L|393:338,1,55
434,283,18231,1,0,0:0:0:0:
506,266,18391,2,0,L|442:273,1,55,2|0,3:2|0:0,0:0:0:0:
405,214,18869,6,0,P|395:184|394:150,2,55,0|0|0,0:0|0:0|0:0,0:0:0:0:
348,262,19667,2,0,P|344:294|332:321,1,55,2|0,3:2|0:0,0:0:0:0:
266,342,20146,1,0,0:0:0:0:
199,308,20305,54,0,P|171:309|142:321,1,55,0|0,0:0|0:0,0:0:0:0:
76,290,20784,1,0,0:0:0:0:
42,356,20944,2,0,P|41:321|47:296,1,55,2|0,3:2|0:0,0:0:0:0:
7,238,21422,2,0,L|3:175,1,55
37,116,21901,5,2,0:2:0:0:
184,127,22220,1,2,0:2:0:0:
332,139,22540,1,2,0:2:0:0:
452,25,22859,38,0,B|460:36|460:36|457:59,1,32.99999899292,2|0,1:0|0:0,0:0:0:0:
375,59,23337,5,4,0:3:0:0:
417,130,23497,2,0,L|420:222,1,82.5000031471254,2|0,0:0|0:0,0:0:0:0:
424,295,23976,1,0,0:0:0:0:
321,344,24135,6,0,L|362:349,1,41.2500015735627,0|4,0:0|0:3,0:0:0:0:
198,327,24454,2,0,L|239:332,1,41.2500015735627,0|4,0:0|0:3,0:0:0:0:
60,272,24774,2,0,L|142:261,1,82.5000031471254,2|0,0:0|0:0,0:0:0:0:
223,248,25252,1,0,0:0:0:0:
276,107,25412,54,0,P|272:148|281:189,1,82.5000031471254,4|0,0:3|0:0,0:0:0:0:
348,237,25891,1,4,0:3:0:0:
455,239,26050,2,0,P|427:275|412:318,1,82.5000031471254,2|0,0:0|0:0,0:0:0:0:
472,367,26529,1,0,0:0:0:0:
336,337,26688,2,0,L|285:345,1,41.2500015735627,0|4,0:0|0:3,0:0:0:0:
145,290,27008,6,0,L|228:293,1,82.5000031471254,2|0,0:2|0:0,0:0:0:0:
120,191,27486,2,0,L|202:207,1,82.5000031471254,2|0,0:2|0:0,0:0:0:0:
54,365,27965,38,0,B|65:353|65:353|86:349,1,32.99999899292,2|0,1:0|0:0,0:0:0:0:
158,378,28444,5,4,0:3:0:0:
223,292,28603,2,0,L|227:334,1,41.2500015735627,2|0,0:0|0:0,0:0:0:0:
297,376,28922,1,0,0:0:0:0:
297,376,29082,1,0,0:0:0:0:
390,311,29242,6,0,L|377:350,1,41.2500015735627,0|4,0:0|0:3,0:0:0:0:
488,244,29561,2,0,L|466:279,1,41.2500015735627,0|4,0:0|0:3,0:0:0:0:
294,363,29880,2,0,L|239:381,2,41.2500015735627,2|0|0,0:0|0:0|0:0,0:0:0:0:
148,328,30359,1,0,0:0:0:0:
202,184,30518,54,0,P|209:225|204:266,1,82.5000031471254,4|0,0:3|0:0,0:0:0:0:
123,247,30997,1,4,0:3:0:0:
279,152,31157,2,0,P|293:113|291:58,1,82.5000031471254,2|0,0:0|0:0,0:0:0:0:
244,6,31635,1,0,0:0:0:0:
127,42,31795,2,0,L|169:40,1,41.2500015735627,0|4,0:0|0:3,0:0:0:0:
380,70,32114,6,0,L|469:80,2,82.5000031471254,2|2|2,0:2|0:2|0:2,0:0:0:0:
297,61,32912,1,0,0:0:0:0:
223,98,33071,54,0,L|226:164,1,55,0|0,0:0|0:0,0:0:0:0:
229,227,33550,1,0,0:0:0:0:
204,297,33710,2,0,L|209:242,1,55,2|0,3:2|0:0,0:0:0:0:
132,341,34188,6,0,L|128:287,2,55,0|0|0,0:0|0:0|0:0,0:0:0:0:
195,381,34986,2,0,L|258:378,1,55,2|0,3:2|0:0,0:0:0:0:
324,375,35465,1,0,0:0:0:0:
348,264,35625,54,0,P|354:291|369:315,1,55,0|0,0:0|0:0,0:0:0:0:
422,263,36103,1,0,0:0:0:0:
455,161,36263,2,0,P|434:179|409:189,1,55,2|0,3:2|0:0,0:0:0:0:
422,95,36742,2,0,P|431:57|433:33,1,55,0|0,0:0|0:0,0:0:0:0:
362,17,37220,5,2,0:2:0:0:
373,165,37540,1,2,0:2:0:0:
385,312,37859,1,2,0:2:0:0:
476,189,38178,38,0,B|463:195|463:195|444:194,1,32.99999899292,2|0,1:0|0:0,0:0:0:0:
370,231,38657,5,4,0:3:0:0:
302,358,38816,2,0,P|293:318|298:296,1,61.875002360344,2|0,0:0|0:0,0:0:0:0:
303,278,39135,5,2,0:2:0:0:
252,213,39295,1,2,0:2:0:0:
228,52,39454,54,0,L|223:135,1,82.5000031471254,2|0,0:2|0:0,0:0:0:0:
99,127,39933,2,0,L|222:134,1,123.750004720688,2|0,0:2|0:0,0:0:0:0:
321,221,40571,2,0,L|157:212,1,165.000006294251,2|0,0:2|0:0,0:0:0:0:
384,167,41369,6,0,P|401:203|400:244,1,82.5000031471254,2|0,0:0|0:0,0:0:0:0:
492,277,41848,54,0,L|401:252,1,82.5000031471254,2|0,0:2|0:0,0:0:0:0:
353,73,42327,6,0,P|343:42|343:15,1,41.2500015735627,2|0,0:2|0:0,0:0:0:0:
264,6,42646,1,2,0:2:0:0:
424,36,42805,1,2,0:2:0:0:
387,191,42965,2,0,L|370:268,1,61.875002360344,2|0,0:2|0:0,0:0:0:0:
386,261,43284,38,0,B|390:286|390:286|398:297,1,32.99999899292,2|0,1:0|0:0,0:0:0:0:
467,253,43763,5,4,0:3:0:0:
332,347,43922,2,0,L|287:341,1,41.2500015735627,2|0,0:0|0:0,0:0:0:0:
233,281,44242,5,2,0:2:0:0:
151,293,44401,1,2,0:2:0:0:
86,241,44561,2,0,L|96:184,1,41.2500015735627,2|0,0:2|0:0,0:0:0:0:
110,118,44880,2,0,L|118:78,1,41.2500015735627,2|0,0:2|0:0,0:0:0:0:
76,6,45199,53,2,0:2:0:0:
19,66,45359,1,2,0:2:0:0:
32,148,45518,2,0,L|200:177,1,165.000006294251,2|0,0:2|0:0,0:0:0:0:
266,219,46316,1,4,0:3:0:0:
354,265,46476,6,0,P|352:224|341:185,1,82.5000031471254,2|0,0:0|0:0,0:0:0:0:
487,125,46954,54,0,L|404:132,1,82.5000031471254,2|0,0:2|0:0,0:0:0:0:
334,87,47433,6,0,P|328:64|328:40,1,41.2500015735627,2|0,0:2|0:0,0:0:0:0:
433,4,47752,2,0,P|418:18|409:37,1,41.2500015735627,2|0,0:2|0:0,0:0:0:0:
512,142,48071,54,0,L|435:158,1,61.875002360344,2|0,0:2|0:0,0:0:0:0:
440,158,48391,6,0,P|436:181|435:220,1,55,0|0,0:0|0:0,0:0:0:0:
369,247,48869,1,0,0:0:0:0:
353,358,49029,2,0,P|339:334|329:309,1,55,2|0,3:2|0:0,0:0:0:0:
258,332,49508,54,0,P|239:335|201:359,2,55,0|0|0,0:0|0:0|0:0,0:0:0:0:
133,259,50305,2,0,P|160:263|183:276,1,55,2|0,3:2|0:0,0:0:0:0:
134,332,50784,1,0,0:0:0:0:
62,355,50944,6,0,L|57:299,1,55,0|0,0:0|0:0,0:0:0:0:
49,226,51422,1,0,0:0:0:0:
103,175,51582,2,0,L|107:118,1,55,2|0,3:2|0:0,0:0:0:0:
92,47,52061,2,0,L|93:110,1,55,0|0,0:0|0:0,0:0:0:0:
29,141,52540,53,2,0:2:0:0:
176,125,52859,1,2,0:2:0:0:
321,153,53178,1,2,0:2:0:0:
459,62,53497,54,0,B|455:70|455:70|452:93,1,32.99999899292,2|0,1:0|0:0,0:0:0:0:
441,175,53976,5,4,0:3:0:0:
493,237,54135,2,0,P|498:263|488:312,1,61.875002360344,2|0,0:0|0:0,0:0:0:0:
488,312,54454,5,2,0:2:0:0:
406,325,54614,1,2,0:2:0:0:
306,204,54774,54,0,P|333:234|338:275,1,82.5000031471254,2|0,0:2|0:0,0:0:0:0:
366,148,55252,2,0,P|376:202|342:271,1,123.750004720688,2|0,0:2|0:0,0:0:0:0:
412,317,55891,2,0,P|457:253|462:143,1,165.000006294251,2|0,0:2|0:0,0:0:0:0:
232,189,56688,6,0,P|226:148|234:107,1,82.5000031471254,2|0,0:0|0:0,0:0:0:0:
315,193,57167,54,0,P|342:223|347:264,1,82.5000031471254,2|0,0:2|0:0,0:0:0:0:
438,293,57646,6,0,L|435:334,1,41.2500015735627,2|0,0:2|0:0,0:0:0:0:
356,278,57965,1,2,0:2:0:0:
494,232,58125,1,2,0:2:0:0:
400,106,58284,2,0,P|393:79|395:38,1,61.875002360344,2|0,0:2|0:0,0:0:0:0:
400,37,58603,38,0,B|408:33|408:33|432:32,1,32.99999899292,2|0,1:0|0:0,0:0:0:0:
507,64,59082,5,4,0:3:0:0:
447,197,59242,2,0,L|372:188,1,61.875002360344,2|0,0:0|0:0,0:0:0:0:
374,189,59561,5,2,0:2:0:0:
336,262,59720,1,2,0:2:0:0:
408,301,59880,2,0,L|459:295,1,41.2500015735627,2|0,0:2|0:0,0:0:0:0:
491,384,60199,2,0,L|450:380,1,41.2500015735627,2|0,0:2|0:0,0:0:0:0:
295,346,60518,53,2,0:2:0:0:
327,270,60678,1,2,0:2:0:0:
401,306,60837,2,0,P|493:279|506:203,1,165.000006294251,2|0,0:2|0:0,0:0:0:0:
459,154,61635,1,4,0:3:0:0:
388,300,61795,6,0,L|401:385,1,82.5000031471254,2|0,0:0|0:0,0:0:0:0:
250,359,62274,54,0,L|256:276,1,82.5000031471254,2|0,0:2|0:0,0:0:0:0:
180,244,62752,6,0,L|175:188,1,41.2500015735627,2|0,0:2|0:0,0:0:0:0:
211,87,63071,2,0,L|215:129,1,41.2500015735627,2|0,0:2|0:0,0:0:0:0:
257,353,63391,54,0,L|264:275,1,61.875002360344,2|0,0:2|0:0,0:0:0:0:
265,279,63710,6,0,P|304:280|326:292,1,55
370,338,64188,1,0,0:0:0:0:
452,250,64348,2,0,P|447:277|434:301,1,55,2|2,3:2|3:2,0:0:0:0:
378,251,64827,54,0,P|369:221|366:192,2,55
348,319,65625,2,0,L|286:329,1,55,2|0,3:2|0:0,0:0:0:0:
220,337,66103,1,0,0:0:0:0:
164,235,66263,6,0,L|162:290,1,55
90,311,66742,1,0,0:0:0:0:
50,248,66901,2,0,L|49:185,1,55,2|0,3:2|0:0,0:0:0:0:
40,119,67380,2,0,L|33:178,1,55,0|0,0:0|0:0,0:0:0:0:
104,194,67859,53,2,0:0:0:0:
85,46,68178,1,2,0:0:0:0:
231,21,68497,1,2,0:0:0:0:
108,215,68816,6,0,L|110:261,1,41.2500015735627,4|2,0:3|0:2,0:0:0:0:
183,292,69135,2,0,L|175:364,1,61.875002360344,2|0,0:2|0:0,0:0:0:0:
174,368,69454,2,0,P|132:349|91:345,1,82.5000031471254,2|0,0:0|0:0,0:0:0:0:
14,357,69933,1,0,0:0:0:0:
75,226,70093,54,0,P|70:171|72:126,1,82.5000031471254,2|0,0:2|0:0,0:0:0:0:
156,26,70571,2,0,P|159:66|142:104,1,82.5000031471254,2|0,0:2|0:0,0:0:0:0:
39,43,71050,2,0,P|59:46|78:52,1,41.2500015735627,2|0,0:2|0:0,0:0:0:0:
218,144,71369,5,0,0:0:0:0:
218,144,71529,1,4,0:3:0:0:
298,127,71688,2,0,L|305:167,1,41.2500015735627,0|0,0:0|0:0,0:0:0:0:
378,12,72008,2,0,L|374:95,1,82.5000031471254,2|0,0:0|0:0,0:0:0:0:
444,137,72486,1,0,0:0:0:0:
289,44,72646,54,0,P|264:49|244:59,1,41.2500015735627,2|0,0:2|0:0,0:0:0:0:
173,24,72965,2,0,P|167:55|169:77,1,41.2500015735627,2|0,0:2|0:0,0:0:0:0:
38,79,73284,2,0,P|53:102|67:116,1,41.2500015735627,2|0,0:2|0:0,0:0:0:0:
12,334,73603,2,0,P|32:326|53:313,1,41.2500015735627,2|0,0:2|0:0,0:0:0:0:
94,247,73922,6,0,L|91:199,2,41.2500015735627,4|0|0,0:3|0:0|0:0,0:0:0:0:
276,322,74561,2,0,P|319:330|360:369,1,82.5000031471254,2|0,0:2|0:0,0:0:0:0:
428,329,75040,1,0,0:0:0:0:
512,218,75199,54,0,P|506:197|508:171,1,41.2500015735627,2|0,0:2|0:0,0:0:0:0:
458,111,75518,2,0,P|478:129|494:199,1,82.5000031471254,2|0,0:2|0:0,0:0:0:0:
406,347,75997,1,2,0:2:0:0:
432,234,76157,6,0,P|417:247|407:265,1,41.2500015735627,2|0,0:0|0:0,0:0:0:0:
485,292,76476,1,0,0:0:0:0:
437,224,76635,2,0,P|406:240|389:255,1,41.2500015735627,2|0,0:0|0:0,0:0:0:0:
264,336,77114,53,2,0:2:0:0:
103,297,77433,2,0,L|101:255,1,41.2500015735627,0|0,0:0|0:0,0:0:0:0:
0,187,77752,6,0,L|38:202,1,41.2500015735627,2|0,0:2|0:0,0:0:0:0:
179,328,78071,2,0,L|219:322,1,41.2500015735627,2|0,0:2|0:0,0:0:0:0:
305,312,78391,1,4,0:3:0:0:
305,312,78550,1,4,0:3:0:0:
465,212,78710,54,0,P|466:232|462:253,1,41.2500015735627,2|0,0:2|0:0,0:0:0:0:
389,294,79029,2,0,L|225:287,2,165.000006294251,2|2|2,0:2|0:3|0:2,0:0:0:0:
432,223,80465,1,0,0:0:0:0:
412,142,80625,1,0,0:0:0:0:
279,43,80944,6,0,P|294:90|209:107,1,144.375005507469,2|0,0:2|0:0,0:0:0:0:
205,102,81582,54,0,P|195:144|191:195,1,82.5000031471254,2|0,0:2|0:0,0:0:0:0:
45,260,82220,2,0,P|55:300|72:352,1,82.5000031471254,2|0,0:2|0:0,0:0:0:0:
197,94,82859,6,0,P|189:112|183:132,1,41.2500015735627,2|0,0:2|0:0,0:0:0:0:
105,157,83178,2,0,P|106:193|110:213,2,41.2500015735627,2|0|0,0:2|0:0|0:0,0:0:0:0:
117,75,83657,1,0,0:0:0:0:
326,81,83816,2,0,P|299:97|277:118,1,61.875002360344,2|0,0:2|0:0,0:0:0:0:
272,129,84135,54,0,P|294:148|309:167,1,41.2500015735627,4|0,0:3|0:0,0:0:0:0:
384,159,84454,2,0,P|385:191|380:239,1,61.875002360344,2|0,0:2|0:0,0:0:0:0:
382,232,84774,2,0,L|336:235,1,41.2500015735627,2|0,0:0|0:0,0:0:0:0:
300,306,85093,1,0,0:0:0:0:
329,382,85252,1,0,0:0:0:0:
459,252,85412,6,0,P|420:243|362:248,1,82.5000031471254,2|0,0:2|0:0,0:0:0:0:
319,185,85891,2,0,P|310:151|321:95,1,82.5000031471254,2|0,0:2|0:0,0:0:0:0:
428,105,86369,2,0,P|413:119|394:127,1,41.2500015735627,2|0,0:2|0:0,0:0:0:0:
248,58,86688,54,0,L|199:59,1,41.2500015735627,0|4,0:0|0:3,0:0:0:0:
142,111,87008,2,0,L|68:121,1,61.875002360344,0|0,0:0|0:0,0:0:0:0:
69,122,87327,2,0,P|77:166|69:216,1,82.5000031471254,2|0,0:0|0:0,0:0:0:0:
32,274,87805,1,0,0:0:0:0:
138,373,87965,6,0,B|108:364|108:364|105:313,1,82.5000031471254,2|2,0:2|0:2,0:0:0:0:
241,220,88603,1,2,0:2:0:0:
396,273,88922,1,2,0:2:0:0:
396,273,89082,1,0,0:0:0:0:
460,221,89242,54,0,P|464:195|460:173,2,41.2500015735627,4|0|0,0:3|0:0|0:0,0:0:0:0:
323,313,89880,2,0,P|284:304|233:303,1,82.5000031471254,2|0,0:0|0:0,0:0:0:0:
162,325,90359,1,0,0:0:0:0:
103,228,90518,6,0,L|100:270,1,41.2500015735627,2|0,0:2|0:0,0:0:0:0:
34,100,90837,2,0,L|34:183,1,82.5000031471254,2|0,0:2|0:0,0:0:0:0:
39,369,91316,1,2,0:2:0:0:
97,310,91476,54,0,P|132:309|154:313,1,41.2500015735627,2|0,0:0|0:0,0:0:0:0:
213,343,91795,1,0,0:0:0:0:
92,302,91954,2,0,P|116:293|148:291,1,41.2500015735627,2|0,0:0|0:0,0:0:0:0:
311,353,92433,6,0,P|296:313|294:262,1,82.5000031471254,2|0,0:2|0:0,0:0:0:0:
317,194,92912,1,0,0:0:0:0:
438,176,93071,54,0,L|398:182,1,41.2500015735627,2|0,0:2|0:0,0:0:0:0:
236,206,93391,2,0,L|182:213,1,41.2500015735627,2|0,0:2|0:0,0:0:0:0:
122,170,93710,1,4,0:3:0:0:
122,170,93869,1,4,0:3:0:0:
215,18,94029,6,0,P|215:41|208:73,1,41.2500015735627,2|0,0:2|0:0,0:0:0:0:
52,82,94348,2,0,P|92:75|133:84,1,82.5000031471254,2|0,0:2|0:0,0:0:0:0:
129,93,94986,2,0,P|155:116|171:169,1,82.5000031471254,2|0,0:2|0:0,0:0:0:0:
165,167,95625,53,2,0:2:0:0:
245,182,95784,1,0,0:0:0:0:
301,242,95944,1,0,0:0:0:0:
302,252,96263,6,0,P|333:250|360:247,1,41.2500015735627,2|0,0:2|0:0,0:0:0:0:
350,254,96901,54,0,P|351:283|305:332,1,82.5000031471254,2|0,0:2|0:0,0:0:0:0:
307,326,97540,2,0,P|267:323|230:291,1,82.5000031471254,2|0,0:2|0:0,0:0:0:0:
231,215,98018,1,0,0:0:0:0:
272,55,98178,6,0,P|269:75|260:94,1,41.2500015735627,2|0,0:2|0:0,0:0:0:0:
193,141,98497,2,0,P|172:145|152:145,1,41.2500015735627,2|0,0:2|0:0,0:0:0:0:
280,44,98816,2,0,P|280:72|291:132,1,82.5000031471254,2|0,0:2|0:0,0:0:0:0:
360,167,99295,1,0,0:0:0:0:
480,174,99454,54,0,L|440:181,1,41.2500015735627,4|2,0:3|0:2,0:0:0:0:
392,249,99774,2,0,L|298:273,1,82.5000031471254,2|2,0:2|0:0,0:0:0:0:
127,221,100412,1,0,0:0:0:0:
202,253,100571,1,0,0:0:0:0:
266,201,100731,6,0,P|270:175|264:106,1,82.5000031471254,2|0,0:2|0:0,0:0:0:0:
231,44,101210,2,0,P|189:62|173:101,1,82.5000031471254,2|0,0:2|0:0,0:0:0:0:
356,134,101688,2,0,L|401:128,1,41.2500015735627,2|0,0:2|0:0,0:0:0:0:
479,117,102008,53,0,0:0:0:0:
479,117,102167,1,4,0:3:0:0:
427,52,102327,2,0,P|425:24|455:-4,1,61.875002360344,0|0,0:0|0:0,0:0:0:0:
456,4,102646,2,0,L|362:10,1,82.5000031471254,2|0,0:0|0:0,0:0:0:0:
308,59,103125,1,0,0:0:0:0:
221,33,103284,6,0,P|225:53|227:74,1,41.2500015735627,2|0,0:2|0:0,0:0:0:0:
144,67,103603,2,0,P|138:94|127:118,1,41.2500015735627,2|0,0:2|0:0,0:0:0:0:
281,135,103922,54,0,P|283:155|289:175,1,41.2500015735627,2|0,0:2|0:0,0:0:0:0:
363,138,104242,2,0,P|375:154|391:167,1,41.2500015735627,2|0,0:2|0:0,0:0:0:0:
336,243,104561,6,0,L|338:284,1,41.2500015735627,4|0,0:3|0:0,0:0:0:0:
252,247,104880,2,0,L|258:164,1,82.5000031471254,0|2,0:0|0:2,0:0:0:0:
253,162,105518,2,0,L|251:121,1,41.2500015735627,0|0,0:0|0:0,0:0:0:0:
338,70,105837,54,0,P|338:91|333:110,1,41.2500015735627,2|0,0:2|0:0,0:0:0:0:
169,132,106157,2,0,P|155:93|161:53,1,82.5000031471254,2|0,0:2|0:0,0:0:0:0:
335,128,106635,2,0,P|302:160|252:175,1,82.5000031471254,2|0,0:2|0:0,0:0:0:0:
256,19,107114,6,0,L|251:194,1,165.000006294251,2|2,0:2|0:2,0:0:0:0:
264,189,108071,2,0,L|269:234,1,41.2500015735627,0|0,0:0|0:0,0:0:0:0:
210,289,108391,53,2,0:2:0:0:
210,289,108550,1,0,0:0:0:0:
350,213,108710,2,0,L|359:123,1,82.5000031471254,2|0,0:2|0:0,0:0:0:0:
368,49,109188,1,4,0:3:0:0:
444,147,109348,5,2,0:2:0:0:
444,147,109508,1,0,0:0:0:0:
269,175,109667,1,2,0:0:0:0:
266,186,110305,53,2,0:2:0:0:
265,195,110944,5,2,0:2:0:0:
163,255,111103,1,0,0:0:0:0:
46,235,111263,1,0,0:0:0:0:
36,227,111582,54,0,L|28:275,1,41.2500015735627,2|0,0:2|0:0,0:0:0:0:
20,279,112220,6,0,P|50:302|71:345,1,82.5000031471254,2|0,0:2|0:0,0:0:0:0:
79,351,112859,2,0,P|94:325|108:271,1,82.5000031471254,2|0,0:2|0:0,0:0:0:0:
86,195,113337,1,0,0:0:0:0:
178,125,113497,54,0,L|137:130,1,41.2500015735627,2|0,0:2|0:0,0:0:0:0:
271,214,113816,2,0,L|210:207,1,61.875002360344,0|0,0:0|0:0,0:0:0:0:
196,205,114135,2,0,P|186:222|179:242,1,41.2500015735627,2|0,0:2|0:0,0:0:0:0:
330,308,114454,2,0,L|292:294,1,41.2500015735627,2|0,0:2|0:0,0:0:0:0:
433,219,114774,54,0,B|439:209|439:209|435:188,1,32.99999899292,2|0,1:0|0:0,0:0:0:0:
412,108,115252,5,0,0:0:0:0:
490,0,115412,2,0,L|487:61,1,61.875002360344,2|0,0:0|0:0,0:0:0:0:
487,73,115731,5,2,0:2:0:0:
417,118,115891,1,2,0:2:0:0:
397,277,116050,54,0,P|390:237|391:196,1,82.5000031471254,2|0,0:2|0:0,0:0:0:0:
468,336,116529,2,0,P|426:295|400:227,1,123.750004720688,2|0,0:2|0:0,0:0:0:0:
500,98,117167,2,0,P|506:159|483:215,1,123.750004720688,2|0,0:2|0:0,0:0:0:0:
423,158,117805,5,0,0:0:0:0:
322,230,117965,2,0,P|298:234|279:233,2,41.2500015735627,2|0|0,0:0|0:0|0:0,0:0:0:0:
399,317,118444,54,0,P|411:278|404:238,1,82.5000031471254,2|0,0:2|0:0,0:0:0:0:
343,121,118922,6,0,P|338:90|342:59,1,61.875002360344,2|0,0:2|0:0,0:0:0:0:
355,31,119242,53,2,0:2:0:0:
416,157,119401,1,2,0:2:0:0:
329,271,119561,2,0,L|288:265,1,41.2500015735627,2|0,0:2|0:0,0:0:0:0:
228,355,119880,6,0,L|289:350,1,61.875002360344
306,348,120199,2,0,P|325:358|340:372,1,41.2500015735627,0|0,1:0|0:0,0:0:0:0:
409,250,120518,2,0,P|411:226|409:203,1,41.2500015735627,2|0,0:0|0:0,0:0:0:0:
367,137,120837,53,2,0:2:0:0:
444,107,120997,1,2,0:2:0:0:
467,27,121157,2,0,L|464:68,1,41.2500015735627,2|0,0:2|0:0,0:0:0:0:
375,2,121476,2,0,L|381:43,1,41.2500015735627,2|0,0:2|0:0,0:0:0:0:
328,107,121795,5,2,0:2:0:0:
262,156,121954,1,2,0:2:0:0:
179,147,122114,2,0,P|169:122|169:94,1,41.2500015735627,2|0,0:2|0:0,0:0:0:0:
257,7,122433,54,0,P|231:23|201:29,1,61.875002360344,0|0,0:0|0:0,0:0:0:0:
188,27,122752,2,0,P|167:24|146:26,1,41.2500015735627,0|0,1:0|0:0,0:0:0:0:
57,149,123071,2,0,P|59:108|78:71,1,82.5000031471254,2|0,0:0|0:0,0:0:0:0:
198,38,123550,6,0,L|292:50,1,82.5000031471254,2|0,0:2|0:0,0:0:0:0:
353,11,124029,54,0,P|367:34|373:51,1,41.2500015735627,2|0,0:2|0:0,0:0:0:0:
267,170,124348,2,0,P|274:151|275:131,1,41.2500015735627,2|0,0:2|0:0,0:0:0:0:
193,32,124667,6,0,L|272:36,1,61.875002360344,2|0,0:2|0:0,0:0:0:0:
266,48,124986,54,0,P|236:58|213:73,1,55,0|0,0:0|0:0,0:0:0:0:
175,133,125465,1,0,0:0:0:0:
107,100,125625,2,0,P|119:120|144:144,1,55,2|0,3:2|0:0,0:0:0:0:
162,213,126103,6,0,P|160:230|146:276,2,55,0|0|0,0:0|0:0|0:0,0:0:0:0:
230,184,126901,2,0,P|241:206|248:246,1,55,2|0,3:2|0:0,0:0:0:0:
241,309,127380,1,0,0:0:0:0:
298,355,127540,54,0,L|352:350,1,55,0|0,0:0|0:0,0:0:0:0:
426,344,128018,1,0,0:0:0:0:
499,330,128178,2,0,L|436:326,1,55,2|0,3:2|0:0,0:0:0:0:
402,264,128657,2,0,P|398:244|400:204,1,55,0|0,0:0|0:0,0:0:0:0:
472,218,129135,5,2,0:0:0:0:
325,239,129454,1,2,0:0:0:0:
185,186,129774,1,2,0:0:0:0:
203,220,140625,54,0,L|206:256,1,27.5,0|0,0:0|0:0,0:0:0:0:
222,319,140944,2,0,L|221:233,1,82.5,2|0,0:0|0:0,0:0:0:0:
271,181,141582,6,0,P|269:166|270:149,1,27.5,0|2,0:0|0:0,0:0:0:0:
342,169,141901,2,0,P|345:154|353:137,1,27.5,0|2,0:0|0:0,0:0:0:0:
349,142,142859,54,0,P|361:176|361:204,1,55,0|0,0:0|0:0,0:0:0:0:
425,232,143337,1,0,0:0:0:0:
406,304,143497,2,0,P|416:283|442:249,1,55,2|0,0:0|0:0,0:0:0:0:
434,257,145412,54,0,B|414:260|414:260|405:269,1,32.99999899292,2|0,1:0|0:0,0:0:0:0:
342,216,145890,5,0,0:0:0:0:
471,140,146050,2,0,P|470:160|467:181,1,41.2500015735627,2|0,0:0|0:0,0:0:0:0:
422,72,146369,5,2,0:2:0:0:
389,148,146529,1,2,0:2:0:0:
454,262,146688,2,0,P|456:296|436:346,1,82.5000031471254,0|0,0:2|0:0,0:0:0:0:
361,313,147167,1,2,0:2:0:0:
238,310,147327,2,0,P|254:273|292:264,1,82.5000031471254,2|0,0:2|0:0,0:0:0:0:
214,117,147805,54,0,P|209:145|217:201,1,82.5000031471254,2|0,0:2|0:0,0:0:0:0:
293,170,148284,2,0,L|343:167,1,41.2500015735627,0|0,1:0|0:0,0:0:0:0:
498,157,148603,2,0,L|416:162,1,82.5000031471254,2|0,0:0|0:0,0:0:0:0:
373,91,149082,1,2,0:2:0:0:
405,15,149242,5,0,0:0:0:0:
405,15,149401,1,0,0:0:0:0:
292,110,149561,2,0,P|293:141|305:170,1,61.875002360344,2|0,0:2|0:0,0:0:0:0:
317,182,149880,53,2,0:2:0:0:
373,98,150039,1,2,0:2:0:0:
300,28,150199,2,0,L|249:30,1,41.2500015735627,2|0,0:2|0:0,0:0:0:0:
482,55,150518,54,0,B|463:61|463:61|457:71,1,24.74999924469,2|0,1:0|0:0,0:0:0:0:
448,54,150837,6,0,L|452:95,1,41.2500015735627,0|0,1:0|0:0,0:0:0:0:
284,12,151157,2,0,L|346:18,1,61.875002360344,2|0,0:0|0:0,0:0:0:0:
371,20,151476,5,2,0:2:0:0:
365,102,151635,1,2,0:2:0:0:
359,184,151795,2,0,L|356:225,1,41.2500015735627,2|0,0:2|0:0,0:0:0:0:
278,112,152114,2,0,L|281:154,1,41.2500015735627,2|0,0:2|0:0,0:0:0:0:
263,341,152433,53,2,0:2:0:0:
275,260,152592,1,2,0:2:0:0:
215,204,152752,2,0,L|159:200,1,41.2500015735627,2|0,0:2|0:0,0:0:0:0:
23,238,153071,6,0,L|85:234,1,61.875002360344,0|0,0:0|0:0,0:0:0:0:
97,233,153391,54,0,P|103:252|106:272,1,41.2500015735627,0|0,1:0|0:0,0:0:0:0:
41,96,153710,2,0,P|76:118|103:150,1,82.5000031471254,2|0,0:0|0:0,0:0:0:0:
178,22,154188,6,0,L|172:105,1,82.5000031471254,2|0,0:2|0:0,0:0:0:0:
254,111,154667,54,0,L|259:151,1,41.2500015735627,2|0,0:2|0:0,0:0:0:0:
311,51,154986,2,0,P|325:67|333:86,1,41.2500015735627,2|0,0:2|0:0,0:0:0:0:
193,8,155305,6,0,L|182:69,1,61.875002360344,2|0,0:2|0:0,0:0:0:0:
179,84,155625,54,0,L|125:94,1,55,0|0,0:0|0:0,0:0:0:0:
57,64,156103,1,0,0:0:0:0:
110,166,156263,2,0,L|104:229,1,55,2|0,3:2|0:0,0:0:0:0:
52,273,156742,6,0,P|45:311|49:334,2,55,0|0|0,0:0|0:0|0:0,0:0:0:0:
117,308,157540,2,0,P|144:286|172:279,1,55,2|0,3:2|0:0,0:0:0:0:
236,285,158018,1,0,0:0:0:0:
288,232,158178,54,0,L|284:176,1,55,0|0,0:0|0:0,0:0:0:0:
341,130,158657,1,0,0:0:0:0:
363,59,158816,2,0,L|359:124,1,55,2|0,3:2|0:0,0:0:0:0:
401,175,159295,2,0,L|405:234,1,55,0|0,0:0|0:0,0:0:0:0:
414,303,159774,5,2,0:2:0:0:
393,156,160093,1,2,0:2:0:0:
372,9,160412,1,2,0:2:0:0:
380,4,160731,53,4,0:3:0:0:
390,86,160891,1,2,0:2:0:0:
400,167,161050,2,0,L|395:241,1,61.875002360344,2|0,0:2|0:0,0:0:0:0:
407,242,161369,2,0,P|368:249|341:279,1,82.5000031471254,2|0,0:0|0:0,0:0:0:0:
356,361,161848,1,0,0:0:0:0:
264,250,162008,6,0,P|264:221|280:161,1,82.5000031471254,2|0,0:2|0:0,0:0:0:0:
290,69,162486,2,0,P|251:81|219:108,1,82.5000031471254,2|0,0:2|0:0,0:0:0:0:
161,166,162965,2,0,P|140:137|137:117,1,41.2500015735627,2|0,0:2|0:0,0:0:0:0:
132,49,163284,53,0,0:0:0:0:
132,49,163444,1,4,0:3:0:0:
60,7,163603,2,0,P|92:22|123:76,1,82.5000031471254,0|2,0:0|0:0,0:0:0:0:
111,224,164242,2,0,L|107:278,1,41.2500015735627,0|0,0:0|0:0,0:0:0:0:
39,312,164561,6,0,P|53:329|76:340,1,41.2500015735627,2|0,0:2|0:0,0:0:0:0:
152,332,164880,2,0,L|210:323,1,41.2500015735627,2|0,0:2|0:0,0:0:0:0:
420,321,165199,54,0,P|403:310|384:303,1,41.2500015735627,2|0,0:2|0:0,0:0:0:0:
303,287,165518,2,0,L|263:282,1,41.2500015735627
169,248,165837,5,0,0:0:0:0:
157,166,165997,1,0,0:0:0:0:
242,124,166157,2,0,P|249:164|238:203,1,82.5000031471254,0|2,0:0|0:0,0:0:0:0:
375,295,166795,1,0,0:0:0:0:
333,224,166954,1,0,0:0:0:0:
368,149,167114,54,0,L|420:155,1,41.2500015735627,2|0,0:2|0:0,0:0:0:0:
435,74,167433,2,0,L|512:103,1,82.5000031471254,2|0,0:2|0:0,0:0:0:0:
512,14,167912,1,2,0:2:0:0:
364,30,168071,6,0,P|353:56|354:82,1,41.2500015735627,2|0,0:0|0:0,0:0:0:0:
375,148,168391,1,0,0:0:0:0:
345,30,168550,2,0,P|343:50|345:71,1,41.2500015735627,2|0,0:0|0:0,0:0:0:0:
338,73,169029,2,0,P|320:37|329:-5,1,82.5000031471254,2|0,0:2|0:0,0:0:0:0:
409,12,169508,1,0,0:0:0:0:
469,124,169667,54,0,L|466:168,1,41.2500015735627,2|0,0:2|0:0,0:0:0:0:
457,328,169986,2,0,L|455:370,1,41.2500015735627,2|0,0:2|0:0,0:0:0:0:
462,247,170304,1,4,0:3:0:0:
462,247,170464,1,4,0:3:0:0:
391,203,170625,5,2,0:2:0:0:
327,255,170784,1,0,0:0:0:0:
168,242,170944,53,2,0:0:0:0:
166,233,171582,1,2,0:2:0:0:
165,222,172220,5,2,0:2:0:0:
201,125,172380,1,0,0:0:0:0:
128,52,172540,1,0,0:0:0:0:
120,44,172859,54,0,L|62:51,1,41.2500015735627,2|0,0:2|0:0,0:0:0:0:
71,55,173497,6,0,P|64:81|88:132,1,82.5000031471254,2|0,0:2|0:0,0:0:0:0:
95,135,174135,2,0,P|99:176|82:213,1,82.5000031471254,2|0,0:2|0:0,0:0:0:0:
18,161,174614,1,0,0:0:0:0:
155,253,174774,54,0,L|206:249,1,41.2500015735627,2|0,0:2|0:0,0:0:0:0:
223,171,175093,2,0,L|267:176,1,41.2500015735627,2|0,0:2|0:0,0:0:0:0:
498,185,175412,2,0,B|484:204|484:204|426:199,1,82.5000031471254,2|0,0:2|0:0,0:0:0:0:
345,188,175890,1,0,0:0:0:0:
317,110,176050,6,0,L|322:69,1,41.2500015735627,4|0,0:3|0:0,0:0:0:0:
376,264,176369,2,0,L|367:351,1,82.5000031471254,2|2,0:2|0:0,0:0:0:0:
359,354,177008,2,0,L|303:366,1,41.2500015735627,0|0,0:0|0:0,0:0:0:0:
247,319,177327,54,0,P|206:319|171:298,1,82.5000031471254,2|0,0:2|0:0,0:0:0:0:
229,161,177805,2,0,P|235:202|231:243,1,82.5000031471254,2|0,0:2|0:0,0:0:0:0:
102,344,178284,2,0,P|75:345|47:336,1,41.2500015735627,2|0,0:2|0:0,0:0:0:0:
13,274,178603,5,0,0:0:0:0:
13,274,178763,1,4,0:3:0:0:
86,237,178922,2,0,P|101:203|83:147,1,82.5000031471254,0|2,0:0|0:0,0:0:0:0:
189,13,179561,1,0,0:0:0:0:
159,89,179720,1,0,0:0:0:0:
207,155,179880,54,0,L|261:149,1,41.2500015735627,2|0,0:2|0:0,0:0:0:0:
303,235,180199,2,0,L|261:232,1,41.2500015735627,2|0,0:2|0:0,0:0:0:0:
200,149,180518,2,0,L|254:143,1,41.2500015735627,2|0,0:2|0:0,0:0:0:0:
309,241,180837,1,2,0:2:0:0:
276,317,180997,1,0,0:0:0:0:
342,365,181157,6,0,P|356:340|356:311,1,41.2500015735627,4|0,0:3|0:0,0:0:0:0:
228,249,181476,1,0,0:0:0:0:
230,241,181795,2,0,L|145:254,1,82.5000031471254,2|0,0:0|0:0,0:0:0:0:
76,213,182274,1,0,0:0:0:0:
104,138,182433,53,2,0:2:0:0:
104,138,182593,1,0,0:0:0:0:
184,22,182752,2,0,L|179:105,1,82.5000031471254,2|0,0:2|0:0,0:0:0:0:
172,186,183231,1,2,0:2:0:0:
231,243,183391,6,0,P|236:265|234:286,1,41.2500015735627,2|0,0:0|0:0,0:0:0:0:
183,348,183710,1,0,0:0:0:0:
248,251,183869,2,0,P|247:271|243:292,1,41.2500015735627,2|0,0:0|0:0,0:0:0:0:
67,70,184348,54,0,B|79:78|79:78|81:106|75:145,1,82.5000031471254,2|0,0:2|0:0,0:0:0:0:
0,181,184827,1,0,0:0:0:0:
118,217,184986,6,0,L|159:213,1,41.2500015735627,2|0,0:2|0:0,0:0:0:0:
43,250,185305,2,0,L|51:302,1,41.2500015735627,2|0,0:2|0:0,0:0:0:0:
70,371,185625,1,4,0:3:0:0:
70,371,185784,1,4,0:3:0:0:
113,214,185944,2,0,L|114:163,1,41.2500015735627,2|0,0:2|0:0,0:0:0:0:
79,39,186263,53,2,0:0:0:0:
86,46,186901,1,2,0:2:0:0:
94,55,187540,5,2,0:2:0:0:
204,65,187699,1,0,0:0:0:0:
314,75,187859,1,0,0:0:0:0:
322,79,188178,54,0,L|327:132,1,41.2500015735627,2|0,0:2|0:0,0:0:0:0:
332,129,188816,6,0,P|365:117|351:5,1,165.000006294251,2|2,0:2|0:2,0:0:0:0:
371,0,190093,54,0,P|365:20|360:40,1,41.2500015735627,2|0,0:2|0:0,0:0:0:0:
350,122,190412,2,0,P|351:154|354:179,1,41.2500015735627,2|0,0:2|0:0,0:0:0:0:
498,84,190731,2,0,P|462:98|438:68,1,82.5000031471254,2|0,0:2|0:0,0:0:0:0:
490,3,191210,1,0,0:0:0:0:
451,182,191369,6,0,L|454:228,1,41.2500015735627,4|2,0:3|0:2,0:0:0:0:
425,300,191688,2,0,L|445:202,1,82.5000031471254,2|2,0:2|0:0,0:0:0:0:
437,211,192327,2,0,L|390:214,1,41.2500015735627,0|0,0:0|0:0,0:0:0:0:
350,355,192646,54,0,P|336:316|341:276,1,82.5000031471254,2|0,0:2|0:0,0:0:0:0:
287,125,193125,2,0,P|313:156|315:197,1,82.5000031471254,2|0,0:2|0:0,0:0:0:0:
163,221,193603,1,2,0:2:0:0:
244,240,193763,1,4,0:3:0:0:
362,305,193922,6,0,L|358:349,1,41.2500015735627,0|4,0:0|0:3,0:0:0:0:
457,290,194242,2,0,L|437:371,1,82.5000031471254,0|2,0:0|0:0,0:0:0:0:
441,381,194880,2,0,L|459:336,1,41.2500015735627,0|0,0:0|0:0,0:0:0:0:
486,214,195199,54,0,P|463:199|439:192,1,41.2500015735627,2|0,0:2|0:0,0:0:0:0:
458,112,195518,2,0,P|420:118|403:128,1,41.2500015735627,2|0,0:2|0:0,0:0:0:0:
276,35,195837,2,0,P|267:53|263:74,1,41.2500015735627,2|0,0:2|0:0,0:0:0:0:
374,50,196157,2,0,P|358:63|345:79,1,41.2500015735627,2|0,0:2|0:0,0:0:0:0:
328,160,196476,5,4,0:3:0:0:
358,236,196635,1,2,0:2:0:0:
249,321,196795,2,0,L|332:314,1,82.5000031471254,2|2,0:2|0:0,0:0:0:0:
335,326,197433,2,0,L|380:329,1,41.2500015735627,0|0,0:0|0:0,0:0:0:0:
456,255,197752,54,0,P|455:275|451:295,1,41.2500015735627,2|0,0:2|0:0,0:0:0:0:
410,155,198071,2,0,P|397:193|372:226,1,82.5000031471254,2|0,0:2|0:0,0:0:0:0:
396,73,198550,1,2,0:2:0:0:
512,95,198710,6,0,L|471:102,1,41.2500015735627,2|0,0:0|0:0,0:0:0:0:
330,123,199029,1,0,0:0:0:0:
512,83,199188,2,0,L|472:91,1,41.2500015735627,2|0,0:0|0:0,0:0:0:0:
471,102,199667,54,0,P|441:73|433:34,1,82.5000031471254,2|0,0:2|0:0,0:0:0:0:
357,2,200146,1,0,0:0:0:0:
399,158,200305,6,0,P|393:182|383:206,1,41.2500015735627,2|0,0:2|0:0,0:0:0:0:
458,239,200625,2,0,P|440:267|422:283,1,41.2500015735627,2|0,0:2|0:0,0:0:0:0:
354,290,200944,1,4,0:3:0:0:
354,290,201103,1,4,0:3:0:0:
480,342,201263,2,0,P|462:351|441:357,1,41.2500015735627,2|0,0:2|0:0,0:0:0:0:
287,232,201582,53,2,0:0:0:0:
288,225,202220,5,2,0:2:0:0:
289,218,202859,53,2,0:2:0:0:
278,120,203018,1,0,0:0:0:0:
267,22,203178,1,0,0:0:0:0:
273,20,203497,6,0,P|303:24|319:30,1,41.2500015735627,2|0,0:2|0:0,0:0:0:0:
323,33,204135,54,0,P|356:28|409:5,1,82.5000031471254,2|0,0:2|0:0,0:0:0:0:
408,3,204774,2,0,P|419:42|424:83,1,82.5000031471254,2|0,0:2|0:0,0:0:0:0:
412,164,205252,1,0,0:0:0:0:
364,231,205412,6,0,P|359:254|357:281,1,41.2500015735627,2|0,0:2|0:0,0:0:0:0:
412,164,205731,37,0,1:0:0:0:
412,164,205891,1,0,1:0:0:0:
424,83,206050,2,0,P|419:42|408:3,1,82.5000031471254,0|0,1:0|1:0,1:0:0:0:
419,6,206688,38,2,B|448:35|394:46|356:24|356:24|339:49|350:102,1,165.000006294251,4|0,0:3|0:0,0:0:0:0:
395,156,207167,5,4,0:3:0:0:
504,181,207327,2,0,L|472:183,1,32.99999899292,2|0,0:3|0:0,0:0:0:0:
411,238,207805,1,0,0:0:0:0:
340,280,207965,6,0,L|323:279,1,16.49999949646,0|4,0:0|0:3,0:0:0:0:
240,277,208284,2,0,L|230:258,1,16.49999949646,0|4,0:0|0:3,0:0:0:0:
363,232,208603,2,0,L|359:266,1,32.99999899292,2|0,0:3|0:0,0:0:0:0:
409,330,209082,1,0,0:0:0:0:
441,196,209242,54,0,P|450:173|450:161,1,32.99999899292,4|0,0:3|0:0,0:0:0:0:
377,126,209720,1,4,0:3:0:0:
476,214,209880,2,0,L|471:236,1,16.49999949646,2|0,0:3|0:0,0:0:0:0:
392,250,210199,1,0,0:0:0:0:
392,270,210359,1,0,0:0:0:0:
327,321,210518,6,0,L|337:336,1,16.49999949646,0|4,0:0|0:3,0:0:0:0:
417,350,210837,2,0,L|436:346,1,16.49999949646,0|4,0:0|0:3,0:0:0:0:
304,334,211157,2,0,L|306:300,1,32.99999899292,2|0,0:3|0:0,0:0:0:0:
312,219,211635,1,0,0:0:0:0:
354,67,211795,38,2,B|391:73|361:107|313:71|251:155,1,165.000006294251,4|0,0:3|0:0,0:0:0:0:
172,181,212274,5,4,0:3:0:0:
127,111,212433,2,0,L|146:100,2,16.49999949646,2|0|0,0:3|0:0|0:0,0:0:0:0:
75,177,212912,1,0,0:0:0:0:
17,118,213071,6,0,L|18:97,1,16.49999949646,0|4,0:0|0:3,0:0:0:0:
82,49,213391,2,0,L|99:34,1,16.49999949646,0|4,0:0|0:3,0:0:0:0:
94,186,213710,2,0,P|78:201|76:216,1,32.99999899292,2|0,0:3|0:0,0:0:0:0:
123,278,214188,1,0,0:0:0:0:
31,340,214348,54,0,L|54:341,1,16.49999949646,4|0,0:3|0:0,0:0:0:0:
127,361,214667,1,0,0:0:0:0:
139,359,214827,1,4,0:3:0:0:
37,295,214986,2,0,P|27:313|27:331,1,32.99999899292,2|0,0:3|0:0,0:0:0:0:
108,336,215465,1,0,0:0:0:0:
158,254,215625,6,0,L|159:271,1,16.49999949646,0|4,0:0|0:3,0:0:0:0:
241,265,215944,2,0,L|245:249,1,16.49999949646,0|4,0:0|0:3,0:0:0:0:
339,323,216263,2,0,L|313:304,1,32.99999899292,2|0,0:3|0:0,0:0:0:0:
329,222,216742,1,0,0:0:0:0:
386,129,216901,53,0,0:0:0:0:
386,129,217380,1,0,0:0:0:0:
386,129,217540,1,2,0:0:0:0:
386,129,218018,1,0,0:0:0:0:
386,129,218337,1,0,0:0:0:0:
386,129,218657,1,0,0:0:0:0:
386,129,218816,1,2,0:0:0:0:
386,129,219295,1,0,0:0:0:0:
303,115,219454,5,0,0:0:0:0:
303,115,219933,1,0,0:0:0:0:
303,115,220093,1,2,0:0:0:0:
303,115,220571,1,0,0:0:0:0:
303,115,220891,1,0,0:0:0:0:
303,115,221210,1,0,0:0:0:0:
303,115,221369,1,2,0:0:0:0:
303,115,221848,1,0,0:0:0:0:
352,2,222008,38,2,B|350:40|350:40|316:24|286:37|253:23|253:23|237:55,1,165.000006294251,4|0,0:3|0:0,0:0:0:0:
162,74,222486,5,4,0:3:0:0:
54,113,222646,2,0,L|87:110,1,32.99999899292,2|0,0:3|0:0,0:0:0:0:
151,161,223125,1,0,0:0:0:0:
226,128,223284,6,0,L|241:112,1,16.49999949646,0|4,0:0|0:3,0:0:0:0:
264,37,223603,2,0,L|282:49,1,16.49999949646,0|4,0:0|0:3,0:0:0:0:
312,160,223922,2,0,L|297:191,1,32.99999899292,2|0,0:3|0:0,0:0:0:0:
371,227,224401,1,0,0:0:0:0:
425,305,224561,54,0,L|425:289,1,16.49999949646,4|0,0:3|0:0,0:0:0:0:
462,215,224880,1,0,0:0:0:0:
468,204,225040,1,4,0:3:0:0:
454,89,225199,2,0,L|458:122,1,32.99999899292,2|0,0:3|0:0,0:0:0:0:
392,171,225678,1,0,0:0:0:0:
332,77,225837,6,0,P|333:68|336:61,1,16.49999949646,0|4,0:0|0:3,0:0:0:0:
401,9,226157,2,0,P|409:20|409:27,1,16.49999949646,0|4,0:0|0:3,0:0:0:0:
292,94,226476,2,0,P|283:108|282:114,1,16.49999949646,2|0,0:3|0:0,0:0:0:0:
317,183,226795,2,0,L|337:185,1,16.49999949646,0|0,0:0|0:0,0:0:0:0:
475,228,227114,38,2,B|482:210|436:215|422:225|422:225|419:240|419:240|396:255|396:255|382:272|382:272|360:278|342:271,1,165.000006294251,4|2,0:3|0:0,0:0:0:0:
276,318,227593,5,4,0:3:0:0:
198,292,227752,2,0,L|196:271,1,16.49999949646,2|0,0:3|0:0,0:0:0:0:
139,215,228071,1,0,0:0:0:0:
125,222,228231,1,0,0:0:0:0:
52,182,228391,6,0,L|34:181,1,16.49999949646,0|4,0:0|0:3,0:0:0:0:
8,259,228710,2,0,L|18:273,1,16.49999949646,0|4,0:0|0:3,0:0:0:0:
60,148,229029,2,0,P|62:132|52:117,1,32.99999899292,2|0,0:3|0:0,0:0:0:0:
73,38,229508,1,0,0:0:0:0:
185,45,229667,54,0,L|153:54,1,32.99999899292,4|0,0:3|0:0,0:0:0:0:
129,133,230146,1,4,0:3:0:0:
177,227,230305,2,0,P|176:210|182:195,1,32.99999899292,2|0,0:3|0:0,0:0:0:0:
262,174,230784,1,0,0:0:0:0:
325,241,230944,6,0,L|326:225,1,16.49999949646,0|4,0:0|0:3,0:0:0:0:
411,178,231263,2,0,L|400:189,1,16.49999949646,0|4,0:0|0:3,0:0:0:0:
315,289,231582,2,0,L|300:254,1,32.99999899292,2|0,0:3|0:0,0:0:0:0:
226,224,232061,1,0,0:0:0:0:
77,248,232220,53,0,0:0:0:0:
77,248,232699,1,0,0:0:0:0:
77,248,232859,1,2,0:0:0:0:
77,248,233337,1,0,0:0:0:0:
77,248,233657,1,0,0:0:0:0:
77,248,233976,1,0,0:0:0:0:
77,248,234135,1,2,0:0:0:0:
77,248,234614,1,0,0:0:0:0:
156,271,234774,5,0,0:0:0:0:
156,271,235252,1,0,0:0:0:0:
156,271,235412,1,2,0:0:0:0:
156,271,235891,1,0,0:0:0:0:
156,271,236210,1,0,0:0:0:0:
156,271,236529,1,0,0:0:0:0:
156,271,236688,1,2,0:0:0:0:
156,271,237167,1,0,0:0:0:0:
221,214,237327,6,0,P|240:236|249:303,1,82.5000031471254,4|0,0:3|0:0,0:0:0:0:
329,324,237805,1,4,0:3:0:0:
450,237,237965,2,0,L|368:246,1,82.5000031471254,2|0,0:2|0:0,0:0:0:0:
499,124,238444,6,0,P|500:145|499:166,1,41.2500015735627,2|0,0:2|0:0,0:0:0:0:
413,143,238763,2,4,P|409:103|413:62,1,82.5000031471254,2|4,0:2|0:3,0:3:0:0:
491,183,239242,2,0,P|476:207|414:232,1,82.5000031471254,2|0,0:0|0:0,0:0:0:0:
347,258,239720,54,0,P|319:258|265:296,1,82.5000031471254,2|0,0:2|0:0,0:0:0:0:
335,342,240199,2,0,L|334:384,1,41.2500015735627,0|0,1:0|0:0,0:0:0:0:
213,221,240518,2,0,L|211:138,1,82.5000031471254,2|0,0:2|0:0,0:0:0:0:
207,51,240997,1,0,0:0:0:0:
332,31,241157,2,0,L|292:37,1,41.2500015735627,2|4,0:2|0:3,0:0:0:0:
94,26,241476,6,0,P|101:66|131:94,1,82.5000031471254,2|0,0:2|0:0,0:0:0:0:
143,252,241954,2,0,P|149:211|164:173,1,82.5000031471254,2|0,0:2|0:0,0:0:0:0:
31,140,242433,38,0,B|49:142|49:142|60:149,1,24.74999924469,2|0,1:0|0:0,0:0:0:0:
69,155,242752,6,0,L|65:195,1,41.2500015735627,0|0,1:0|0:0,0:0:0:0:
134,11,243071,2,0,L|141:94,1,82.5000031471254,2|0,0:0|0:0,0:0:0:0:
151,180,243550,1,2,0:2:0:0:
194,255,243710,6,0,P|192:283|184:301,1,41.2500015735627,0|4,0:0|0:3,0:0:0:0:
68,250,244029,2,0,P|88:251|109:256,1,41.2500015735627,0|4,0:0|0:3,0:0:0:0:
249,355,244348,2,0,P|273:310|278:268,1,82.5000031471254,2|0,0:0|0:0,0:0:0:0:
262,193,244827,1,0,0:0:0:0:
331,49,244986,54,0,P|316:87|317:114,1,61.875002360344,0|0,0:0|0:0,0:0:0:0:
319,128,245305,2,0,L|368:134,1,41.2500015735627,0|0,1:0|0:0,0:0:0:0:
511,182,245625,2,0,L|428:186,1,82.5000031471254,2|0,0:0|0:0,0:0:0:0:
371,240,246103,1,0,0:0:0:0:
412,316,246263,2,0,P|416:339|413:368,1,41.2500015735627,0|0,0:0|0:0,0:0:0:0:
330,338,246582,6,0,L|284:343,1,41.2500015735627,2|0,0:2|0:0,0:0:0:0:
261,162,246901,2,0,L|223:145,1,41.2500015735627,2|0,0:2|0:0,0:0:0:0:
284,255,247220,2,0,L|243:248,1,41.2500015735627,2|0,0:2|0:0,0:0:0:0:
181,290,247540,54,0,P|149:295|120:312,1,55,0|0,0:0|0:0,0:0:0:0:
93,370,248018,1,0,0:0:0:0:
22,346,248178,2,0,P|12:320|11:288,1,55,2|0,3:2|0:0,0:0:0:0:
38,223,248657,6,0,P|46:188|45:157,2,55,0|0|0,0:0|0:0|0:0,0:0:0:0:
98,265,249454,2,0,P|121:243|134:218,1,55,2|0,3:2|0:0,0:0:0:0:
139,148,249933,1,0,0:0:0:0:
189,72,250093,54,0,P|202:97|209:124,1,55,0|0,0:0|0:0,0:0:0:0:
276,153,250571,1,0,0:0:0:0:
337,195,250731,2,0,P|331:228|316:258,1,55,2|0,3:2|0:0,0:0:0:0:
264,294,251210,2,0,P|293:282|321:278,1,55,0|0,0:0|0:0,0:0:0:0:
387,298,251688,5,2,0:2:0:0:
453,164,252008,1,2,0:2:0:0:
426,18,252327,1,2,0:2:0:0:
488,229,252646,38,0,B|479:239|479:239|454:243,1,32.99999899292,2|0,1:0|0:0,0:0:0:0:
419,304,253125,5,0,0:0:0:0:
254,287,253284,2,0,L|316:292,1,61.875002360344,2|0,0:0|0:0,0:0:0:0:
337,295,253603,5,2,0:2:0:0:
364,216,253763,1,2,0:2:0:0:
285,93,253922,54,0,P|282:134|293:174,1,82.5000031471254,2|0,0:2|0:0,0:0:0:0:
438,232,254401,2,0,P|487:197|511:141,1,123.750004720688,2|0,0:2|0:0,0:0:0:0:
322,24,255040,2,0,P|279:93|286:177,1,165.000006294251,2|0,0:2|0:0,0:0:0:0:
438,206,255837,6,0,L|356:215,1,82.5000031471254,2|0,0:0|0:0,0:0:0:0:
502,154,256316,54,0,P|507:113|496:73,1,82.5000031471254,2|0,0:2|0:0,0:0:0:0:
307,0,256795,6,0,L|303:42,1,41.2500015735627,2|0,0:2|0:0,0:0:0:0:
375,82,257114,53,2,0:2:0:0:
252,107,257274,1,2,0:2:0:0:
203,221,257433,2,0,L|207:278,1,41.2500015735627,2|0,0:2|0:0,0:0:0:0:
325,142,257752,54,0,B|322:158|322:158|317:170,1,24.74999924469,2|0,1:0|0:0,0:0:0:0:
314,172,258071,6,0,P|340:181|360:201,1,41.2500015735627,0|0,1:0|0:0,0:0:0:0:
355,346,258391,2,0,P|340:359|322:369,1,41.2500015735627,2|0,0:0|0:0,0:0:0:0:
378,267,258710,5,2,0:2:0:0:
378,267,258869,1,2,0:2:0:0:
451,304,259029,54,0,L|453:345,1,41.2500015735627,2|0,0:2|0:0,0:0:0:0:
487,186,259348,2,0,L|484:228,1,41.2500015735627,2|0,0:2|0:0,0:0:0:0:
434,29,259667,5,2,0:2:0:0:
459,109,259826,1,2,0:2:0:0:
391,156,259986,2,0,P|368:152|334:145,1,41.2500015735627,2|0,0:2|0:0,0:0:0:0:
402,307,260305,54,0,P|398:276|384:249,1,61.875002360344,0|0,0:0|0:0,0:0:0:0:
369,235,260625,2,0,L|321:240,1,41.2500015735627,0|0,1:0|0:0,0:0:0:0:
471,352,260944,2,0,P|482:321|487:266,1,82.5000031471254,2|0,0:0|0:0,0:0:0:0:
422,95,261422,5,2,0:2:0:0:
476,156,261582,2,0,P|469:176|459:194,1,41.2500015735627,0|0,0:0|0:0,0:0:0:0:
381,165,261901,54,0,L|336:172,1,41.2500015735627,2|0,0:2|0:0,0:0:0:0:
247,340,262220,2,0,L|226:376,1,41.2500015735627,2|0,0:2|0:0,0:0:0:0:
295,240,262540,2,0,L|258:258,1,41.2500015735627,2|0,0:2|0:0,0:0:0:0:
226,135,262859,6,0,P|223:164|229:190,1,55,0|0,0:0|0:0,0:0:0:0:
295,156,263337,1,0,0:0:0:0:
397,161,263497,2,0,P|374:176|356:197,1,55,2|0,3:2|0:0,0:0:0:0:
402,254,263976,54,0,P|425:249|459:252,2,55,0|0|0,0:0|0:0|0:0,0:0:0:0:
355,312,264774,2,0,P|328:318|293:314,1,55,2|0,3:2|0:0,0:0:0:0:
236,280,265252,1,0,0:0:0:0:
252,151,265412,6,0,L|245:206,1,55,0|0,0:0|0:0,0:0:0:0:
176,234,265891,1,0,0:0:0:0:
118,280,266050,2,0,L|121:342,1,55,2|0,3:2|0:0,0:0:0:0:
47,309,266529,2,0,L|44:254,1,55,0|0,0:0|0:0,0:0:0:0:
43,179,267008,54,0,L|42:159,1,13.75,2|0,0:2|0:0,0:0:0:0:
190,166,267327,2,0,L|194:143,1,13.75,2|0,0:2|0:0,0:0:0:0:
321,234,267646,2,0,L|334:213,1,13.75,2|0,0:2|0:0,0:0:0:0:
496,180,267965,54,0,B|488:173|488:173|486:150,1,32.99999899292,2|0,1:0|0:0,0:0:0:0:
475,68,268444,5,0,0:0:0:0:
334,1,268603,2,0,P|372:17|395:43,1,61.875002360344,2|0,0:0|0:0,0:0:0:0:
394,51,268922,5,2,0:2:0:0:
317,83,269082,1,2,0:2:0:0:
189,169,269242,2,0,P|226:151|267:149,1,82.5000031471254,2|0,0:2|0:0,0:0:0:0:
319,319,269720,2,0,P|297:261|246:228,1,123.750004720688,2|0,0:2|0:0,0:0:0:0:
121,355,270359,2,0,P|156:318|205:303,1,103.125003933907,2|0,0:2|0:0,0:0:0:0:
217,305,270837,54,0,P|226:268|226:249,1,41.2500015735627,0|0,1:0|0:0,0:0:0:0:
123,199,271157,2,0,P|137:238|144:279,1,82.5000031471254,2|0,0:0|0:0,0:0:0:0:
113,355,271635,6,0,P|126:335|190:308,1,82.5000031471254,2|0,0:2|0:0,0:0:0:0:
228,244,272114,54,0,L|277:240,1,41.2500015735627,2|0,0:2|0:0,0:0:0:0:
329,184,272433,5,2,0:2:0:0:
305,314,272593,1,2,0:2:0:0:
421,377,272752,2,0,L|470:380,1,41.2500015735627,2|0,0:2|0:0,0:0:0:0:
215,381,273071,38,0,B|220:374|220:374|241:372,1,24.74999924469,2|0,1:0|0:0,0:0:0:0:
247,371,273391,6,0,P|226:344|221:323,1,41.2500015735627,0|0,1:0|0:0,0:0:0:0:
157,226,273710,2,0,P|149:256|145:287,1,61.875002360344,2|0,0:0|0:0,0:0:0:0:
145,307,274029,5,2,0:2:0:0:
65,328,274188,1,2,0:2:0:0:
11,265,274348,2,0,L|15:219,1,41.2500015735627,2|0,0:2|0:0,0:0:0:0:
22,141,274667,2,0,L|26:95,1,41.2500015735627,2|0,0:2|0:0,0:0:0:0:
79,37,274986,53,2,0:2:0:0:
156,64,275146,1,2,0:2:0:0:
223,16,275305,2,0,P|268:50|264:148,1,144.375005507469,2|0,0:2|0:0,0:0:0:0:
268,142,275944,6,0,P|260:164|258:189,1,41.2500015735627,0|0,1:0|0:0,0:0:0:0:
411,150,276263,2,0,P|371:156|338:181,1,82.5000031471254,2|0,0:0|0:0,0:0:0:0:
485,112,276742,54,0,P|454:73|402:44,1,103.125003933907,2|0,0:2|0:0,0:0:0:0:
397,44,277220,6,0,P|374:52|356:65,1,41.2500015735627,2|0,0:2|0:0,0:0:0:0:
189,57,277540,2,0,P|189:78|192:99,1,41.2500015735627,2|0,0:2|0:0,0:0:0:0:
286,23,277859,2,0,P|277:41|272:61,1,41.2500015735627,2|0,0:2|0:0,0:0:0:0:
281,141,278178,53,4,0:2:0:0:
