osu file format v14

[General]
AudioFilename: 54 cymru beats (argonaut mix).mp3
AudioLeadIn: 1544
PreviewTime: 138827
Countdown: 0
SampleSet: Soft
StackLeniency: 0.3
Mode: 0
LetterboxInBreaks: 0
WidescreenStoryboard: 1

[Editor]
Bookmarks: 31883
DistanceSpacing: 0.8
BeatDivisor: 4
GridSize: 4
TimelineZoom: 1.4

[Metadata]
Title:54 cymru beats (argonaut mix)
TitleUnicode:54 cymru beats (argonaut mix)
Artist:Aphex Twin
ArtistUnicode:Aphex Twin
Creator:Static Noise Bird
Version:Eithriadol (2015) WIP
Source:
Tags:drukQs breakcore breakbeat breaks idm afx
BeatmapID:674404
BeatmapSetID:94001

[Difficulty]
HPDrainRate:6
CircleSize:4.4
OverallDifficulty:8
ApproachRate:9.3
SliderMultiplier:1.6
SliderTickRate:1

[Events]
//Background and Video events
0,0,"BG.jpg",0,0
//Break Periods
//Storyboard Layer 0 (Background)
//Storyboard Layer 1 (Fail)
//Storyboard Layer 2 (Pass)
//Storyboard Layer 3 (Foreground)
//Storyboard Sound Samples

[TimingPoints]
89.9306207496037,361.29578313253,4,2,0,40,1,0
17432,-75.0187546886722,4,2,0,40,0,0
31432,-200,4,2,0,25,0,0
31522,-200,4,2,0,5,0,0
31883,-75.187969924812,4,2,0,40,0,0
35496,-200,4,2,0,40,0,0
36219,-75.187969924812,4,2,0,40,0,0
46064,-50,4,2,0,40,0,0
46335,-75.187969924812,4,2,0,40,0,0
74878,-50,4,2,0,40,0,0
75239,-75.187969924812,4,2,0,40,0,0
280455,-66.6666666666667,4,2,0,40,0,0
285874,-60.2409638554217,4,2,0,50,0,0
286236,-66.6666666666667,4,2,0,40,0,0
286597,-60.2409638554217,4,2,0,45,0,0
298158,-55.5555555555556,4,2,0,50,0,0
299875,-50,4,2,0,50,0,0
309359,-50,4,2,0,55,0,0
326340,-75.187969924812,4,2,0,40,0,0

[Colours]
Combo1 : 192,192,192
Combo2 : 118,197,151
Combo3 : 255,128,128
Combo4 : 128,128,255

[HitObjects]
76,176,89,6,0,B|116:176|156:164|156:164|176:128|216:112|216:112|252:120|296:104,1,240
448,132,812,2,0,B|408:132|368:144|368:144|348:180|308:196|308:196|272:188|228:204,1,240
140,336,1535,2,0,B|180:336|220:324|220:324|240:288|280:272|280:272|316:280|360:264,1,240
504,224,2257,2,0,B|464:231|423:227|423:227|396:195|354:187|354:187|320:202|274:195,1,240
152,160,2980,5,4,0:0:0:0:
244,132,3160,2,0,L|280:104,1,40
300,64,3341,1,8,0:0:0:0:
340,152,3522,2,0,B|356:180|344:204|360:228,1,80,2|2,0:0|0:0,0:0:0:0:
260,88,3883,1,8,0:3:0:0:
396,112,4064,1,2,0:0:0:0:
220,192,4244,1,2,0:0:0:0:
44,44,4425,5,8,0:3:0:0:
112,172,4606,2,0,L|132:240,1,40
140,256,4786,2,0,P|164:212|200:192,1,80,8|8,0:0|0:0,0:0:0:0:
212,296,5057,2,0,P|176:332|124:332,1,80,2|2,0:0|0:0,0:0:0:0:
100,336,5328,1,2,0:0:0:0:
32,200,5509,2,0,L|16:132,1,40
68,148,5690,2,0,L|72:104,1,40
120,112,5870,5,8,0:3:0:0:
120,112,6231,2,0,B|152:88|192:88|216:116|252:156|276:124,1,160
352,84,6773,1,8,0:3:0:0:
236,216,6954,2,0,P|216:252|216:320,1,80
268,368,7315,5,8,0:3:0:0:
52,72,7677,1,8,0:0:0:0:
100,136,8219,1,2,0:0:0:0:
372,228,8761,5,4,0:0:0:0:
284,196,8941,2,0,L|244:164,1,40
204,176,9122,2,0,B|184:128|184:128|188:112|188:112|180:96,1,80,8|0,0:0|0:0,0:0:0:0:
204,8,9483,1,0,0:0:0:0:
204,176,9664,2,0,B|172:217|172:217|156:221|156:221|146:236,1,80,8|0,0:3|0:0,0:0:0:0:
58,260,10025,1,0,0:0:0:0:
204,176,10206,5,8,0:3:0:0:
300,164,10386,1,0,0:0:0:0:
348,160,10477,1,0,0:0:0:0:
396,172,10567,2,0,P|428:192|448:232,1,80,8|8,0:0|0:0,0:0:0:0:
448,276,10838,2,0,L|492:192,1,80,2|2,0:0|0:0,0:0:0:0:
488,156,11109,1,2,0:0:0:0:
456,64,11290,1,0,0:0:0:0:
416,36,11380,1,0,0:0:0:0:
368,28,11470,1,0,0:0:0:0:
320,36,11561,1,0,0:0:0:0:
280,60,11651,5,8,0:3:0:0:
220,244,12012,2,0,L|208:292,1,40
264,188,12193,2,0,L|252:128,1,40
292,256,12373,1,8,0:0:0:0:
192,176,12554,2,0,B|168:144|144:128|116:124|92:128|68:120|60:96,1,160,12|0,0:3|0:0,0:0:0:0:
112,216,13096,6,0,P|124:272|84:324,1,120,8|0,0:3|0:0,0:0:0:0:
44,332,13457,1,8,0:0:0:0:
200,304,13638,2,0,L|248:296,1,40,8|2,0:0|0:0,0:0:0:0:
316,240,13909,2,0,L|368:244,1,40,2|2,0:0|0:0,0:0:0:0:
228,176,14180,1,0,0:0:0:0:
352,120,14361,1,0,0:0:0:0:
244,248,14541,5,2,0:3:0:0:
232,264,15264,1,0,0:0:0:0:
140,288,15445,2,0,P|96:280|72:180,1,160
291,226,15986,6,0,P|291:301|222:333,1,160
276,104,17070,2,0,B|288:100|296:92|296:92|304:108|304:108|312:100|336:88|368:88|392:100,1,120,2|0,0:1|0:0,0:0:0:0:
352,164,17432,6,0,P|344:200|384:260,1,106.640002326892,4|0,0:0|0:0,0:0:0:0:
504,280,17793,1,8,0:0:0:0:
292,296,17974,1,0,0:0:0:0:
252,304,18064,1,0,0:0:0:0:
216,324,18154,1,8,0:3:0:0:
188,356,18245,1,0,0:0:0:0:
168,316,18335,1,2,0:0:0:0:
132,292,18425,1,0,0:0:0:0:
92,280,18516,1,8,0:0:0:0:
64,152,18696,2,0,L|52:92,1,53.3200011634461
112,52,18877,6,0,L|124:112,1,53.3200011634461
132,144,19057,1,0,0:0:0:0:
124,188,19148,1,2,0:0:0:0:
92,216,19238,2,0,P|36:216|-4:168,1,106.640002326892,8|8,0:0|0:0,0:0:0:0:
0,140,19509,1,2,0:0:0:0:
16,100,19599,2,0,P|44:84|124:115,1,106.640002326892,0|8,0:0|0:3,0:0:0:0:
200,196,19961,1,8,0:0:0:0:
244,76,20141,2,0,P|244:48|232:16,1,53.3200011634461,2|0,0:0|0:0,0:0:0:0:
276,132,20322,6,0,P|320:164|384:132,1,106.640002326892,4|0,0:0|0:0,0:0:0:0:
168,64,20683,1,8,0:0:0:0:
104,176,20864,2,0,L|64:240,1,53.3200011634461
112,244,21045,2,0,L|104:324,1,53.3200011634461,8|0,0:3|0:0,0:0:0:0:
148,300,21225,1,0,0:0:0:0:
184,324,21316,1,0,0:0:0:0:
224,332,21406,1,8,0:0:0:0:
264,324,21496,1,8,0:3:0:0:
300,300,21587,1,0,0:0:0:0:
340,284,21677,1,8,0:3:0:0:
384,280,21767,5,0,0:0:0:0:
424,296,21858,1,8,0:0:0:0:
452,328,21948,2,0,P|464:356|464:380,1,53.3200011634461
464,288,22128,2,0,P|468:236|508:204,1,106.640002326892,8|8,0:0|0:0,0:0:0:0:
464,200,22399,2,0,P|420:192|372:152,1,106.640002326892,2|2,0:0|0:0,0:0:0:0:
360,112,22670,2,0,L|372:56,1,53.3200011634461
332,144,22851,1,8,0:0:0:0:
296,168,22941,1,0,0:0:0:0:
252,176,23032,1,2,0:0:0:0:
212,168,23122,1,8,0:0:0:0:
180,140,23212,5,4,0:0:0:0:
252,248,23393,1,0,0:0:0:0:
255,75,23574,1,8,0:0:0:0:
152,236,23754,2,0,L|112:288,1,53.3200011634461
32,292,23935,2,0,L|44:228,1,53.3200011634461,8|0,0:3|0:0,0:0:0:0:
88,156,24116,2,0,P|92:100|60:64,1,106.640002326892,0|2,0:0|0:0,0:0:0:0:
25,125,24387,2,0,P|21:181|53:217,1,106.640002326892
96,228,24658,5,0,0:0:0:0:
136,212,24748,1,0,0:0:0:0:
180,208,24838,1,0,0:0:0:0:
220,220,24929,1,0,0:0:0:0:
252,248,25019,1,8,0:0:0:0:
267,338,25199,2,0,P|227:332|205:313,1,53.3200011634461,0|8,0:0|0:0,0:0:0:0:
188,294,25380,1,8,0:0:0:0:
177,252,25470,1,0,0:0:0:0:
180,208,25561,1,0,0:0:0:0:
201,171,25651,1,8,0:0:0:0:
240,156,25741,2,0,B|253:136|276:120|276:120|260:92|256:64,1,106.640002326892,8|8,0:0|0:3,0:0:0:0:
312,196,26103,5,4,0:0:0:0:
40,44,26464,1,8,0:0:0:0:
168,72,26645,2,0,P|200:76|220:72,1,53.3200011634461
260,60,26825,1,0,0:0:0:0:
304,60,26916,1,0,0:0:0:0:
344,72,27006,1,0,0:0:0:0:
376,100,27096,1,0,0:0:0:0:
392,140,27187,1,8,0:0:0:0:
384,296,27367,1,2,0:0:0:0:
480,116,27548,5,0,0:0:0:0:
272,128,27729,2,0,P|224:124|204:112,1,53.3200011634461,0|8,0:0|0:0,0:0:0:0:
184,100,27909,1,8,0:0:0:0:
264,220,28090,1,0,0:0:0:0:
284,260,28180,1,8,0:0:0:0:
288,304,28271,2,0,P|284:340|268:364,2,53.3200011634461,0|8|8,0:0|0:0|0:0,0:0:0:0:
356,192,28632,1,8,0:0:0:0:
472,140,28812,2,0,P|496:132|524:132,2,53.3200011634461,8|8|0,0:0|0:0|0:0,0:0:0:0:
171,203,29354,6,0,B|160:216|160:216|148:216|148:216|132:224|108:228|80:220|68:196|71:169|92:156|116:160|128:184,1,159.960003490338,8|0,0:3|0:0,0:0:0:0:
156,164,29716,2,0,P|172:144|184:100,1,53.3200011634461,8|0,0:0|0:0,0:0:0:0:
144,232,29896,2,0,P|148:264|160:288,1,53.3200011634461,2|0,0:0|0:0,0:0:0:0:
184,316,30077,1,8,0:0:0:0:
224,332,30167,1,0,0:0:0:0:
268,328,30258,1,2,0:0:0:0:
304,304,30348,1,8,0:0:0:0:
324,268,30438,6,0,L|328:204,1,53.3200011634461,0|8,0:0|0:0,0:0:0:0:
412,156,30619,2,0,L|408:220,1,53.3200011634461,8|0,0:3|0:0,0:0:0:0:
365,338,30800,2,0,P|314:351|268:328,1,106.640002326892,8|2,0:0|0:0,0:0:0:0:
244,292,31071,1,0,0:0:0:0:
240,248,31161,2,0,L|244:224,6,17.7733337211487
204,272,31432,6,0,B|188:272|188:272|184:288|184:288|168:288|148:296|136:316,1,80
124,344,31883,5,4,0:0:0:0:
380,184,32245,2,0,B|436:160|420:92|420:92|468:60,1,159.599993424683,8|8,0:0|0:0,0:0:0:0:
356,120,32606,1,0,0:0:0:0:
312,124,32696,1,8,0:0:0:0:
272,112,32787,1,8,0:3:0:0:
252,76,32877,1,0,0:0:0:0:
252,32,32967,1,8,0:0:0:0:
228,168,33148,2,0,L|204:224,1,53.1999978082276
244,332,33329,6,0,L|207:283,1,53.1999978082276
144,168,33509,2,0,L|91:174,1,53.1999978082276
64,112,33690,1,8,0:0:0:0:
136,252,33871,1,0,0:0:0:0:
252,76,34051,1,0,0:0:0:0:
288,52,34142,1,0,0:0:0:0:
332,48,34232,2,0,B|352:44|368:60|388:56,1,53.1999978082276
428,56,34413,1,8,0:0:0:0:
416,140,34593,2,0,L|412:160,3,17.7333326027425
404,200,34774,6,0,B|400:224|404:248|404:248|392:252|392:252|396:272|388:296,1,106.399995616455,4|0,0:0|0:0,0:0:0:0:
272,352,35135,1,8,0:0:0:0:
168,132,35496,6,0,P|156:112|128:76,1,60
132,296,36219,5,4,0:0:0:0:
168,132,36580,2,0,P|196:84|268:84,1,106.399995616455,8|8,0:0|0:0,0:0:0:0:
312,84,36851,2,0,P|284:132|212:132,1,106.399995616455,2|2,0:0|0:0,0:0:0:0:
168,132,37122,1,2,0:0:0:0:
312,84,37303,2,0,P|364:72|416:88,1,106.399995616455
184,40,37664,6,0,L|124:32,1,53.1999978082276,4|0,0:0|0:0,0:0:0:0:
88,24,37845,1,0,0:0:0:0:
0,120,38025,1,8,0:0:0:0:
40,244,38206,2,0,P|44:264|40:304,2,53.1999978082276
124,148,38567,1,0,0:0:0:0:
164,132,38658,1,0,0:0:0:0:
208,136,38748,2,0,P|240:140|264:136,1,53.1999978082276,8|0,0:0|0:0,0:0:0:0:
292,164,38929,2,0,P|318:159|344:163,1,53.1999978082276,2|0,0:0|0:0,0:0:0:0:
384,144,39109,6,0,P|336:200|356:284,1,159.599993424683
384,308,39471,1,8,0:0:0:0:
292,164,39651,2,0,L|236:152,1,53.1999978082276,0|2,0:0|0:0,0:0:0:0:
200,144,39832,1,0,0:0:0:0:
168,172,39922,1,2,0:0:0:0:
128,184,40013,1,2,0:0:0:0:
84,180,40103,1,0,0:0:0:0:
48,156,40193,1,8,0:0:0:0:
172,80,40374,1,0,0:0:0:0:
292,164,40555,6,0,B|272:216|272:216|284:276,1,106.399995616455,4|0,0:0|0:0,0:0:0:0:
400,224,40916,1,0,0:0:0:0:
344,104,41097,2,0,P|288:84|220:128,1,106.399995616455,2|2,0:0|0:0,0:0:0:0:
176,208,41458,1,0,0:0:0:0:
180,164,41548,1,0,0:0:0:0:
164,124,41638,1,8,0:0:0:0:
72,40,41819,1,0,0:0:0:0:
64,184,42000,5,0,0:0:0:0:
204,72,42180,2,0,P|236:64|268:68,1,53.1999978082276
292,44,42361,2,0,P|344:56|396:40,1,106.399995616455,8|0,0:0|0:0,0:0:0:0:
428,12,42632,1,2,0:0:0:0:
432,56,42722,2,0,L|440:124,1,53.1999978082276,0|2,0:0|0:0,0:0:0:0:
412,144,42903,2,0,L|404:208,1,53.1999978082276,2|0,0:0|0:0,0:0:0:0:
432,228,43084,1,8,0:0:0:0:
480,348,43264,2,0,P|440:360|416:356,1,53.1999978082276,2|8,0:0|0:0,0:0:0:0:
388,356,43445,5,4,0:0:0:0:
80,228,43806,1,8,0:0:0:0:
200,268,43987,1,0,0:0:0:0:
240,276,44077,1,0,0:0:0:0:
284,276,44168,1,0,0:0:0:0:
324,260,44258,1,0,0:0:0:0:
352,228,44348,2,0,L|368:168,2,53.1999978082276,0|0|8,0:0|0:0|0:0,0:0:0:0:
263,315,44709,2,0,L|247:375,1,53.1999978082276,0|8,0:0|0:0,0:0:0:0:
208,376,44890,5,0,0:0:0:0:
172,356,44980,1,0,0:0:0:0:
152,320,45071,1,2,0:0:0:0:
148,276,45161,1,8,0:0:0:0:
164,236,45251,1,2,0:0:0:0:
164,192,45342,1,8,0:0:0:0:
148,152,45432,1,8,0:0:0:0:
112,128,45522,1,8,0:0:0:0:
68,128,45613,2,0,P|120:116|180:64,1,106.399995616455,8|0,0:3|0:0,0:0:0:0:
192,56,45884,1,8,0:3:0:0:
352,96,46064,6,2,B|392:108|392:108|344:124|332:152|344:176|400:168|340:216,1,160,2|2,0:1|0:1,0:1:0:0:
340,236,46335,5,4,0:0:0:0:
452,144,46516,1,0,0:0:0:0:
240,168,46697,2,0,P|188:172|136:152,1,106.399995616455,8|0,0:0|0:0,0:0:0:0:
104,128,46968,1,0,0:0:0:0:
84,92,47058,1,0,0:0:0:0:
136,248,47239,1,0,0:0:0:0:
208,48,47419,1,8,0:0:0:0:
36,200,47600,2,0,L|20:276,1,53.1999978082276,0|8,0:0|0:0,0:0:0:0:
16,292,47780,6,0,P|56:248|112:232,1,106.399995616455,8|8,0:3|0:3,0:0:0:0:
340,236,48142,1,8,0:0:0:0:
104,128,48322,2,0,P|84:84|104:32,1,106.399995616455,8|0,0:0|0:0,0:0:0:0:
160,80,48593,2,0,P|180:124|160:176,1,106.399995616455,8|0,0:3|0:0,0:0:0:0:
88,200,48864,2,0,L|28:188,1,53.1999978082276
116,268,49045,2,0,L|176:280,1,53.1999978082276
220,336,49226,6,0,L|328:316,1,106.399995616455
456,292,49587,1,8,0:0:0:0:
276,240,49768,1,0,0:0:0:0:
408,104,49948,2,0,P|412:80|404:51,3,53.1999978082276,0|8|0|8,0:0|0:0|0:0|0:0,0:0:0:0:
346,82,50310,1,8,0:0:0:0:
256,192,50671,12,0,51935,0:0:0:0:
256,64,52116,5,4,0:0:0:0:
324,116,52297,2,0,L|376:152,1,53.1999978082276,2|0,0:0|0:0,0:0:0:0:
324,200,52477,2,0,P|308:264|272:284,1,106.399995616455,8|0,0:0|0:0,0:0:0:0:
104,296,52839,2,0,L|152:264,1,53.1999978082276
71,368,53019,2,0,P|31:335|24:284,1,106.399995616455,8|0,0:3|0:0,0:0:0:0:
148,184,53290,2,0,L|180:72,1,106.399995616455,8|0,0:3|0:0,0:0:0:0:
8,80,53561,6,0,L|37:182,1,106.399995616455,8|0,0:3|0:0,0:0:0:0:
80,312,53923,2,0,B|112:264|160:256|208:280|248:264|272:208|240:144|184:132|148:164,1,319.199986849366
272,80,54645,1,8,0:0:0:0:
416,60,54826,2,0,L|484:52,1,53.1999978082276,2|0,0:0|0:0,0:0:0:0:
448,92,55006,6,0,P|424:140|444:208,1,106.399995616455
