osu file format v14

[General]
AudioFilename: Apex - String Theory (1).mp3
AudioLeadIn: 1000
PreviewTime: 131922
Countdown: 0
SampleSet: Normal
StackLeniency: 0.7
Mode: 0
LetterboxInBreaks: 1
WidescreenStoryboard: 0

[Editor]
Bookmarks: 66093,109979,153865,197750,217122,263579,307465
DistanceSpacing: 0.3
BeatDivisor: 4
GridSize: 4
TimelineZoom: 4.299998

[Metadata]
Title:String Theory
TitleUnicode:String Theory
Artist:Apex
ArtistUnicode:Apex
Creator:Secretpipe
Version:Omega
Source:
Tags:
BeatmapID:844141
BeatmapSetID:386624

[Difficulty]
HPDrainRate:7
CircleSize:4
OverallDifficulty:8
ApproachRate:9
SliderMultiplier:1.4
SliderTickRate:1

[Events]
//Background and Video events
0,0,"maxresdefault.jpg",0,0
//Break Periods
//Storyboard Layer 0 (Background)
//Storyboard Layer 1 (Fail)
//Storyboard Layer 2 (Pass)
//Storyboard Layer 3 (Foreground)
//Storyboard Sound Samples

[TimingPoints]
265,342.857142857143,4,1,0,15,1,0
1636,-125,4,1,0,15,0,0
1979,-166.666666666667,4,1,0,15,0,0
2322,-200,4,1,0,15,0,0
3007,-100,4,1,0,15,0,0
4379,-125,4,1,0,15,0,0
4722,-166.666666666667,4,1,0,15,0,0
5065,-200,4,1,0,15,0,0
5750,-100,4,1,0,15,0,0
7122,-125,4,1,0,15,0,0
7465,-166.666666666667,4,1,0,15,0,0
7807,-200,4,1,0,15,0,0
11236,-100,4,1,0,15,0,0
22207,-100,4,1,0,15,0,1
22293,-100,4,1,0,15,0,0
52379,-142.857142857143,4,1,0,15,0,0
55122,-100,4,1,0,15,0,0
66093,-100,4,1,0,35,0,0
88036,-66.6666666666667,4,1,0,60,0,0
109979,-58.8235294117647,4,1,0,60,0,0

[HitObjects]
67,108,265,6,0,P|47:172|43:244,1,140
167,296,779,2,0,P|166:232|143:160,1,140
171,88,1293,2,0,L|243:92,1,70
375,140,1636,2,0,L|311:144,1,56
235,224,1979,2,0,L|283:228,1,41.9999987182618
411,297,2322,2,0,L|372:301,1,35
261,354,2665,1,4,2:0:0:0:
93,293,3007,6,0,L|101:153,1,140
153,68,3522,2,0,P|211:81|291:60,1,140
381,34,4036,2,0,L|379:116,1,70
317,201,4379,2,0,L|313:136,1,56
392,257,4722,2,0,L|389:299,1,41.9999987182618
311,352,5065,2,0,L|309:318,1,35
416,368,5407,1,4,2:0:0:0:
218,281,5750,6,0,P|153:295|83:278,1,140
63,131,6265,2,0,P|127:116|197:133,1,140
286,173,6779,2,0,L|279:103,1,70
371,207,7122,2,0,L|363:144,1,56
452,239,7465,2,0,L|445:188,1,41.9999987182618
490,95,7807,2,0,L|495:136,1,35
414,77,8150,1,4,2:0:0:0:
256,192,8493,12,4,10550,0:1:0:0:
220,313,11236,6,0,L|81:325,1,140
267,225,11750,2,0,L|405:236,1,140
469,281,12265,2,0,P|473:312|466:349,1,70
409,161,12607,2,0,P|404:129|411:92,1,70
430,21,12950,5,0,0:0:0:0:
349,45,13122,1,0,0:0:0:0:
274,20,13293,1,0,0:0:0:0:
201,55,13465,1,0,0:0:0:0:
268,157,13636,1,4,2:0:0:0:
272,164,13979,6,0,L|133:173,1,140
279,249,14493,2,0,L|417:258,1,140
473,326,15007,1,0,0:0:0:0:
499,245,15179,1,0,0:0:0:0:
390,92,15350,5,0,0:0:0:0:
410,177,15522,1,0,0:0:0:0:
323,150,15693,2,0,P|290:156|253:149,1,70
144,73,16036,2,0,P|177:67|214:74,1,70
99,162,16379,1,4,2:0:0:0:
103,169,16722,6,0,P|87:239|104:307,1,140
309,245,17236,2,0,L|165:241,1,140
292,328,17750,2,0,L|371:325,1,70
436,275,18093,5,0,0:0:0:0:
383,184,18265,1,0,0:0:0:0:
486,118,18436,2,0,L|480:200,1,70
399,68,18779,1,0,0:0:0:0:
302,107,18950,1,0,0:0:0:0:
216,45,19122,1,4,2:0:0:0:
66,314,19465,5,0,0:0:0:0:
70,321,19979,1,0,0:0:0:0:
208,210,20150,2,0,P|209:173|197:128,1,70
153,276,20493,2,0,P|152:313|164:358,1,70
310,278,20836,6,0,L|222:285,2,70
418,355,21350,1,0,0:0:0:0:
458,220,21522,1,0,0:0:0:0:
334,74,21693,1,0,0:0:0:0:
296,198,21865,1,0,0:0:0:0:
421,128,22036,1,4,2:0:0:0:
230,93,22207,5,0,0:0:0:0:
118,190,22379,1,0,0:0:0:0:
114,177,22465,1,0,0:0:0:0:
113,163,22550,2,0,P|106:123|118:74,1,70
159,10,22893,1,0,0:0:0:0:
199,207,23065,1,0,0:0:0:0:
199,207,23236,2,0,P|206:247|194:296,1,70
96,350,23579,5,0,0:0:0:0:
96,350,23750,2,0,L|1:339,1,70
201,275,24093,1,0,0:0:0:0:
301,353,24265,2,0,L|396:342,1,70
441,191,24607,1,4,2:0:0:0:
470,297,24779,1,0,0:0:0:0:
317,186,24950,5,0,0:0:0:0:
395,58,25122,1,0,0:0:0:0:
395,58,25207,1,0,0:0:0:0:
395,58,25293,2,0,L|391:155,1,70
377,263,25636,5,0,0:0:0:0:
291,321,25807,1,0,0:0:0:0:
228,236,25978,1,0,0:0:0:0:
317,186,26150,1,0,0:0:0:0:
190,324,26322,6,0,P|151:330|105:320,1,70
11,223,26665,2,0,P|45:218|79:224,1,70
219,149,27007,2,0,P|180:155|134:145,1,70
40,48,27350,2,0,P|74:43|108:49,1,70,4|0,2:0|0:0,0:0:0:0:
219,149,27693,5,0,0:0:0:0:
378,103,27865,1,0,0:0:0:0:
378,103,27950,1,0,0:0:0:0:
378,103,28036,2,0,L|471:94,1,70
305,44,28379,6,0,L|235:37,1,70
300,210,28722,2,0,P|307:177|293:125,1,70
231,276,29065,2,0,P|225:316|238:361,1,70
381,311,29407,2,0,L|286:314,1,70
478,224,29750,1,0,0:0:0:0:
484,346,29922,1,0,0:0:0:0:
378,173,30093,1,4,2:0:0:0:
480,26,30265,5,0,0:0:0:0:
256,192,30436,12,4,32836,2:0:0:0:
341,98,33179,5,0,0:0:0:0:
433,218,33350,1,0,0:0:0:0:
433,218,33435,1,0,0:0:0:0:
433,218,33521,2,0,L|429:121,1,70
334,266,33865,6,0,P|311:271|250:265,1,70
111,192,34207,2,0,P|134:187|195:193,1,70
200,308,34550,2,0,P|205:345|197:380,1,70
48,319,34893,2,0,P|43:282|51:247,1,70
107,83,35236,5,0,0:0:0:0:
16,161,35407,1,0,0:0:0:0:
206,219,35579,1,4,2:0:0:0:
192,108,35750,1,0,0:0:0:0:
111,192,35922,5,0,0:0:0:0:
200,308,36093,1,0,0:0:0:0:
213,312,36179,1,0,0:0:0:0:
227,313,36264,2,0,P|267:317|315:303,1,70
371,156,36607,6,0,L|376:243,1,70
399,347,36950,1,0,0:0:0:0:
275,211,37122,1,0,0:0:0:0:
459,114,37293,2,0,L|464:201,1,70
483,324,37636,1,0,0:0:0:0:
371,156,37808,1,0,0:0:0:0:
205,213,37979,2,0,L|275:211,2,70,0|0|4,0:0|0:0|2:0,0:0:0:0:
326,299,38493,1,0,0:0:0:0:
291,86,38665,5,0,0:0:0:0:
140,156,38836,1,0,0:0:0:0:
140,156,38922,1,0,0:0:0:0:
140,156,39007,2,0,L|70:154,1,70
221,84,39350,2,0,L|291:86,1,70
440,157,39693,2,0,L|370:155,1,70
280,200,40036,5,0,0:0:0:0:
326,299,40207,1,0,0:0:0:0:
390,231,40379,1,0,0:0:0:0:
153,286,40550,1,0,0:0:0:0:
236,358,40722,1,0,0:0:0:0:
175,187,40893,1,0,0:0:0:0:
21,256,41065,1,4,2:0:0:0:
94,361,41236,1,0,0:0:0:0:
60,118,41407,6,0,L|61:86,14,17.5,2|0|0|0|0|0|0|0|0|0|0|0|0|0|0,2:0|0:0|0:0|0:0|0:0|0:0|0:0|0:0|0:0|0:0|0:0|0:0|0:0|0:0|0:0,0:0:0:0:
175,187,42093,2,0,P|211:193|270:187,1,70
431,152,42436,2,0,P|395:146|336:152,1,70
297,273,42779,2,0,P|296:307|302:342,1,70
483,296,43122,2,0,P|483:261|477:226,1,70,4|0,2:0|0:0,0:0:0:0:
415,68,43465,5,0,0:0:0:0:
296,273,43636,1,0,0:0:0:0:
395,230,43807,1,4,2:0:0:0:
235,116,43979,1,0,0:0:0:0:
125,301,44150,5,0,0:0:0:0:
61,197,44322,1,0,0:0:0:0:
61,197,44407,1,0,0:0:0:0:
61,197,44493,2,0,P|97:190|147:202,1,70
216,273,44836,2,0,L|210:355,1,70
321,152,45179,2,0,L|327:70,1,70
400,324,45522,6,0,P|434:337|483:327,1,70
479,141,45865,2,0,P|445:128|396:138,1,70
201,157,46207,1,0,0:0:0:0:
216,274,46379,1,0,0:0:0:0:
336,273,46550,1,4,2:0:0:0:
321,152,46722,1,0,0:0:0:0:
124,222,46893,6,0,L|33:228,1,70
33,239,47150,1,0,0:0:0:0:
13,254,47236,1,0,0:0:0:0:
201,157,47407,2,0,B|192:114|192:114|206:72|206:72|192:9,1,140
52,43,47922,5,0,0:0:0:0:
102,128,48093,1,0,0:0:0:0:
321,152,48265,1,0,0:0:0:0:
371,67,48436,1,0,0:0:0:0:
260,51,48607,1,0,0:0:0:0:
431,168,48779,1,0,0:0:0:0:
357,332,48950,5,0,0:0:0:0:
321,152,49122,1,0,0:0:0:0:
453,275,49293,1,2,2:0:0:0:
273,253,49465,1,2,0:0:0:0:
169,71,49636,5,0,0:0:0:0:
57,125,49807,1,0,0:0:0:0:
57,125,49893,1,0,0:0:0:0:
57,125,49979,2,0,P|49:89|57:40,1,70
139,197,50322,2,0,P|141:231|133:265,1,70
66,353,50665,1,0,0:0:0:0:
29,228,50836,1,0,0:0:0:0:
205,148,51007,6,0,L|285:144,1,70
426,213,51350,2,0,L|356:209,1,70
361,37,51693,2,0,L|366:106,1,70
378,306,52036,1,0,0:0:0:0:
426,213,52207,1,0,0:0:0:0:
277,248,52379,6,0,L|210:249,3,48.9999985046387
157,345,53065,2,0,L|152:283,1,48.9999985046387
87,193,53407,2,0,L|83:241,1,48.9999985046387
161,146,53750,2,0,L|157:97,1,48.9999985046387
280,199,54093,2,0,L|276:247,1,48.9999985046387
398,102,54436,2,0,L|446:102,2,48.9999985046387
288,34,54950,1,0,0:0:0:0:
410,250,55122,5,0,0:0:0:0:
302,319,55293,1,0,0:0:0:0:
302,319,55379,1,0,0:0:0:0:
302,319,55465,2,0,P|262:324|206:319,1,70
111,266,55807,6,0,L|99:174,1,70
116,77,56150,1,0,0:0:0:0:
214,135,56322,1,0,0:0:0:0:
305,192,56493,2,0,L|403:180,1,70
477,122,56836,1,0,0:0:0:0:
380,51,57007,1,0,0:0:0:0:
474,251,57179,2,0,P|481:296|471:339,1,70
292,343,57522,2,0,P|288:308|295:274,1,70
283,135,57865,6,0,P|248:133|195:137,1,70
186,143,58122,1,0,0:0:0:0:
159,152,58207,1,0,0:0:0:0:
62,295,58379,2,0,P|123:323|213:307,1,140
285,255,58893,1,0,0:0:0:0:
390,291,59065,1,0,0:0:0:0:
474,251,59236,6,0,L|480:166,1,70
381,115,59579,2,0,L|385:184,1,70
456,54,59922,1,0,0:0:0:0:
359,20,60093,1,0,0:0:0:0:
276,75,60265,1,0,0:0:0:0:
184,34,60436,1,0,0:0:0:0:
281,171,60607,5,0,0:0:0:0:
197,275,60779,1,0,0:0:0:0:
197,275,60865,1,0,0:0:0:0:
197,275,60950,2,0,P|154:281|117:276,1,70
35,148,61293,1,0,0:0:0:0:
19,258,61465,1,0,0:0:0:0:
200,144,61636,1,0,0:0:0:0:
184,34,61808,1,0,0:0:0:0:
113,104,61979,6,0,P|111:143|118:198,1,70
281,171,62322,2,0,P|286:138|284:101,1,70
337,275,62665,2,0,P|376:277|431:270,1,70
488,174,63007,1,0,0:0:0:0:
462,358,63179,5,0,0:0:0:0:
256,192,63350,12,0,65750,0:0:0:0:
310,165,66093,6,0,P|376:154|426:209,1,140
390,295,66607,2,0,P|323:305|273:250,1,140
205,186,67122,2,0,L|119:181,1,70
101,89,67465,5,0,0:0:0:0:
34,273,67636,2,0,L|182:282,1,140
226,364,68150,1,0,0:0:0:0:
275,63,68493,1,0,0:0:0:0:
276,68,68836,6,0,L|285:232,1,140
371,251,69350,2,0,L|377:346,1,70
280,297,69693,1,0,0:0:0:0:
458,234,69865,6,0,L|468:88,1,140
381,45,70379,2,0,P|314:32|266:79,1,140
294,173,70893,1,0,0:0:0:0:
197,189,71065,1,0,0:0:0:0:
100,202,71236,1,0,0:0:0:0:
330,340,71579,5,0,0:0:0:0:
330,340,71750,2,0,L|322:258,1,70
196,188,72093,1,0,0:0:0:0:
196,188,72265,2,0,L|190:258,1,70
91,347,72607,1,0,0:0:0:0:
91,347,72779,2,0,L|21:354,1,70
49,215,73122,6,0,P|50:180|54:145,1,70
117,69,73465,1,0,0:0:0:0:
19,57,73636,1,0,0:0:0:0:
177,174,73807,1,0,0:0:0:0:
314,146,73979,1,0,0:0:0:0:
276,280,74150,1,0,0:0:0:0:
138,314,74322,6,0,L|39:307,1,70
68,309,74579,1,0,0:0:0:0:
68,309,74665,1,0,0:0:0:0:
257,202,74836,1,0,0:0:0:0:
257,202,75007,2,0,L|356:209,1,70
443,285,75350,1,0,0:0:0:0:
448,265,75435,1,0,0:0:0:0:
452,244,75521,1,0,0:0:0:0:
456,223,75607,1,0,0:0:0:0:
461,203,75692,1,0,0:0:0:0:
441,106,75865,6,0,L|342:113,1,70
301,41,76207,1,0,0:0:0:0:
301,41,76293,1,0,0:0:0:0:
301,41,76379,1,0,0:0:0:0:
193,303,76550,1,0,0:0:0:0:
158,211,76722,1,0,0:0:0:0:
179,212,76807,1,0,0:0:0:0:
199,214,76893,1,0,0:0:0:0:
220,215,76979,1,0,0:0:0:0:
240,215,77065,6,0,P|277:198|311:158,2,70
398,277,77579,1,0,0:0:0:0:
398,277,77750,2,0,P|434:294|468:334,1,70
375,372,78093,1,0,0:0:0:0:
301,306,78265,1,0,0:0:0:0:
339,98,78436,5,0,0:0:0:0:
298,295,78607,1,0,0:0:0:0:
173,210,78779,1,0,0:0:0:0:
365,206,78950,1,0,0:0:0:0:
199,102,79122,2,0,L|97:97,1,70
61,169,79465,1,0,0:0:0:0:
61,169,79636,1,0,0:0:0:0:
143,301,79807,5,0,0:0:0:0:
162,307,79892,1,0,0:0:0:0:
182,314,79978,1,0,0:0:0:0:
202,320,80064,1,0,0:0:0:0:
223,319,80149,1,0,0:0:0:0:
368,219,80322,5,0,0:0:0:0:
348,212,80407,1,0,0:0:0:0:
328,205,80493,1,0,0:0:0:0:
308,199,80579,1,0,0:0:0:0:
287,200,80664,1,0,0:0:0:0:
146,153,80836,1,0,0:0:0:0:
141,132,80921,1,0,0:0:0:0:
136,112,81007,2,0,L|124:56,1,35
258,25,81179,2,0,L|250:59,1,35
327,116,81350,5,0,0:0:0:0:
347,122,81435,1,0,0:0:0:0:
368,124,81521,1,0,0:0:0:0:
389,122,81607,1,0,0:0:0:0:
409,118,81693,1,0,0:0:0:0:
429,119,81778,1,0,0:0:0:0:
449,127,81865,6,0,L|443:192,1,35,8|0,0:0|0:0,0:0:0:0:
337,246,82036,2,0,L|326:202,1,35,8|0,2:0|0:0,0:0:0:0:
113,271,82207,2,0,L|117:306,1,35,8|0,0:0|0:0,0:0:0:0:
234,344,82379,2,0,L|240:309,1,35,8|0,2:0|0:0,0:0:0:0:
105,177,82550,6,0,P|135:197|169:203,1,70
167,202,82807,1,0,0:0:0:0:
167,202,82893,1,0,0:0:0:0:
428,178,83065,1,0,0:0:0:0:
428,178,83150,1,0,0:0:0:0:
428,178,83236,2,0,L|416:106,1,70
242,44,83579,1,0,0:0:0:0:
237,64,83664,1,0,0:0:0:0:
233,85,83750,1,0,0:0:0:0:
232,106,83836,1,0,0:0:0:0:
233,127,83922,6,0,B|240:180,1,35
339,225,84093,2,0,L|346:273,1,35
317,352,84265,1,0,0:0:0:0:
176,237,84436,1,0,0:0:0:0:
176,237,84522,1,0,0:0:0:0:
175,237,84607,2,0,L|105:241,1,70
20,353,84950,2,0,L|89:357,1,70
386,222,85293,6,0,P|339:227|307:251,1,70
320,238,85550,1,0,0:0:0:0:
320,238,85636,1,0,0:0:0:0:
187,129,85807,1,0,0:0:0:0:
187,129,85979,2,0,P|228:133|274:120,1,70
353,141,86322,1,0,0:0:0:0:
220,237,86493,1,0,0:0:0:0:
87,141,86665,5,0,0:0:0:0:
220,45,86836,2,0,P|274:38|301:42,1,70
383,68,87179,1,0,0:0:0:0:
337,234,87350,2,0,L|346:314,1,70
254,341,87693,1,0,0:0:0:0:
434,367,87865,1,0,0:0:0:0:
180,149,88036,6,0,B|129:141|129:141|61:163,1,105.000004005432,4|0,0:0|0:0,0:0:0:0:
150,334,88379,1,0,0:0:0:0:
150,334,88550,2,0,L|273:343,1,105.000004005432
435,138,88893,1,0,0:0:0:0:
289,160,89065,1,0,0:0:0:0:
289,160,89236,1,0,0:0:0:0:
347,71,89407,5,0,0:0:0:0:
376,227,89579,1,0,0:0:0:0:
376,227,89750,1,0,0:0:0:0:
164,296,89922,1,0,0:0:0:0:
262,364,90093,2,0,L|267:243,1,105.000004005432
63,225,90436,2,0,L|67:329,1,105.000004005432
348,192,90779,6,0,P|308:160|257:156,1,105.000004005432
255,156,91036,1,0,0:0:0:0:
255,156,91122,1,0,0:0:0:0:
443,104,91293,1,0,0:0:0:0:
481,213,91465,2,0,B|490:270|490:270|481:331,1,105.000004005432
181,286,91807,2,0,B|242:300|242:300|355:284,1,157.500006008148
392,274,92150,1,0,0:0:0:0:
251,35,92322,6,0,P|230:104|243:168,1,105.000004005432
344,107,92665,1,0,0:0:0:0:
105,57,92836,1,0,0:0:0:0:
126,170,93007,1,0,0:0:0:0:
352,260,93179,1,0,0:0:0:0:
244,302,93350,1,0,0:0:0:0:
316,149,93522,6,0,P|388:146|424:165,1,105.000004005432
326,345,93865,1,0,0:0:0:0:
326,345,94036,2,0,B|271:357|271:357|223:346,1,105.000004005432
139,181,94379,1,0,0:0:0:0:
53,253,94550,1,0,0:0:0:0:
53,253,94636,1,0,0:0:0:0:
53,253,94722,1,0,0:0:0:0:
53,253,94807,1,0,0:0:0:0:
53,253,94893,5,0,0:0:0:0:
119,52,95065,1,0,0:0:0:0:
304,148,95236,1,0,0:0:0:0:
244,246,95407,1,0,0:0:0:0:
189,143,95579,2,0,L|197:19,1,105.000004005432
459,33,95922,2,0,P|409:71|363:78,1,105.000004005432
333,124,96179,1,0,0:0:0:0:
333,124,96265,6,0,L|339:244,1,105.000004005432
402,324,96607,1,0,0:0:0:0:
225,277,96779,2,0,L|146:278,1,52.5000020027161
99,241,96950,1,0,0:0:0:0:
109,211,97035,1,0,0:0:0:0:
113,180,97121,1,0,0:0:0:0:
112,148,97207,1,0,0:0:0:0:
105,118,97293,2,0,P|159:151|219:159,1,105.000004005432
255,94,97550,1,0,0:0:0:0:
255,94,97636,6,0,P|315:78|369:83,1,105.000004005432
440,79,97893,2,0,P|437:111|431:131,1,52.5000020027161
365,251,98150,1,0,0:0:0:0:
375,280,98236,1,0,0:0:0:0:
391,307,98322,1,0,0:0:0:0:
231,248,98493,1,0,0:0:0:0:
202,236,98578,1,0,0:0:0:0:
171,233,98664,1,0,0:0:0:0:
140,238,98750,1,0,0:0:0:0:
109,247,98835,1,0,0:0:0:0:
78,252,98921,1,0,0:0:0:0:
46,246,99007,6,0,P|35:194|35:136,1,105.000004005432
136,87,99350,1,0,0:0:0:0:
175,338,99522,1,0,0:0:0:0:
175,338,99607,1,0,0:0:0:0:
175,338,99693,2,0,P|243:357|296:341,1,105.000004005432
373,288,100036,1,0,0:0:0:0:
243,186,100207,1,0,0:0:0:0:
239,154,100293,1,0,0:0:0:0:
240,122,100379,1,0,0:0:0:0:
324,43,100550,5,0,0:0:0:0:
354,208,100722,1,0,0:0:0:0:
145,253,100893,1,0,0:0:0:0:
115,88,101065,1,0,0:0:0:0:
216,142,101236,1,0,0:0:0:0:
78,343,101407,1,0,0:0:0:0:
39,233,101579,1,0,0:0:0:0:
230,295,101750,6,0,P|299:293|350:300,1,105.000004005432
420,374,102093,1,0,0:0:0:0:
464,122,102265,1,0,0:0:0:0:
464,122,102436,2,0,P|392:131|343:126,1,105.000004005432
273,205,102779,1,0,0:0:0:0:
219,40,102950,1,0,0:0:0:0:
250,34,103036,1,0,0:0:0:0:
281,33,103122,1,0,0:0:0:0:
402,36,103293,5,0,0:0:0:0:
153,186,103465,1,0,0:0:0:0:
288,355,103636,1,0,0:0:0:0:
337,261,103807,1,0,0:0:0:0:
308,250,103893,1,0,0:0:0:0:
276,249,103979,1,0,0:0:0:0:
246,256,104064,1,0,0:0:0:0:
222,278,104150,1,0,0:0:0:0:
240,229,104235,1,0,0:0:0:0:
239,176,104321,1,0,0:0:0:0:
219,128,104407,1,0,0:0:0:0:
183,91,104493,6,0,L|59:84,1,105.000004005432
35,192,104836,1,0,0:0:0:0:
101,286,105007,1,0,0:0:0:0:
345,220,105179,2,0,L|240:229,1,105.000004005432
186,126,105522,1,0,0:0:0:0:
243,26,105693,1,0,0:0:0:0:
461,131,105865,5,0,0:0:0:0:
293,122,106036,1,0,0:0:0:0:
317,287,106207,1,0,0:0:0:0:
378,198,106379,1,0,0:0:0:0:
234,217,106550,2,0,P|211:263|213:315,1,105.000004005432
469,225,106893,2,0,P|470:173|447:126,1,105.000004005432
296,221,107236,5,0,0:0:0:0:
267,235,107321,1,0,0:0:0:0:
236,238,107407,1,0,0:0:0:0:
206,231,107493,1,0,0:0:0:0:
179,215,107578,1,0,0:0:0:0:
160,190,107664,1,0,0:0:0:0:
150,160,107750,5,0,0:0:0:0:
178,147,107835,1,0,0:0:0:0:
201,125,107921,1,0,0:0:0:0:
214,97,108007,1,0,0:0:0:0:
216,66,108092,1,0,0:0:0:0:
208,35,108178,1,0,0:0:0:0:
189,10,108265,6,0,P|142:31|113:75,1,105.000004005432
287,322,108607,1,0,0:0:0:0:
405,153,109293,5,0,0:0:0:0:
363,144,109379,1,0,0:0:0:0:
321,134,109465,2,0,L|241:119,1,52.5000020027161
94,308,109636,1,0,0:0:0:0:
133,320,109721,1,0,0:0:0:0:
175,315,109807,1,0,0:0:0:0:
211,294,109893,1,0,0:0:0:0:
235,260,109978,5,0,0:0:0:0:
216,40,110150,1,0,0:0:0:0:
136,176,110322,1,0,0:0:0:0:
448,72,110493,1,0,0:0:0:0:
482,96,110578,1,0,0:0:0:0:
503,132,110664,1,0,0:0:0:0:
508,174,110750,1,0,0:0:0:0:
496,213,110835,5,0,0:0:0:0:
286,156,111007,2,0,L|422:152,1,119.000002269745
196,244,111350,1,0,0:0:0:0:
216,40,111522,1,0,0:0:0:0:
404,152,111693,1,0,0:0:0:0:
120,144,111865,5,0,0:0:0:0:
102,141,111950,1,0,0:0:0:0:
84,138,112036,1,0,0:0:0:0:
367,142,112207,1,0,0:0:0:0:
270,331,112379,1,0,0:0:0:0:
216,40,112550,1,0,0:0:0:0:
196,244,112722,6,0,P|149:257|78:241,1,119.000002269745
284,170,113065,1,0,0:0:0:0:
400,352,113236,1,0,0:0:0:0:
410,322,113321,1,0,0:0:0:0:
414,291,113407,1,0,0:0:0:0:
413,259,113493,1,0,0:0:0:0:
406,229,113579,2,0,P|461:266|524:273,1,119.000002269745
