osu file format v14

[General]
AudioFilename: distance 192.mp3
AudioLeadIn: 0
PreviewTime: 184148
Countdown: 0
SampleSet: Drum
StackLeniency: 0.7
Mode: 0
LetterboxInBreaks: 0
WidescreenStoryboard: 1

[Editor]
Bookmarks: 3327,29628,42779,49354,52642,55929,62505,69080,75655,82231,95381,108532,115107,121683,128258,134833,147984,161135,174285,186203,187436,194011,200587,207162,213737,220313,226888,233463,240039,266340,279491,292642,302505,310674
DistanceSpacing: 1.1
BeatDivisor: 8
GridSize: 16
TimelineZoom: 4.099999

[Metadata]
Title:Distance (KOAN Sound Remix)
TitleUnicode:Distance (KOAN Sound Remix)
Artist:Apashe feat. Geoffroy
ArtistUnicode:Apashe feat. Geoffroy
Creator:Akeruyri
Version:Copper Heart
Source:
Tags:English electronic breakbeat break glitch hop tech Neuro Dubstep Rennaisance Kannibalen Records TheSword
BeatmapID:2943075
BeatmapSetID:1373824

[Difficulty]
HPDrainRate:6
CircleSize:4.5
OverallDifficulty:8.8
ApproachRate:9.6
SliderMultiplier:2.2
SliderTickRate:1

[Events]
//Background and Video events
0,0,"DistanceBG.png",0,0
//Break Periods
//Storyboard Layer 0 (Background)
//Storyboard Layer 1 (Fail)
//Storyboard Layer 2 (Pass)
//Storyboard Layer 3 (Foreground)
//Storyboard Layer 4 (Overlay)
//Storyboard Sound Samples

[TimingPoints]
3327,410.958904109589,4,2,2,50,1,0
29628,-100,4,2,3,30,0,0
29936,-100,4,2,3,5,0,0
30039,-100,4,2,3,30,0,0
30347,-100,4,2,3,5,0,0
30450,-100,4,2,3,30,0,0
30758,-100,4,2,3,5,0,0
30861,-100,4,2,3,30,0,0
31169,-100,4,2,3,5,0,0
31272,-100,4,2,3,30,0,0
31580,-100,4,2,3,5,0,0
34559,-142.857142857143,4,2,3,30,0,0
34867,-100,4,2,3,5,0,0
34970,-100,4,2,3,10,0,0
35278,-100,4,2,3,5,0,0
36203,-100,4,2,3,30,0,0
36511,-100,4,2,3,5,0,0
37436,-100,4,2,3,30,0,0
37744,-100,4,2,3,5,0,0
38258,-100,4,2,3,30,0,0
38566,-100,4,2,3,5,0,0
39491,-100,4,2,3,20,0,0
40313,-100,4,2,3,30,0,0
40621,-100,4,2,3,5,0,0
40724,-100,4,2,3,30,0,0
41546,-100,4,2,3,30,0,0
41854,-100,4,2,3,5,0,0
42779,-100,4,2,3,30,0,0
43087,-100,4,2,3,5,0,0
43190,-100,4,2,3,30,0,0
43498,-100,4,2,3,5,0,0
43600,-100,4,2,3,30,0,0
43908,-100,4,2,3,5,0,0
44011,-100,4,2,3,30,0,0
44319,-100,4,2,3,5,0,0
44422,-100,4,2,3,30,0,0
47299,-100,4,2,3,30,0,0
47607,-100,4,2,3,5,0,0
47710,-100,4,2,3,30,0,0
48018,-100,4,2,3,5,0,0
49354,-100,4,1,2,60,0,0
50176,-90.9090909090909,4,1,2,60,0,0
50998,-83.3333333333333,4,1,2,60,0,0
51820,-76.9230769230769,4,1,2,60,0,0
55518,-100,4,1,2,60,0,0
55929,-66.6666666666667,4,1,2,60,0,0
56751,-50,4,3,4,60,0,0
57368,-50,4,3,4,60,0,0
57419,-50,4,3,4,5,0,0
57470,-50,4,3,4,60,0,0
57521,-50,4,3,4,5,0,0
57573,-50,4,3,4,60,0,0
57624,-50,4,3,4,5,0,0
57676,-50,4,3,4,60,0,0
57727,-50,4,3,4,5,0,0
57779,-50,4,3,4,60,0,0
57830,-50,4,3,4,5,0,0
57881,-50,4,3,4,60,0,0
57932,-50,4,3,4,5,0,0
57984,-50,4,3,4,60,0,0
58035,-50,4,3,4,5,0,0
58087,-50,4,3,4,60,0,0
58138,-50,4,3,4,5,0,0
58190,-50,4,3,4,60,0,0
58241,-50,4,3,4,5,0,0
58292,-50,4,3,4,60,0,0
58343,-50,4,3,4,5,0,0
58395,-55.5555555555556,4,3,4,60,0,0
60450,-25,4,3,4,60,0,0
60758,-28.5714285714286,4,3,4,60,0,0
60861,-31.25,4,3,4,60,0,0
60963,-33.3333333333333,4,3,4,60,0,0
61066,-37.037037037037,4,3,4,60,0,0
61169,-40,4,3,4,60,0,0
61272,-58.8235294117647,4,3,4,60,0,0
62094,-33.3333333333333,4,3,4,60,0,0
62505,-83.3333333333333,4,3,4,60,0,0
63327,-50,4,3,4,60,0,0
63737,-33.3333333333333,4,3,4,60,0,0
64559,-45.4545454545455,4,3,4,60,0,0
66100,-41.6666666666667,4,3,4,60,0,0
66152,-41.6666666666667,4,3,4,5,0,0
66203,-38.4615384615385,4,3,4,60,0,0
66255,-41.6666666666667,4,3,4,5,0,0
66306,-35.7142857142857,4,3,4,60,0,0
66357,-41.6666666666667,4,3,4,5,0,0
66409,-33.3333333333333,4,3,4,60,0,0
66460,-41.6666666666667,4,3,4,5,0,0
66511,-31.25,4,3,4,60,0,0
66563,-41.6666666666667,4,3,4,5,0,0
66614,-45.4545454545455,4,3,4,60,0,0
67642,-55.5555555555556,4,3,4,60,0,0
67693,-55.5555555555556,4,3,4,5,0,0
67744,-55.5555555555556,4,3,4,60,0,0
67796,-55.5555555555556,4,3,4,5,0,0
67847,-55.5555555555556,4,3,4,60,0,0
68669,-41.6666666666667,4,3,4,60,0,0
68772,-45.4545454545455,4,3,4,60,0,0
68874,-50,4,3,4,60,0,0
68977,-55.5555555555556,4,3,4,60,0,0
69080,-45.4545454545455,4,3,4,60,0,0
70313,-45.4545454545455,4,3,4,60,0,0
70364,-45.4545454545455,4,3,4,5,0,0
70416,-45.4545454545455,4,3,4,60,0,0
70467,-45.4545454545455,4,3,4,5,0,0
70518,-45.4545454545455,4,3,4,60,0,0
70569,-45.4545454545455,4,3,4,5,0,0
70621,-45.4545454545455,4,3,4,60,0,0
70672,-45.4545454545455,4,3,4,5,0,0
70724,-45.4545454545455,4,3,4,60,0,0
70775,-45.4545454545455,4,3,4,5,0,0
70826,-45.4545454545455,4,3,4,60,0,0
70877,-45.4545454545455,4,3,4,5,0,0
70929,-45.4545454545455,4,3,4,60,0,0
70980,-45.4545454545455,4,3,4,5,0,0
71032,-45.4545454545455,4,3,4,60,0,0
71083,-45.4545454545455,4,3,4,5,0,0
71135,-45.4545454545455,4,3,4,60,0,0
71186,-45.4545454545455,4,3,4,5,0,0
71237,-45.4545454545455,4,3,4,60,0,0
71288,-45.4545454545455,4,3,4,5,0,0
71340,-45.4545454545455,4,3,4,60,0,0
72779,-66.6666666666667,4,3,4,60,0,0
73190,-45.4545454545455,4,3,4,60,0,0
73395,-100,4,3,4,60,0,0
73600,-38.4615384615385,4,3,4,60,0,0
73806,-25,4,3,4,60,0,0
73909,-27.027027027027,4,3,4,60,0,0
74011,-29.4117647058824,4,3,4,60,0,0
74114,-32.2580645161291,4,3,4,60,0,0
74217,-35.7142857142858,4,3,4,60,0,0
74320,-38.4615384615386,4,3,4,60,0,0
74422,-45.4545454545455,4,3,4,60,0,0
74473,-45.4545454545455,4,3,4,5,0,0
74525,-45.4545454545455,4,3,4,60,0,0
74576,-45.4545454545455,4,3,4,5,0,0
74628,-45.4545454545455,4,3,4,60,0,0
74679,-45.4545454545455,4,3,4,5,0,0
74731,-45.4545454545455,4,3,4,60,0,0
74782,-45.4545454545455,4,3,4,5,0,0
74833,-34.4827586206897,4,3,4,60,0,0
75655,-38.4615384615385,4,3,4,60,0,0
77710,-50,4,3,4,60,0,0
79148,-45.4545454545455,4,3,4,60,0,0
79200,-45.4545454545455,4,3,4,5,0,0
79251,-41.6666666666667,4,3,4,60,0,0
79303,-45.4545454545455,4,3,4,5,0,0
79354,-38.4615384615385,4,3,4,60,0,0
79405,-45.4545454545455,4,3,4,5,0,0
79457,-35.7142857142857,4,3,4,60,0,0
79508,-45.4545454545455,4,3,4,5,0,0
79559,-33.3333333333333,4,3,4,60,0,0
79611,-45.4545454545455,4,3,4,5,0,0
79662,-31.25,4,3,4,60,0,0
79713,-31.25,4,3,4,5,0,0
79765,-31.25,4,3,4,60,0,0
79816,-31.25,4,3,4,5,0,0
79868,-31.25,4,3,4,60,0,0
79970,-31.25,4,3,4,60,0,0
80792,-50,4,3,4,60,0,0
80844,-50,4,3,4,5,0,0
80895,-50,4,3,4,60,0,0
80947,-50,4,3,4,5,0,0
80998,-50,4,3,4,60,0,0
81614,-50,4,3,4,60,0,0
81666,-50,4,3,4,5,0,0
81717,-50,4,3,4,60,0,0
81769,-50,4,3,4,5,0,0
81820,-50,4,3,4,60,0,0
81872,-50,4,3,4,5,0,0
81922,-50,4,3,4,60,0,0
81974,-50,4,3,4,5,0,0
82025,-100,4,3,4,60,0,0
83463,-71.4285714285714,4,3,4,50,0,0
83669,-83.3333333333333,4,3,4,50,0,0
84285,-62.5,4,3,4,50,0,0
85518,-58.8235294117647,4,3,4,50,0,0
89628,-50,4,3,4,50,0,0
90861,-45.4545454545455,4,3,4,50,0,0
91683,-62.5,4,3,4,50,0,0
92916,-45.4545454545455,4,3,4,50,0,0
93326,-38.4615384615385,4,3,4,50,0,0
95381,-50,4,3,4,50,0,0
100826,-43.4782608695652,4,3,4,50,0,0
101135,-33.3333333333333,4,3,4,50,0,0
101957,-45.4545454545455,4,3,4,50,0,0
103190,-62.5,4,3,4,50,0,0
104833,-45.4545454545455,4,3,4,50,0,0
106272,-66.6666666666667,4,3,4,50,0,0
106477,-40,4,3,4,50,0,0
108121,-62.5,4,3,4,50,0,0
109354,-45.4545454545455,4,3,4,50,0,0
109970,-40,4,3,4,70,0,0
110022,-40,4,3,4,5,0,0
110073,-40,4,3,4,70,0,0
110125,-40,4,3,4,5,0,0
110176,-40,4,3,4,70,0,0
110228,-40,4,3,4,5,0,0
110279,-40,4,3,4,70,0,0
110331,-40,4,3,4,5,0,0
110381,-40,4,3,4,70,0,0
110433,-40,4,3,4,5,0,0
110484,-40,4,3,4,70,0,0
110536,-40,4,3,4,5,0,0
110587,-40,4,3,4,70,0,0
110639,-40,4,3,4,5,0,0
110690,-40,4,3,4,70,0,0
110742,-40,4,3,4,5,0,0
110792,-40,4,3,4,70,0,0
110844,-40,4,3,4,5,0,0
110895,-40,4,3,4,70,0,0
110947,-40,4,3,4,5,0,0
110998,-40,4,3,4,70,0,0
111409,-50,4,3,4,70,0,0
111820,-71.4285714285714,4,3,4,70,0,0
112642,-50,4,3,4,70,0,0
113053,-25,4,3,4,70,0,0
113463,-27.7777777777778,4,3,4,70,0,0
113566,-29.4117647058824,4,3,4,70,0,0
113618,-29.4117647058824,4,3,4,50,0,0
113669,-31.25,4,3,4,70,0,0
113720,-31.25,4,3,4,30,0,0
113772,-31.25,4,3,4,70,0,0
113824,-31.25,4,3,4,5,0,0
113874,-31.25,4,3,4,70,0,0
113926,-31.25,4,3,4,5,0,0
113977,-31.25,4,3,4,70,0,0
114029,-31.25,4,3,4,5,0,0
114080,-31.25,4,3,4,70,0,0
114132,-31.25,4,3,4,5,0,0
114183,-31.25,4,3,4,70,0,0
114235,-31.25,4,3,4,5,0,0
114285,-41.6666666666667,4,3,4,70,0,0
116340,-34.4827586206897,4,3,4,70,0,0
117162,-41.6666666666667,4,3,4,70,0,0
117573,-31.25,4,3,4,70,0,0
117984,-45.4545454545455,4,3,4,70,0,0
118652,-45.4545454545455,4,3,4,5,0,0
118703,-41.6666666666667,4,3,4,70,0,0
118755,-45.4545454545455,4,3,4,5,0,0
118806,-38.4615384615385,4,3,4,70,0,0
118857,-45.4545454545455,4,3,4,5,0,0
118909,-35.7142857142857,4,3,4,70,0,0
118960,-45.4545454545455,4,3,4,5,0,0
119011,-33.3333333333333,4,3,4,70,0,0
119063,-45.4545454545455,4,3,4,5,0,0
119114,-31.25,4,3,4,70,0,0
119166,-45.4545454545455,4,3,4,5,0,0
119217,-45.4545454545455,4,3,4,70,0,0
120244,-50,4,3,4,70,0,0
120296,-50,4,3,4,5,0,0
120347,-50,4,3,4,70,0,0
120398,-50,4,3,4,5,0,0
120450,-45.4545454545455,4,3,4,70,0,0
120861,-37.037037037037,4,3,4,70,0,0
121066,-45.4545454545455,4,3,4,70,0,0
121169,-45.4545454545455,4,3,4,70,0,0
121272,-50,4,3,4,70,0,0
121374,-50,4,3,4,70,0,0
121477,-55.5555555555556,4,3,4,70,0,0
121580,-55.5555555555556,4,3,4,70,0,0
121683,-55.5555555555556,4,3,4,70,0,0
122505,-33.3333333333333,4,3,4,70,0,0
122916,-30.3030303030303,4,3,4,70,0,0
122967,-30.3030303030303,4,3,4,5,0,0
123018,-30.3030303030303,4,3,4,70,0,0
123069,-30.3030303030303,4,3,4,5,0,0
123121,-30.3030303030303,4,3,4,70,0,0
123172,-30.3030303030303,4,3,4,5,0,0
123224,-30.3030303030303,4,3,4,70,0,0
123275,-30.3030303030303,4,3,4,5,0,0
123326,-30.3030303030303,4,3,4,70,0,0
123377,-30.3030303030303,4,3,4,5,0,0
123429,-30.3030303030303,4,3,4,70,0,0
123480,-30.3030303030303,4,3,4,5,0,0
123532,-30.3030303030303,4,3,4,70,0,0
123583,-30.3030303030303,4,3,4,5,0,0
123635,-30.3030303030303,4,3,4,70,0,0
123686,-30.3030303030303,4,3,4,5,0,0
123737,-38.4615384615385,4,3,4,70,0,0
123789,-38.4615384615385,4,3,4,5,0,0
123840,-38.4615384615385,4,3,4,70,0,0
123892,-38.4615384615385,4,3,4,5,0,0
123943,-38.4615384615385,4,3,4,70,0,0
123994,-38.4615384615385,4,3,4,5,0,0
124046,-38.4615384615385,4,3,4,70,0,0
124097,-38.4615384615385,4,3,4,5,0,0
124148,-41.6666666666667,4,3,4,70,0,0
124970,-50,4,3,4,70,0,0
125792,-41.6666666666667,4,3,4,70,0,0
125998,-100,4,3,4,70,0,0
126203,-41.6666666666667,4,3,4,70,0,0
126409,-25,4,3,4,70,0,0
126460,-25,4,3,4,5,0,0
126511,-25,4,3,4,70,0,0
126563,-25,4,3,4,5,0,0
126614,-25,4,3,4,70,0,0
126666,-25,4,3,4,5,0,0
126717,-25,4,3,4,70,0,0
126769,-25,4,3,4,5,0,0
126820,-25,4,3,4,70,0,0
126872,-25,4,3,4,5,0,0
126922,-25,4,3,4,70,0,0
126974,-25,4,3,4,5,0,0
127025,-33.3333333333333,4,3,4,70,0,0
127076,-33.3333333333333,4,3,4,5,0,0
127128,-33.3333333333333,4,3,4,70,0,0
127179,-33.3333333333333,4,3,4,5,0,0
127231,-33.3333333333333,4,3,4,70,0,0
127282,-33.3333333333333,4,3,4,5,0,0
127333,-33.3333333333333,4,3,4,70,0,0
127384,-33.3333333333333,4,3,4,5,0,0
127436,-40,4,3,4,70,0,0
129491,-45.4545454545455,4,3,4,70,0,0
129902,-83.3333333333333,4,3,4,70,0,0
130929,-62.5,4,3,4,70,0,0
131546,-50,4,3,4,70,0,0
131597,-45.4545454545455,4,3,4,5,0,0
131648,-45.4545454545455,4,3,4,70,0,0
131700,-45.4545454545455,4,3,4,5,0,0
131751,-41.6666666666667,4,3,4,70,0,0
131803,-45.4545454545455,4,3,4,5,0,0
131854,-41.6666666666667,4,3,4,70,0,0
131905,-45.4545454545455,4,3,4,5,0,0
131957,-38.4615384615385,4,3,4,70,0,0
132008,-45.4545454545455,4,3,4,5,0,0
132059,-37.037037037037,4,3,4,70,0,0
132111,-45.4545454545455,4,3,4,5,0,0
132162,-50,4,3,4,70,0,0
132265,-32.258064516129,4,3,4,70,0,0
132779,-55.5555555555556,4,3,4,70,0,0
133600,-66.6666666666667,4,3,4,60,0,0
133652,-66.6666666666667,4,3,4,5,0,0
133703,-66.6666666666667,4,3,4,60,0,0
133755,-66.6666666666667,4,3,4,5,0,0
133806,-66.6666666666667,4,3,4,60,0,0
133858,-66.6666666666667,4,3,4,5,0,0
133909,-66.6666666666667,4,3,4,60,0,0
133961,-66.6666666666667,4,3,4,5,0,0
134011,-41.6666666666667,4,3,4,60,0,0
134217,-47.6190476190476,4,3,4,50,0,0
134422,-55.5555555555556,4,3,4,45,0,0
134628,-66.6666666666667,4,3,4,40,0,0
134833,-100,4,3,4,40,0,0
134885,-100,4,3,4,15,0,0
134936,-100,4,3,4,20,0,0
134987,-100,4,3,4,25,0,0
135039,-100,4,3,4,35,0,0
135090,-100,4,3,4,50,0,0
135142,-100,4,3,4,70,0,0
135193,-100,4,3,4,95,0,0
135244,-100,4,3,4,5,0,0
135655,-100,4,3,4,60,0,0
142642,-71.4285714285714,4,3,4,60,0,0
144285,-83.3333333333333,4,3,4,60,0,0
144491,-111.111111111111,4,3,4,60,0,0
145724,-58.8235294117647,4,3,4,60,0,0
145929,-50,4,3,4,60,0,0
149217,-62.5,4,3,4,60,0,0
153737,-41.6666666666667,4,3,4,60,0,0
154559,-100,4,3,4,60,0,0
155792,-55.5555555555556,4,3,4,60,0,0
156203,-71.4285714285714,4,3,4,60,0,0
156614,-55.5555555555556,4,3,4,60,0,0
157025,-71.4285714285714,4,3,4,60,0,0
157487,-100,4,3,4,60,0,0
157693,-125,4,3,4,60,0,0
157847,-50,4,3,4,60,0,0
158053,-55.5555555555556,4,3,4,60,0,0
158258,-66.6666666666667,4,3,4,60,0,0
158463,-83.3333333333333,4,3,4,60,0,0
162368,-166.666666666667,4,2,2,60,0,0
162779,-111.111111111111,4,2,2,60,0,0
163806,-166.666666666667,4,2,2,60,0,0
167710,-100,4,2,2,60,0,0
168943,-250,4,2,2,60,0,0
169559,-125,4,2,2,60,0,0
170587,-100,4,2,2,60,0,0
170792,-83.3333333333333,4,2,2,60,0,0
174285,-125,4,3,4,40,0,0
174696,-142.857142857143,4,3,4,40,0,0
175107,-166.666666666667,4,3,4,40,0,0
175518,-200,4,3,4,40,0,0
177573,-125,4,3,4,40,0,0
179628,-200,4,3,4,40,0,0
180039,-333.333333333333,4,3,4,40,0,0
180861,-100,4,3,4,40,0,0
181272,-133.333333333333,4,3,4,40,0,0
182094,-200,4,3,4,40,0,0
183327,-333.333333333334,4,3,4,40,0,0
186203,-33.3333333333333,4,3,5,60,0,0
186614,-33.3333333333333,4,3,5,5,0,0
186820,-43.4782608695652,4,3,5,60,0,0
187436,-76.9230769230769,4,3,5,70,0,0
187744,-33.3333333333333,4,3,5,5,0,0
187847,-90.9090909090909,4,3,5,70,0,0
188155,-33.3333333333333,4,3,5,5,0,0
188258,-55.5555555555556,4,3,5,70,0,0
188566,-33.3333333333333,4,3,5,5,0,0
188669,-55.5555555555556,4,3,5,70,0,0
188772,-33.3333333333333,4,3,5,5,0,0
188874,-76.9230769230769,4,3,5,70,0,0
188977,-33.3333333333333,4,3,5,5,0,0
189080,-76.9230769230769,4,3,5,70,0,0
189799,-33.3333333333333,4,3,5,5,0,0
189902,-76.9230769230769,4,3,5,70,0,0
190005,-33.3333333333333,4,3,5,5,0,0
190107,-50,4,3,5,70,0,0
190210,-33.3333333333333,4,3,5,5,0,0
190313,-45.4545454545455,4,3,5,70,0,0
190416,-33.3333333333333,4,3,5,5,0,0
190518,-41.6666666666667,4,3,5,70,0,0
190621,-33.3333333333333,4,3,5,5,0,0
190724,-76.9230769230769,4,3,5,70,0,0
191032,-33.3333333333333,4,3,5,5,0,0
191135,-111.111111111111,4,3,5,70,0,0
191443,-33.3333333333333,4,3,5,5,0,0
191546,-55.5555555555556,4,3,5,70,0,0
191854,-33.3333333333333,4,3,5,5,0,0
191957,-66.6666666666667,4,3,5,70,0,0
192265,-33.3333333333333,4,3,5,5,0,0
192368,-66.6666666666667,4,3,5,70,0,0
192779,-76.9230769230769,4,3,5,70,0,0
193087,-33.3333333333333,4,3,5,5,0,0
193190,-47.6190476190476,4,3,5,70,0,0
193498,-33.3333333333333,4,3,5,5,0,0
193600,-47.6190476190476,4,3,5,70,0,0
193703,-33.3333333333333,4,3,5,5,0,0
193806,-40,4,3,5,70,0,0
193909,-33.3333333333333,4,3,5,5,0,0
194011,-100,4,3,5,70,0,0
194320,-33.3333333333333,4,3,5,5,0,0
194422,-71.4285714285714,4,3,5,70,0,0
194731,-33.3333333333333,4,3,5,5,0,0
194833,-100,4,3,5,70,0,0
195142,-33.3333333333333,4,3,5,5,0,0
195244,-55.5555555555556,4,3,5,70,0,0
195553,-33.3333333333333,4,3,5,5,0,0
195655,-100,4,3,5,70,0,0
195964,-33.3333333333333,4,3,5,5,0,0
196066,-45.4545454545455,4,3,5,70,0,0
196375,-33.3333333333333,4,3,5,5,0,0
196477,-83.3333333333333,4,3,5,70,0,0
196786,-33.3333333333333,4,3,5,5,0,0
196888,-38.4615384615385,4,3,5,70,0,0
197197,-33.3333333333333,4,3,5,5,0,0
197299,-71.4285714285714,4,3,5,70,0,0
197608,-33.3333333333333,4,3,5,5,0,0
197710,-35.7142857142857,4,3,5,70,0,0
198019,-33.3333333333333,4,3,5,5,0,0
198121,-71.4285714285714,4,3,5,70,0,0
198429,-33.3333333333333,4,3,5,5,0,0
198532,-33.3333333333333,4,3,5,70,0,0
198840,-33.3333333333333,4,3,5,5,0,0
198943,-66.6666666666667,4,3,5,70,0,0
199251,-33.3333333333333,4,3,5,5,0,0
199354,-90.9090909090909,4,3,5,70,0,0
199457,-33.3333333333333,4,3,5,5,0,0
199559,-76.9230769230769,4,3,5,70,0,0
199662,-33.3333333333333,4,3,5,5,0,0
199765,-50,4,3,5,70,0,0
200073,-33.3333333333333,4,3,5,5,0,0
200176,-50,4,3,5,70,0,0
200279,-33.3333333333333,4,3,5,5,0,0
200381,-41.6666666666667,4,3,5,70,0,0
200484,-33.3333333333333,4,3,5,5,0,0
200587,-41.6666666666667,4,3,5,70,0,0
200998,-76.9230769230769,4,3,5,70,0,0
201101,-33.3333333333333,4,3,5,5,0,0
201203,-76.9230769230769,4,3,5,70,0,0
201306,-33.3333333333333,4,3,5,5,0,0
201409,-76.9230769230769,4,3,5,70,0,0
201460,-76.9230769230769,4,3,5,50,0,0
201820,-66.6666666666667,4,3,5,70,0,0
201923,-33.3333333333333,4,3,5,5,0,0
202025,-66.6666666666667,4,3,5,70,0,0
202128,-33.3333333333333,4,3,5,5,0,0
202231,-66.6666666666667,4,3,5,70,0,0
202642,-58.8235294117647,4,3,5,70,0,0
202745,-33.3333333333333,4,3,5,5,0,0
202847,-58.8235294117647,4,3,5,70,0,0
202950,-33.3333333333333,4,3,5,5,0,0
203053,-58.8235294117647,4,3,5,70,0,0
203874,-76.9230769230769,4,3,5,70,0,0
204285,-71.4285714285714,4,3,5,70,0,0
204388,-33.3333333333333,4,3,5,5,0,0
204491,-71.4285714285714,4,3,5,70,0,0
204594,-33.3333333333333,4,3,5,5,0,0
204696,-71.4285714285714,4,3,5,70,0,0
205107,-66.6666666666667,4,3,5,70,0,0
205518,-76.9230769230769,4,3,5,70,0,0
207162,-62.5,4,3,5,70,0,0
207573,-55.5555555555556,4,3,5,70,0,0
211272,-45.4545454545455,4,3,5,70,0,0
211306,-33.3333333333333,4,3,5,5,0,0
211409,-45.4545454545455,4,3,5,70,0,0
211443,-33.3333333333333,4,3,5,5,0,0
211546,-45.4545454545455,4,3,5,70,0,0
211580,-33.3333333333333,4,3,5,5,0,0
211683,-41.6666666666667,4,3,5,70,0,0
211717,-33.3333333333333,4,3,5,5,0,0
211820,-41.6666666666667,4,3,5,70,0,0
211888,-33.3333333333333,4,3,5,5,0,0
211957,-41.6666666666667,4,3,5,70,0,0
212025,-33.3333333333333,4,3,5,5,0,0
212094,-38.4615384615385,4,3,5,70,0,0
212162,-33.3333333333333,4,3,5,5,0,0
212231,-38.4615384615385,4,3,5,70,0,0
212299,-33.3333333333333,4,3,5,5,0,0
212368,-38.4615384615385,4,3,5,70,0,0
212436,-33.3333333333333,4,3,5,5,0,0
212505,-35.7142857142857,4,3,5,70,0,0
212573,-33.3333333333333,4,3,5,5,0,0
212642,-35.7142857142857,4,3,5,70,0,0
212710,-33.3333333333333,4,3,5,5,0,0
212779,-35.7142857142857,4,3,5,70,0,0
212847,-33.3333333333333,4,3,5,5,0,0
212916,-38.4615384615385,4,3,5,70,0,0
213737,-76.9230769230769,4,3,5,70,0,0
214046,-33.3333333333333,4,3,5,5,0,0
214148,-90.9090909090909,4,3,5,70,0,0
214457,-33.3333333333333,4,3,5,5,0,0
214559,-55.5555555555556,4,3,5,70,0,0
214868,-33.3333333333333,4,3,5,5,0,0
214970,-45.4545454545455,4,3,5,70,0,0
215279,-33.3333333333333,4,3,5,5,0,0
215381,-111.111111111111,4,3,5,70,0,0
215690,-33.3333333333333,4,3,5,5,0,0
215792,-58.8235294117647,4,3,5,70,0,0
216100,-33.3333333333333,4,3,5,5,0,0
216203,-76.9230769230769,4,3,5,70,0,0
216306,-33.3333333333333,4,3,5,5,0,0
216408,-58.8235294117647,4,3,5,70,0,0
216511,-33.3333333333333,4,3,5,5,0,0
216614,-52.6315789473684,4,3,5,70,0,0
216717,-33.3333333333333,4,3,5,5,0,0
216819,-47.6190476190476,4,3,5,70,0,0
216922,-33.3333333333333,4,3,5,5,0,0
217025,-76.9230769230769,4,3,5,70,0,0
217333,-33.3333333333333,4,3,5,5,0,0
217436,-111.111111111111,4,3,5,70,0,0
217744,-33.3333333333333,4,3,5,5,0,0
217847,-55.5555555555556,4,3,5,70,0,0
218155,-33.3333333333333,4,3,5,5,0,0
218258,-38.4615384615385,4,3,5,70,0,0
218566,-33.3333333333333,4,3,5,5,0,0
218669,-66.6666666666667,4,3,5,70,0,0
219388,-33.3333333333333,4,3,5,5,0,0
219491,-47.6190476190476,4,3,5,70,0,0
219799,-33.3333333333333,4,3,5,5,0,0
219901,-52.6315789473684,4,3,5,70,0,0
220004,-33.3333333333333,4,3,5,5,0,0
220107,-41.6666666666667,4,3,5,70,0,0
220210,-33.3333333333333,4,3,5,5,0,0
220312,-100,4,3,5,70,0,0
220621,-33.3333333333333,4,3,5,5,0,0
220723,-71.4285714285714,4,3,5,70,0,0
221032,-33.3333333333333,4,3,5,5,0,0
221134,-100,4,3,5,70,0,0
221443,-33.3333333333333,4,3,5,5,0,0
221545,-55.5555555555556,4,3,5,70,0,0
221854,-33.3333333333333,4,3,5,5,0,0
221956,-100,4,3,5,70,0,0
222265,-33.3333333333333,4,3,5,5,0,0
222367,-45.4545454545455,4,3,5,70,0,0
222676,-33.3333333333333,4,3,5,5,0,0
222778,-83.3333333333333,4,3,5,70,0,0
223087,-33.3333333333333,4,3,5,5,0,0
223189,-38.4615384615385,4,3,5,70,0,0
223498,-33.3333333333333,4,3,5,5,0,0
223600,-71.4285714285714,4,3,5,70,0,0
223909,-33.3333333333333,4,3,5,5,0,0
224011,-35.7142857142857,4,3,5,70,0,0
224320,-33.3333333333333,4,3,5,5,0,0
224422,-71.4285714285714,4,3,5,70,0,0
224731,-33.3333333333333,4,3,5,5,0,0
224833,-33.3333333333333,4,3,5,70,0,0
225141,-33.3333333333333,4,3,5,5,0,0
225244,-66.6666666666667,4,3,5,70,0,0
225552,-33.3333333333333,4,3,5,5,0,0
225655,-90.9090909090909,4,3,5,70,0,0
225758,-33.3333333333333,4,3,5,5,0,0
225860,-76.9230769230769,4,3,5,70,0,0
225963,-33.3333333333333,4,3,5,5,0,0
226066,-31.25,4,3,5,70,0,0
226374,-33.3333333333333,4,3,5,5,0,0
226477,-33.3333333333333,4,3,5,70,0,0
226785,-33.3333333333333,4,3,5,5,0,0
226888,-66.6666666666667,4,3,5,70,0,0
227299,-76.9230769230769,4,3,5,70,0,0
227402,-33.3333333333333,4,3,5,5,0,0
227504,-76.9230769230769,4,3,5,70,0,0
227607,-33.3333333333333,4,3,5,5,0,0
227710,-76.9230769230769,4,3,5,70,0,0
228121,-66.6666666666667,4,3,5,70,0,0
228943,-58.8235294117647,4,3,5,70,0,0
230175,-76.9230769230769,4,3,5,70,0,0
230586,-71.4285714285714,4,3,5,70,0,0
231408,-66.6666666666667,4,3,5,70,0,0
231819,-76.9230769230769,4,3,5,70,0,0
232642,-142.857142857143,4,3,5,70,0,0
233463,-62.5,4,3,5,70,0,0
233874,-55.5555555555556,4,3,5,70,0,0
237573,-45.4545454545455,4,3,5,70,0,0
237641,-33.3333333333333,4,3,5,5,0,0
237710,-45.4545454545455,4,3,5,70,0,0
237778,-33.3333333333333,4,3,5,5,0,0
237847,-45.4545454545455,4,3,5,70,0,0
237915,-33.3333333333333,4,3,5,5,0,0
237984,-41.6666666666667,4,3,5,70,0,0
238052,-33.3333333333333,4,3,5,5,0,0
238121,-41.6666666666667,4,3,5,70,0,0
238189,-33.3333333333333,4,3,5,5,0,0
238258,-41.6666666666667,4,3,5,70,0,0
238326,-33.3333333333333,4,3,5,5,0,0
238395,-38.4615384615385,4,3,5,70,0,0
238463,-33.3333333333333,4,3,5,5,0,0
238532,-38.4615384615385,4,3,5,70,0,0
238600,-33.3333333333333,4,3,5,5,0,0
238669,-38.4615384615385,4,3,5,70,0,0
238737,-33.3333333333333,4,3,5,5,0,0
238806,-38.4615384615385,4,3,5,70,0,0
238874,-33.3333333333333,4,3,5,5,0,0
238943,-35.7142857142857,4,3,5,70,0,0
239011,-33.3333333333333,4,3,5,5,0,0
239080,-35.7142857142857,4,3,5,70,0,0
239148,-33.3333333333333,4,3,5,5,0,0
239217,-100,4,3,5,70,0,0
240039,-38.4615384615385,4,3,6,90,0,1
266340,-71.4285714285714,4,3,6,70,0,0
266366,-71.4285714285714,4,2,2,60,0,0
269320,-100,4,2,2,60,0,0
279080,-166.666666666667,4,2,2,60,0,0
279491,-166.666666666667,4,2,2,50,0,0
283155,-166.666666666667,4,2,2,40,0,0
286066,-200,4,2,2,35,0,0
286477,-333.333333333333,4,2,2,35,0,0
286529,-333.333333333333,4,2,2,5,0,0
289354,-200,4,2,2,35,0,0
289559,-133.333333333333,4,2,2,35,0,0
289765,-200,4,2,2,25,0,0
289970,-250,4,2,2,25,0,0
290022,-200,4,2,2,5,0,0
292744,-200,4,2,2,20,0,0
293155,-333.333333333333,4,2,2,20,0,0
293207,-500,4,2,2,5,0,0
295929,-500,4,2,2,20,0,0
296135,-500,4,2,2,5,0,0
296237,-500,4,2,2,20,0,0
296263,-500,4,2,2,5,0,0
299217,-500,4,2,2,20,0,0
299251,-200,4,2,2,5,0,0
302505,-263.157894736842,4,2,4,25,0,0
302539,-200,4,2,3,5,0,0

[Colours]
Combo1 : 82,197,151
Combo2 : 247,134,60
Combo3 : 214,164,48
Combo4 : 236,201,94
Combo5 : 204,201,132
Combo6 : 167,200,130
Combo7 : 142,183,57
Combo8 : 91,189,116

[HitObjects]
222,282,3327,6,0,B|252:280|275:263|275:263|305:255|338:266,1,110,8|0,0:0|0:0,0:0:0:0:
401,353,3737,2,0,P|442:343|463:281,1,110,2|0,0:0|0:0,0:0:0:0:
293,342,4148,1,12,0:3:0:0:
217,268,4559,5,2,0:0:0:0:
204,189,4765,1,0,0:0:0:0:
229,118,4970,1,2,0:0:0:0:
225,260,5176,5,8,0:0:0:0:
58,105,5381,2,0,P|94:95|156:137,1,110,8|0,0:0|0:0,0:0:0:0:
111,277,5792,5,12,0:3:0:0:
19,203,5998,1,2,0:0:0:0:
48,186,6100,1,2,0:0:0:0:
82,196,6203,1,2,0:0:0:0:
146,363,6409,1,8,0:0:0:0:
240,173,6614,6,0,B|303:132|367:188|364:237|364:237|353:197|325:182,1,220,8|0,0:0|0:0,0:0:0:0:
345,89,7231,1,2,0:0:0:0:
294,338,7436,6,0,B|270:343|262:319|262:319|291:245,1,110,12|0,0:3|0:0,0:0:0:0:
440,355,7847,1,2,0:0:0:0:
430,281,8053,1,2,0:0:0:0:
415,188,8258,1,2,0:0:0:0:
504,317,8463,5,8,0:0:0:0:
486,321,8566,1,2,0:0:0:0:
419,355,8669,1,8,0:0:0:0:
402,350,8772,1,2,0:0:0:0:
325,353,8874,1,2,0:0:0:0:
396,94,9080,5,12,0:3:0:0:
146,63,9285,5,8,0:0:0:0:
147,90,9388,1,2,0:0:0:0:
183,240,9594,5,8,0:0:0:0:
208,252,9696,1,2,0:0:0:0:
38,145,9902,6,0,B|33:175|71:198|122:189,1,110,10|0,0:0|0:0,0:0:0:0:
173,34,10313,6,0,P|210:74|262:91,1,110,2|0,0:0|0:0,0:0:0:0:
464,147,10724,2,0,P|369:143|248:184,2,220,12|0|0,0:3|0:0|0:0,0:0:0:0:
311,25,11751,5,8,0:0:0:0:
476,141,11957,2,0,B|508:114|499:85|448:37|497:102|483:120,1,110,10|0,0:0|0:0,0:0:0:0:
372,86,12368,6,0,B|391:141|355:142|373:201,1,110,8|0,0:3|0:0,0:0:0:0:
405,259,12676,1,2,0:0:0:0:
419,263,12779,1,6,0:0:0:0:
431,271,12984,5,2,0:0:0:0:
381,270,13087,1,0,0:0:0:0:
342,302,13190,2,0,B|391:329|420:379|420:379|405:325|411:268,1,220,10|8,0:0|0:0,0:0:0:0:
282,237,13806,1,2,0:0:0:0:
152,352,14011,6,0,B|200:316|212:352|263:313,1,110,12|0,0:3|0:0,0:0:0:0:
286,225,14320,1,8,0:3:0:0:
284,210,14422,1,2,0:0:0:0:
189,124,14628,1,2,0:0:0:0:
207,253,14833,1,2,0:0:0:0:
462,183,15039,5,8,0:0:0:0:
460,161,15142,1,2,0:0:0:0:
402,116,15244,5,8,0:0:0:0:
403,92,15347,1,2,0:0:0:0:
412,69,15450,1,2,0:0:0:0:
424,59,15553,1,0,0:0:0:0:
432,48,15655,1,12,0:3:0:0:
403,182,15861,5,8,0:0:0:0:
311,99,16066,5,2,0:0:0:0:
307,83,16169,1,14,0:0:0:0:
47,247,16374,5,2,0:0:0:0:
26,228,16477,2,0,B|29:192|57:166|57:166|37:71|3:118|48:152,1,165,14|0,0:0|0:0,0:0:0:0:
98,303,16888,5,2,0:0:0:0:
99,333,16991,2,0,B|48:332|48:332|0:298,1,110,2|0,0:0|0:0,0:0:0:0:
112,227,17299,1,12,0:3:0:0:
497,346,17710,1,2,0:0:0:0:
294,223,17916,5,2,0:0:0:0:
263,163,18018,1,2,0:0:0:0:
272,88,18121,1,10,0:0:0:0:
286,366,18326,5,8,0:0:0:0:
176,89,18532,1,10,0:0:0:0:
128,296,18737,1,8,0:0:0:0:
14,201,18943,6,0,B|12:257|54:308|54:308|39:278|42:253,1,165,12|0,0:3|0:0,0:0:0:0:
93,201,19354,5,2,0:0:0:0:
118,162,19457,1,0,0:0:0:0:
123,138,19559,1,2,0:0:0:0:
114,118,19662,1,0,0:0:0:0:
114,100,19765,2,0,B|94:87|71:87|71:87|40:111|-4:107,1,110,14|4,0:0|0:0,0:0:0:0:
164,223,20073,5,2,0:0:0:0:
182,297,20176,2,0,B|225:334|300:329|300:329|274:327|248:319,1,165,14|0,0:0|0:0,0:0:0:0:
222,142,20587,6,0,P|213:89|244:45,1,110,10|0,0:0|0:0,0:0:0:0:
348,61,20895,5,10,0:0:0:0:
280,17,20998,2,0,P|229:37|200:83,2,110,10|0|0,0:0|0:0|0:0,0:0:0:0:
115,21,21614,5,10,0:0:0:0:
349,98,21820,1,10,0:0:0:0:
372,97,21922,1,2,0:0:0:0:
392,88,22025,1,2,0:0:0:0:
405,69,22128,1,2,0:0:0:0:
352,8,22231,6,0,P|348:39|387:151,1,110,12|0,0:3|0:0,0:0:0:0:
441,190,22539,5,2,0:0:0:0:
450,214,22642,1,6,0:0:0:0:
274,260,22847,5,2,0:0:0:0:
324,276,22950,1,2,0:0:0:0:
363,260,23053,2,0,L|374:196,1,55,10|0,0:0|0:0,0:0:0:0:
388,134,23258,5,2,0:0:0:0:
238,21,23463,2,0,B|314:63|320:1|421:65,1,165,2|0,0:0|0:0,0:0:0:0:
400,60,23874,1,8,0:3:0:0:
140,0,24285,5,2,0:0:0:0:
296,213,24491,1,2,0:0:0:0:
297,192,24594,1,2,0:0:0:0:
291,169,24696,1,10,0:0:0:0:
125,133,24902,6,0,P|156:127|190:147,1,55,14|0,0:0|0:0,0:0:0:0:
296,296,25107,2,0,B|277:356|183:345|169:243,1,165,12|0,0:3|0:0,0:0:0:0:
212,204,25518,1,8,0:3:0:0:
368,140,25724,5,2,0:0:0:0:
391,153,25826,1,2,0:0:0:0:
419,153,25929,1,10,0:0:0:0:
128,91,26135,5,2,0:0:0:0:
384,0,26340,2,0,B|349:0|339:18|339:18|337:70|269:120,1,165,14|0,0:0|0:0,0:0:0:0:
204,90,26751,1,8,0:0:0:0:
153,346,26957,1,2,0:0:0:0:
186,345,27059,1,2,0:0:0:0:
226,326,27162,1,12,0:3:0:0:
155,221,27368,5,2,0:0:0:0:
156,187,27470,1,12,0:3:0:0:
47,280,27676,5,2,0:0:0:0:
33,305,27779,1,14,0:0:0:0:
176,384,27984,5,10,0:0:0:0:
208,197,28190,5,10,0:0:0:0:
202,185,28292,1,2,0:0:0:0:
131,194,28395,5,10,0:0:0:0:
76,234,28498,1,2,0:0:0:0:
58,270,28600,1,2,0:0:0:0:
59,309,28703,1,2,0:0:0:0:
76,330,28806,1,12,0:3:0:0:
164,109,29114,5,2,0:0:0:0:
160,85,29217,1,14,0:0:0:0:
209,334,29422,1,2,0:0:0:0:
478,278,29628,6,0,B|517:215|418:197|454:324,1,165,4|0,0:0|0:0,0:0:0:0:
327,320,30039,2,0,B|272:370|237:276|369:290,1,165
408,177,30450,2,0,B|416:164|459:154|459:154|405:154|368:204,1,165,4|0,0:0|0:0,0:0:0:0:
288,215,30861,2,0,B|229:333|329:333|302:264,1,165
261,137,31272,6,0,B|131:224|58:25|170:-72|487:48|498:194|498:194|387:141|354:-9|470:5|445:79,1,880,4|0,0:0|0:0,0:0:0:0:
74,110,34559,6,0,B|43:59|93:51|59:-6,1,115.49999647522,4|0,0:0|0:0,0:0:0:0:
256,192,34970,12,0,36100,0:0:0:0:
129,116,36203,6,0,B|62:183|-25:107|-21:180|51:179|51:179|92:168|128:65|174:185|307:71,1,467.5,4|0,0:0|0:0,0:0:0:0:
178,281,37436,6,0,B|261:193|159:30|-44:165|134:316|181:262,1,385,4|0,0:0|0:0,0:0:0:0:
349,354,38258,2,0,B|355:418|218:414|237:230|372:141|233:69|233:69|298:153|256:324|397:185|313:171,1,660,4|4,0:0|0:0,0:0:0:0:
147,258,40313,5,0,0:0:0:0:
145,283,40416,2,0,B|69:299|69:299|114:281,1,110,0|0,0:0|0:0,0:0:0:0:
173,210,40724,2,0,P|200:220|218:240,1,55,0|0,0:0|0:0,0:0:0:0:
283,277,40929,2,0,P|288:305|281:331,2,55
279,43,41546,6,0,B|319:-7|236:-24|232:83|232:83|538:-12|546:166|329:241|446:96|273:70,1,605,4|0,0:0|0:0,0:0:0:0:
156,94,42779,6,0,B|84:84|39:123|64:140|64:140|75:116|140:99,1,165,8|0,0:0|0:0,0:0:0:0:
77,86,43190,2,0,B|10:115|-44:89|-24:66|-24:66|-7:86|60:86,1,165,8|0,0:0|0:0,0:0:0:0:
152,164,43600,2,0,B|190:176|215:219|215:219|199:171|211:132,1,165,8|0,0:0|0:0,0:0:0:0:
284,135,44011,6,0,P|359:69|310:8,1,165,12|0,0:0|0:0,0:0:0:0:
247,10,44422,1,4,0:0:0:0:
288,154,44628,1,8,0:0:0:0:
451,142,45039,5,8,0:0:0:0:
461,128,45142,1,8,0:0:0:0:
479,113,45244,1,8,0:0:0:0:
382,233,45450,5,8,0:0:0:0:
388,257,45553,1,8,0:0:0:0:
411,281,45655,1,8,0:0:0:0:
389,17,46066,6,0,B|410:49|401:98|401:98|389:84|388:64,1,110,12|0,0:0|0:0,0:0:0:0:
282,108,46374,2,0,B|283:69|319:35|319:35|321:53|315:60,1,110,8|0,0:0|0:0,0:0:0:0:
302,218,46683,2,0,B|278:247|228:254|228:254|238:238|247:236,1,110,8|0,0:0|0:0,0:0:0:0:
349,296,46991,2,0,B|385:285|429:309|429:309|412:316|404:313,1,110,8|0,0:0|0:0,0:0:0:0:
443,299,47299,2,0,B|397:285|385:240|385:240|427:252|446:298,1,165,8|0,0:0|0:0,0:0:0:0:
310,216,47710,6,0,B|303:297|247:319|247:319|279:285|290:215|290:215|326:149|346:179|384:145|384:145|344:212|188:181|122:17|341:-85|405:18|347:94|318:85,1,770,12|0,0:0|0:0,0:0:0:0:
432,63,49354,6,0,P|455:78|481:88,1,55,8|0,0:0|0:0,0:0:0:0:
362,81,49559,2,0,P|375:105|396:124,1,55,8|0,0:0|0:0,0:0:0:0:
292,82,49765,2,0,P|299:109|311:134,1,55,8|0,0:0|0:0,0:0:0:0:
226,67,49970,2,0,P|227:95|233:122,1,55,8|0,0:0|0:0,0:0:0:0:
72,134,50176,6,0,P|107:131|138:120,1,60.5000018463135,8|0,0:0|0:0,0:0:0:0:
168,189,50381,2,0,P|194:170|212:143,1,60.5000018463135,8|0,0:0|0:0,0:0:0:0:
283,175,50587,2,0,P|290:142|287:108,1,60.5000018463135,8|0,0:0|0:0,0:0:0:0:
366,109,50792,2,0,P|358:77|343:48,1,60.5000018463135,8|0,0:0|0:0,0:0:0:0:
446,204,50998,6,0,P|473:222|504:232,1,65.9999979858399,8|0,0:0|0:0,0:0:0:0:
362,258,51203,2,0,P|382:284|411:303,1,65.9999979858399,8|0,0:0|0:0,0:0:0:0:
244,275,51409,2,0,P|253:306|271:335,1,65.9999979858399,8|0,0:0|0:0,0:0:0:0:
116,253,51614,2,0,P|112:285|119:317,1,65.9999979858399,8|0,0:0|0:0,0:0:0:0:
0,176,51820,6,0,P|35:178|70:170,1,71.4999967269899,8|0,0:0|0:0,0:0:0:0:
137,248,52025,2,0,P|170:234|200:213,1,71.4999967269899,8|0,0:0|0:0,0:0:0:0:
303,272,52231,2,0,P|324:251|346:214,1,71.4999967269899,8|0,0:0|0:0,0:0:0:0:
465,192,52436,2,0,P|471:143|461:110,1,71.4999967269899,8|0,0:0|0:0,0:0:0:0:
70,206,52642,5,8,0:0:0:0:
76,234,52744,1,8,0:0:0:0:
94,256,52847,1,8,0:0:0:0:
120,269,52950,1,8,0:0:0:0:
152,269,53053,1,8,0:0:0:0:
181,249,53155,1,8,0:0:0:0:
196,216,53258,1,8,0:0:0:0:
186,177,53361,1,8,0:0:0:0:
163,146,53463,1,8,0:0:0:0:
157,105,53566,1,8,0:0:0:0:
187,68,53669,1,8,0:0:0:0:
238,64,53772,1,8,0:0:0:0:
275,104,53874,1,8,0:0:0:0:
270,158,53977,1,8,0:0:0:0:
224,192,54080,1,8,0:0:0:0:
167,181,54183,1,8,0:0:0:0:
98,158,54285,5,8,0:0:0:0:
81,117,54388,1,8,0:0:0:0:
93,68,54491,1,8,0:0:0:0:
147,40,54594,1,8,0:0:0:0:
203,55,54696,1,8,0:0:0:0:
240,104,54799,1,8,0:0:0:0:
260,163,54902,1,8,0:0:0:0:
294,218,55005,1,8,0:0:0:0:
352,260,55107,1,8,0:0:0:0:
425,266,55210,1,8,0:0:0:0:
492,225,55313,1,8,0:0:0:0:
508,148,55416,1,8,0:0:0:0:
465,84,55518,6,0,L|430:89,7,27.5,8|0|0|0|0|0|0|0,0:0|0:0|0:0|0:0|0:0|0:0|0:0|0:0,0:0:0:0:
416,13,55929,6,0,B|364:276|364:276|340:205|275:176|275:176|341:187|376:150,1,495.000018882752,0|0,0:0|0:0,0:0:0:0:
171,180,56751,6,0,B|220:155|197:126|254:105,1,110,8|0,0:1|0:0,0:0:0:0:
384,75,56957,1,8,0:0:0:0:
36,137,57162,6,0,B|81:100|81:100|140:111,1,110,12|2,0:3|0:1,0:0:0:0:
483,174,57368,6,0,B|479:191|479:191|466:178|466:178|483:174,1,55,2|0,0:1|0:0,0:0:0:0:
414,230,57470,2,0,B|402:243|402:243|396:225|396:225|414:230,1,55,2|0,0:1|0:0,0:0:0:0:
328,242,57573,2,0,B|311:248|311:248|315:229|315:229|328:242,1,55,2|0,0:1|0:0,0:0:0:0:
248,212,57676,2,0,B|230:208|230:208|243:195|243:195|248:212,1,55,2|0,0:1|0:0,0:0:0:0:
183,162,57779,2,0,B|166:168|166:168|170:149|170:149|183:162,1,55,2|0,0:1|0:0,0:0:0:0:
114,156,57881,2,0,B|102:169|102:169|96:151|96:151|114:156,1,55,2|0,0:1|0:0,0:0:0:0:
56,173,57984,2,0,B|52:190|52:190|39:177|39:177|56:173,1,55,2|0,0:1|0:0,0:0:0:0:
24,214,58087,2,0,B|30:230|30:230|11:226|11:226|24:214,1,55,2|0,0:1|0:0,0:0:0:0:
30,259,58190,2,0,B|43:269|43:269|24:275|24:275|30:259,1,55,2|0,0:1|0:0,0:0:0:0:
61,287,58292,2,0,B|78:285|78:285|69:302|69:302|61:287,1,55,2|0,0:1|0:0,0:0:0:0:
211,364,58395,6,0,B|233:358|247:338|247:338|224:353|191:348,1,98.9999969787599,10|2,0:1|0:1,0:0:0:0:
208,275,58600,2,0,P|172:239|123:232,1,98.9999969787599,8|2,0:0|0:1,0:0:0:0:
373,231,58806,6,0,B|395:235|417:256|417:256|390:267|370:251,1,98.9999969787599,8|0,0:0|0:0,0:0:0:0:
245,13,59011,5,2,0:1:0:0:
266,97,59114,1,2,0:1:0:0:
287,180,59217,2,0,B|340:285|194:300|282:497|420:310|276:292,1,296.99999093628,2|0,0:1|0:0,0:0:0:0:
207,241,59628,5,0,0:0:0:0:
193,249,59731,1,0,0:0:0:0:
181,257,59833,1,2,0:1:0:0:
170,264,59936,1,2,0:1:0:0:
160,271,60039,2,0,B|230:261|230:261|238:235|219:220,1,98.9999969787599,10|0,0:1|0:0,0:0:0:0:
171,31,60244,1,8,0:0:0:0:
47,243,60450,6,0,B|14:254|14:254|6:288|6:288|38:277|38:277|46:247,1,110,12|0,0:0|0:0,0:0:0:0:
124,286,60553,2,0,B|103:310|103:310|112:340|112:340|132:316|132:316|125:289,1,110,2|0,0:1|0:0,0:0:0:0:
211,283,60655,2,0,B|205:310|205:310|225:329|225:329|231:302|231:302|213:284,1,110,2|0,0:1|0:0,0:0:0:0:
275,235,60758,2,0,B|289:255|289:255|313:254|313:254|299:234|299:234|277:234,1,96.2500009179115,2|0,0:1|0:0,0:0:0:0:
340,179,60861,2,0,B|341:201|341:201|361:212|361:212|360:189|360:189|342:179,1,88,2|0,0:1|0:0,0:0:0:0:
407,156,60963,2,0,B|397:175|397:175|408:193|408:193|418:174|418:174|408:157,1,82.5000031471254,2|0,0:1|0:0,0:0:0:0:
467,167,61066,2,0,B|451:177|451:177|451:196|451:196|467:186|467:186|467:169,1,74.2500002832413,2|0,0:1|0:0,0:0:0:0:
505,202,61169,2,0,B|487:203|487:203|479:218|479:218|496:217|496:217|504:203,1,68.75,2|0,0:1|0:0,0:0:0:0:
431,288,61272,6,0,B|427:273|427:273|414:268|414:268|418:282|418:282|432:286,1,46.7500008916855,8|0,0:0|0:0,0:0:0:0:
378,299,61374,2,0,B|388:289|388:289|385:276|385:276|377:286|377:286|379:299,1,46.7500008916855,2|0,0:1|0:0,0:0:0:0:
343,287,61477,2,0,B|354:284|354:284|358:273|358:273|347:277|347:277|344:288,1,46.7500008916855,2|0,0:1|0:0,0:0:0:0:
329,272,61580,2,0,B|340:275|340:275|349:268|349:268|338:265|338:265|329:273,1,46.7500008916855,2|0,0:1|0:0,0:0:0:0:
301,202,61683,6,0,B|263:152|339:119|343:63|343:63|352:109|299:135|312:190,1,280.500005350113,10|0,0:1|0:0,0:0:0:0:
174,190,62094,6,0,B|81:227|32:93|127:28|327:90|135:161|374:253|511:120,1,495.000018882752,2|0,0:1|0:0,0:0:0:0:
470,86,62505,6,0,B|486:26|433:-5|409:44|459:78,1,131.99999597168,2|0,0:1|0:0,0:0:0:0:
479,231,62916,5,2,0:1:0:0:
472,243,63018,1,2,0:1:0:0:
466,255,63121,1,2,0:1:0:0:
461,267,63224,1,2,0:1:0:0:
399,319,63327,6,0,P|409:265|389:214,1,110,10|0,0:1|0:0,0:0:0:0:
180,146,63532,1,8,0:0:0:0:
512,334,63737,6,0,B|456:244|279:141|148:453|115:355|34:343|34:343|148:360|210:200|160:329|206:441|417:513|505:231|333:131|231:130,1,1155.00004405976,14|0,0:0|0:0,0:0:0:0:
192,64,64559,6,0,B|93:2|258:-57|205:192,1,242.000007385254,12|2,0:0|0:1,0:0:0:0:
84,304,64868,5,2,0:1:0:0:
105,210,64970,2,0,B|96:259|124:298|124:298|93:268|53:283|53:283|95:259|105:210,1,242.000007385254,10|0,0:1|0:0,0:0:0:0:
122,137,65279,5,0,0:0:0:0:
175,225,65381,2,0,B|165:285|245:261|219:362|67:369|-66:301|-29:173|23:276|40:181,1,363.000011077881,10|0,0:1|0:0,0:0:0:0:
129,108,65792,6,0,B|114:137|114:137|129:140|129:140|127:109,3,60.5000018463135,2|0|0|0,0:1|0:0|0:0|0:0,0:0:0:0:
113,30,65998,6,0,P|150:35|177:51,1,60.5000018463135,0|0,0:0|0:0,0:0:0:0:
139,20,66100,2,0,P|169:30|196:49,1,65.9999979858399,2|0,0:1|0:0,0:0:0:0:
176,21,66203,2,0,P|206:41|225:72,1,71.4999967269899,2|0,0:1|0:0,0:0:0:0:
213,24,66306,2,0,P|244:76|248:106,1,76.9999976501466,2|0,0:1|0:0,0:0:0:0:
243,44,66409,2,0,P|259:82|254:121,1,82.5000031471254,2|0,0:1|0:0,0:0:0:0:
273,75,66511,2,0,P|271:118|248:155,1,88,2|0,0:1|0:0,0:0:0:0:
295,118,66614,6,0,B|212:121|243:144|121:153,1,121.000003692627,10|0,0:1|0:0,0:0:0:0:
64,98,66820,1,8,0:0:0:0:
316,7,67025,5,8,0:0:0:0:
276,44,67128,1,0,0:0:0:0:
262,86,67231,1,0,0:0:0:0:
264,126,67333,1,0,0:0:0:0:
272,158,67436,1,0,0:0:0:0:
271,185,67539,1,0,0:0:0:0:
224,241,67642,6,0,L|169:181,1,49.4999984893799,2|0,0:1|0:0,0:0:0:0:
218,253,67744,2,0,L|252:288,1,49.4999984893799,2|0,0:1|0:0,0:0:0:0:
150,283,67847,5,8,0:0:0:0:
140,311,67950,1,0,0:0:0:0:
146,343,68053,1,0,0:0:0:0:
174,373,68155,1,0,0:0:0:0:
261,358,68258,6,0,L|246:310,3,49.4999984893799,10|0|0|0,0:0|0:0|0:0|0:0,0:0:0:0:
229,309,68463,6,0,L|142:336,1,49.4999984893799
216,296,68566,2,0,L|273:279,1,49.4999984893799,0|0,0:0|0:0,0:0:0:0:
139,263,68669,6,0,P|151:233|174:209,1,65.9999979858399,2|0,0:1|0:0,0:0:0:0:
138,234,68772,2,0,P|155:210|181:195,1,60.5000018463135,2|0,0:1|0:0,0:0:0:0:
141,208,68874,2,0,P|162:190|188:181,1,55,2|0,0:1|0:0,0:0:0:0:
154,183,68977,2,0,P|171:173|214:170,1,49.4999984893799,2|0,0:1|0:0,0:0:0:0:
269,199,69080,6,0,B|318:214|341:267|341:267|401:273|423:208|423:208|384:174|384:174|402:201|401:237,1,302.500009231568,2|0,0:1|0:0,0:0:0:0:
438,159,69414,5,0,3:0:0:0:
425,153,69491,5,0,3:0:0:0:
289,124,69628,5,0,3:0:0:0:
157,94,69765,5,0,3:0:0:0:
16,284,69902,6,0,P|65:246|83:186,1,121.000003692627,10|0,0:1|0:0,0:0:0:0:
73,8,70107,1,8,0:0:0:0:
208,341,70313,6,0,B|201:326|207:310|207:310|224:315|230:325,1,60.5000018463135,12|0,0:0|0:0,0:0:0:0:
300,373,70416,2,0,B|286:363|283:346|283:346|300:342|311:348,1,60.5000018463135,2|0,0:1|0:0,0:0:0:0:
383,356,70518,2,0,B|366:354|355:341|355:341|368:329|380:329,1,60.5000018463135,2|0,0:1|0:0,0:0:0:0:
443,300,70621,2,0,B|428:307|412:301|412:301|416:283|427:277,1,60.5000018463135,2|0,0:1|0:0,0:0:0:0:
453,229,70724,2,0,B|443:242|426:245|426:245|421:227|427:217,1,60.5000018463135,2|0,0:1|0:0,0:0:0:0:
418,170,70826,2,0,B|416:186|403:197|403:197|389:184|390:172,1,60.5000018463135,2|0,0:1|0:0,0:0:0:0:
381,132,70929,2,0,B|388:146|382:162|382:162|364:158|358:148,1,60.5000018463135,2|0,0:1|0:0,0:0:0:0:
365,95,71032,2,0,B|363:111|350:122|350:122|336:109|337:97,1,60.5000018463135,2|0,0:1|0:0,0:0:0:0:
258,73,71135,6,0,B|248:57|252:44|252:44|278:47|280:66,1,60.5000018463135,8|0,0:0|0:0,0:0:0:0:
298,16,71237,2,0,B|297:-2|307:-12|307:-12|328:3|320:20,1,60.5000018463135,2|0,0:1|0:0,0:0:0:0:
353,5,71340,2,0,B|361:-11|382:4|382:4|338:74|366:94|367:106,1,121.000003692627,2|2,0:1|0:1,0:0:0:0:
219,286,71546,6,0,B|248:268|258:239|258:239|285:255|315:251,1,121.000003692627,10|2,0:1|0:1,0:0:0:0:
378,306,71751,2,0,B|337:328|292:325|292:325|305:338|322:335,1,121.000003692627,8|2,0:0|0:1,0:0:0:0:
341,184,71957,5,8,0:0:0:0:
347,173,72059,1,0,0:0:0:0:
353,162,72162,1,2,0:1:0:0:
360,150,72265,1,2,0:1:0:0:
389,133,72368,6,0,B|342:169|315:118|266:175,1,121.000003692627,2|0,0:1|0:0,0:0:0:0:
278,182,72573,6,0,L|286:211,6,30.2500009231568,8|2|2|2|2|0|2,0:0|0:1|0:1|0:1|0:1|0:0|0:1,0:0:0:0:
264,288,72779,6,0,P|283:233|314:212,1,82.5000031471254,2|0,0:1|0:0,0:0:0:0:
428,179,72984,2,0,P|393:157|353:153,1,82.5000031471254,2|2,0:1|0:1,0:0:0:0:
499,251,73190,6,0,B|450:255|450:255|438:264|438:264|426:257|426:257|381:262,1,121.000003692627,10|0,0:1|0:0,0:0:0:0:
279,373,73395,2,0,P|260:384|238:384,3,27.5,8|2|2|2,0:0|0:1|0:1|0:1,0:0:0:0:
184,363,73600,6,0,B|204:300|247:317|323:282|218:276,1,142.99999345398,12|2,0:0|0:1,0:0:0:0:
329,217,73806,6,0,B|341:224|358:219|358:219|355:199|336:187|312:191|312:191|315:207|329:217,1,110,2|0,0:1|0:0,0:0:0:0:
397,137,73909,2,0,B|409:137|419:125|419:125|408:111|389:111|372:124|372:124|381:135|397:137,1,101.749999611855,2|0,0:1|0:0,0:0:0:0:
401,53,74011,2,0,B|410:47|413:33|413:33|398:27|383:36|376:54|376:54|388:58|401:53,1,93.500001783371,2|0,0:1|0:0,0:0:0:0:
338,9,74114,2,0,B|342:0|339:-11|339:-11|325:-9|316:4|319:21|319:21|330:18|338:9,1,85.2500006504059,2|0,0:1|0:0,0:0:0:0:
275,19,74217,2,0,B|275:9|266:1|266:1|256:10|255:24|265:37|265:37|273:30|275:19,1,76.9999976501466,2|0,0:1|0:0,0:0:0:0:
239,54,74320,2,0,B|235:47|225:44|225:44|220:55|226:67|239:71|239:71|243:63|239:54,1,71.4999967269899,2|0,0:1|0:0,0:0:0:0:
193,152,74422,6,0,B|214:162|216:185|203:191|188:174|194:151,1,60.5000018463135,8|0,0:0|0:0,0:0:0:0:
154,161,74525,2,0,B|167:180|157:201|143:199|138:177|155:160,1,60.5000018463135,2|0,0:1|0:0,0:0:0:0:
127,154,74628,2,0,B|128:177|109:190|98:182|105:160|128:154,1,60.5000018463135,2|0,0:1|0:0,0:0:0:0:
112,134,74731,2,0,B|102:155|79:157|73:144|90:129|113:134,1,60.5000018463135,2|0,0:1|0:0,0:0:0:0:
0,134,74833,6,0,B|128:65|188:288|389:337|371:64|197:198,1,478.500014602662,10|0,0:1|0:0,0:0:0:0:
181,324,75244,6,0,B|406:338|459:132|339:105|339:105|379:124|388:178,1,478.500014602662,12|0,0:0|0:0,0:0:0:0:
481,167,75655,6,0,B|47:205|47:205|106:207|138:240|138:240|170:208,1,571.999973815919,12|2,0:0|0:1,0:0:0:0:
67,85,76477,5,10,0:1:0:0:
79,81,76580,1,0,0:0:0:0:
92,77,76683,1,8,0:0:0:0:
106,72,76785,1,2,0:1:0:0:
51,58,76888,6,0,B|63:267|123:236|220:313|229:370|229:370|281:170|-170:489|-106:45|54:19|204:88|162:210,1,1000.99995417786,12|0,0:0|0:0,0:0:0:0:
234,97,77710,2,0,B|269:141|436:20|217:-106|163:30|240:134,1,330,10|2,0:1|0:1,0:0:0:0:
396,196,78121,6,0,P|338:162|372:300,1,330,10|0,0:1|0:0,0:0:0:0:
333,235,78532,2,0,B|299:207|292:144|292:144|243:166|217:228|247:287|247:287|277:248|311:241,1,330,10|0,0:1|0:0,0:0:0:0:
421,340,78943,6,0,B|445:348|447:365|447:365|431:363|420:341,3,55,2|0|0|0,0:1|0:0|0:0|0:0,0:0:0:0:
471,280,79149,6,0,P|450:263|440:230,1,60.5000018463135,2|0,0:1|0:0,0:0:0:0:
446,272,79251,2,0,P|428:236|440:206,1,65.9999979858399,2|0,0:1|0:0,0:0:0:0:
418,248,79354,2,0,P|418:213|444:189,1,71.4999967269899,2|0,0:1|0:0,0:0:0:0:
405,213,79457,2,0,P|440:173|471:170,1,76.9999976501466,2|0,0:1|0:0,0:0:0:0:
409,177,79559,2,0,P|469:155|504:160,1,82.5000031471254,2|0,0:1|0:0,0:0:0:0:
426,152,79662,2,0,P|478:145|518:159,1,88,2|0,0:1|0:0,0:0:0:0:
428,120,79765,6,0,P|393:102|326:110,1,88,10|0,0:1|0:0,0:0:0:0:
410,94,79868,2,0,P|360:87|305:105,2,88,2|2|0,0:1|0:1|0:0,0:0:0:0:
393,202,80176,5,8,0:0:0:0:
373,175,80279,1,0,0:0:0:0:
339,180,80382,1,0,0:0:0:0:
330,214,80484,1,0,0:0:0:0:
310,238,80587,1,0,0:0:0:0:
285,244,80690,1,0,0:0:0:0:
227,203,80793,6,0,L|239:144,1,55,2|0,0:1|0:0,0:0:0:0:
211,206,80895,2,0,L|200:259,1,55,2|0,0:1|0:0,0:0:0:0:
156,149,80998,5,8,0:0:0:0:
111,148,81101,1,0,0:0:0:0:
73,162,81204,1,0,0:0:0:0:
49,160,81306,1,0,0:0:0:0:
28,144,81409,2,0,P|23:109|37:75,2,73.3333333333333,10|0|0,0:1|0:0|0:0,0:0:0:0:
35,226,81614,6,0,P|57:251|84:263,1,55,2|0,0:1|0:0,0:0:0:0:
46,260,81717,2,0,P|84:277|102:276,1,55,2|0,0:1|0:0,0:0:0:0:
86,288,81820,2,0,P|128:276|138:259,1,55,2|0,0:1|0:0,0:0:0:0:
131,286,81922,2,0,P|152:249|148:217,1,55,2|0,0:1|0:0,0:0:0:0:
227,213,82025,6,0,P|233:182|252:156,2,55,2|2|2,0:1|0:1|0:1,0:0:0:0:
283,382,82642,5,2,0:1:0:0:
235,246,82847,5,0,0:0:0:0:
238,261,82950,1,8,3:0:0:0:
220,330,83053,1,8,0:0:0:0:
295,85,83258,5,0,0:0:0:0:
124,315,83463,6,0,B|101:327|112:355|112:355|135:339|126:315,1,76.9999976501466,12|0,0:0|0:0,0:0:0:0:
28,313,83669,6,0,B|93:268|191:282|129:346|273:332|273:332|227:335|197:308,1,329.9999899292,2|2,0:1|0:1,0:0:0:0:
256,200,84285,5,8,0:0:0:0:
290,237,84388,2,0,P|279:255|258:258,1,44,2|2,0:1|0:1,0:0:0:0:
242,251,84491,2,0,P|230:232|238:212,1,44,2|2,0:1|0:1,0:0:0:0:
256,200,84594,2,0,P|277:199|290:216,1,44,2|2,0:1|0:1,0:0:0:0:
297,244,84696,6,0,B|314:302|314:302|321:268,1,88,10|0,0:1|0:0,0:0:0:0:
349,173,84902,2,0,P|320:138|279:123,1,88
50,90,85107,5,2,0:1:0:0:
52,78,85210,1,0,0:1:0:0:
119,32,85313,5,2,0:1:0:0:
131,35,85416,1,0,0:0:0:0:
94,156,85518,5,2,0:1:0:0:
84,165,85621,2,0,P|69:208|89:251,1,93.500001783371,0|0,0:0|0:0,0:0:0:0:
307,325,85827,5,2,0:1:0:0:
377,348,85929,2,0,P|422:338|454:305,1,93.500001783371,0|0,0:1|0:0,0:0:0:0:
299,130,86135,5,2,0:1:0:0:
323,59,86237,2,0,P|289:15|242:-3,1,93.500001783371,2|0,0:1|0:1,0:0:0:0:
226,256,86443,5,2,0:1:0:0:
148,266,86546,2,0,P|145:220|172:183,1,93.500001783371,8|0,0:0|0:0,0:0:0:0:
289,358,86751,5,2,0:1:0:0:
296,343,86854,2,0,B|335:337|335:337|345:340|345:340|354:334|354:334|405:326,2,93.500001783371,8|0|0,0:0|0:0|0:0,0:0:0:0:
328,160,87162,5,10,0:1:0:0:
310,169,87265,1,0,0:0:0:0:
259,286,87368,1,0,0:0:0:0:
249,269,87470,2,0,B|210:275|210:275|200:272|200:272|191:278|191:278|158:283,1,93.500001783371,2|0,0:1|0:0,0:0:0:0:
85,148,87676,5,2,0:1:0:0:
67,66,87779,2,0,B|30:1|78:-7|66:61,1,93.500001783371,2|0,0:1|0:0,0:0:0:0:
105,224,87984,2,0,P|51:220|16:182,1,93.500001783371,10|0,0:1|0:0,0:0:0:0:
171,61,88190,6,0,P|188:76|198:97,3,46.7500008916855,2|2|2|2,0:1|0:1|0:1|0:1,0:0:0:0:
159,155,88395,5,2,0:1:0:0:
194,174,88463,5,2,0:1:0:0:
238,165,88532,5,2,0:1:0:0:
259,124,88600,5,2,0:1:0:0:
250,78,88669,5,2,0:1:0:0:
208,58,88737,5,2,0:1:0:0:
165,71,88806,5,10,0:1:0:0:
171,78,89011,5,0,0:0:0:0:
442,55,89217,5,2,0:1:0:0:
446,65,89320,1,0,0:0:0:0:
426,134,89422,5,0,0:0:0:0:
416,140,89525,1,0,0:0:0:0:
345,132,89628,6,0,P|324:109|341:12,1,110,10|0,0:1|0:0,0:0:0:0:
446,65,89833,6,0,L|388:70,1,55,2|0,0:1|0:0,0:0:0:0:
450,76,89936,2,0,L|517:70,1,55,2|0,0:1|0:0,0:0:0:0:
456,89,90039,6,0,B|217:113|217:113|267:103|301:50,1,330,12|0,0:0|0:0,0:0:0:0:
231,27,90450,2,0,P|181:49|128:38,1,110,2|0,0:1|0:0,0:0:0:0:
125,49,90655,6,0,B|132:94|132:94|124:82,3,55,0|0|0|0,0:0|0:0|0:0|0:0,0:0:0:0:
20,65,90861,6,0,B|-18:-13|74:-82|226:44|15:105|85:237,1,363.000011077881,8|0,0:0|0:0,0:0:0:0:
10,329,91272,2,0,B|165:360|147:156|-28:171|-68:306|39:322,1,363.000011077881,10|0,0:1|0:0,0:0:0:0:
140,116,91683,2,0,P|158:156|156:200,1,88,2|0,0:1|0:0,0:0:0:0:
179,363,91888,2,0,P|164:381|178:359,1,88,2|0,0:1|0:0,0:0:0:0:
273,267,92094,5,2,0:0:0:0:
270,285,92196,1,0,0:1:0:0:
258,303,92299,1,0,0:1:0:0:
237,314,92402,1,0,0:1:0:0:
164,227,92505,5,2,0:0:0:0:
216,174,92607,1,0,0:1:0:0:
298,177,92710,1,0,0:1:0:0:
362,245,92813,1,0,0:1:0:0:
373,168,92916,6,0,P|381:145|415:119,3,60.5000018463135,10|2|2|2,0:0|0:1|0:1|0:1,0:0:0:0:
378,118,93121,5,2,0:1:0:0:
295,105,93224,1,0,0:0:0:0:
215,87,93326,2,0,B|238:121|290:152|321:98|350:133|350:133|396:45|595:38|511:190|455:82,1,428.999980361939,10|0,0:0|0:0,0:0:0:0:
448,95,93737,6,0,P|436:81|429:65,6,35.749998363495,2|0|0|0|0|0|0,0:1|0:0|0:0|0:0|0:0|0:0|0:0,0:0:0:0:
471,4,93943,6,0,P|410:40|339:41,1,142.99999345398,8|0,0:0|0:0,0:0:0:0:
402,230,94148,6,0,B|453:380|453:380|475:378|492:354|492:354|451:334|423:271,1,285.99998690796,8|0,0:0|0:0,0:0:0:0:
435,129,94457,5,8,0:0:0:0:
440,108,94559,2,0,B|456:19|456:19|427:21|427:21|438:61,1,142.99999345398,10|2,0:0|0:1,0:0:0:0:
330,307,94765,6,0,B|295:308|295:308|262:294,1,71.4999967269899,8|0,0:0|0:0,0:0:0:0:
243,290,94868,2,0,B|210:276|210:276|175:277,1,71.4999967269899,8|0,0:0|0:0,0:0:0:0:
162,275,94970,1,2,0:0:0:0:
74,258,95073,6,0,B|63:289|68:309|68:309|56:312|46:320|46:320|43:308|38:296|38:296|58:286|66:269,1,142.99999345398,8|2,0:0|0:1,0:0:0:0:
149,144,95279,5,2,0:1:0:0:
155,156,95381,2,0,B|181:231|168:279|168:279|198:282|221:305|221:305|220:275|239:247|239:247|192:223|173:183,1,330,10|0,0:0|0:0,0:0:0:0:
209,90,95792,5,2,0:1:0:0:
214,78,95895,1,0,0:0:0:0:
219,66,95998,1,0,0:0:0:0:
224,55,96100,1,0,0:0:0:0:
176,0,96203,5,8,0:1:0:0:
386,199,96409,5,2,0:1:0:0:
394,211,96511,1,2,0:1:0:0:
454,164,96614,2,0,B|405:372|405:372|402:326|374:303|374:303|399:296|417:273,1,330,12|0,0:0|0:0,0:0:0:0:
511,243,97025,2,0,L|486:351,1,110,2|0,0:1|0:0,0:0:0:0:
285,346,97231,5,2,0:1:0:0:
268,340,97333,1,2,0:1:0:0:
150,258,97436,5,8,0:0:0:0:
142,288,97539,1,0,0:0:0:0:
155,332,97642,1,0,0:0:0:0:
190,355,97744,1,0,0:0:0:0:
265,262,97847,6,0,B|256:220|256:220|260:210|260:210|252:201|252:201|240:143,1,110,10|0,0:1|0:0,0:0:0:0:
133,6,98053,6,0,B|124:48|124:48|128:58|128:58|120:67|120:67|108:125,1,110,2|0,0:1|0:0,0:0:0:0:
118,234,98258,5,2,0:1:0:0:
91,262,98361,1,2,0:1:0:0:
52,267,98463,1,2,0:1:0:0:
16,190,98566,5,2,0:1:0:0:
30,153,98669,2,0,P|80:129|134:136,1,110,2|0,0:1|0:0,0:0:0:0:
303,361,98874,5,0,0:0:0:0:
381,332,98977,2,0,P|378:278|343:236,1,110,2|0,0:1|0:0,0:0:0:0:
114,241,99182,5,0,0:0:0:0:
104,165,99285,2,0,B|99:190|76:214|76:214|74:245|83:266,1,110,2|0,0:1|0:0,0:0:0:0:
370,327,99491,2,0,B|371:306|398:278|398:278|389:255|390:225,1,110,8|8,0:0|0:0,0:0:0:0:
199,227,99696,5,8,0:0:0:0:
239,306,99799,1,8,0:0:0:0:
293,229,99902,2,0,P|250:212|172:235,1,110,8|0,0:0|0:0,0:0:0:0:
61,213,100107,5,2,0:0:0:0:
30,196,100210,2,2,P|23:183|20:170,4,27.5,2|2|2|2|2,0:1|0:1|0:1|0:1|0:1,0:1:0:0:
126,88,100416,5,2,0:0:0:0:
41,95,100518,2,2,P|32:85|26:73,4,27.5,2|2|2|2|2,0:1|0:1|0:1|0:1|0:1,0:1:0:0:
200,207,100724,6,0,P|248:183|267:133,1,110,8|2,0:0|0:1,0:0:0:0:
249,101,100929,2,0,P|241:112|248:100,4,31.625000603199,2|0|0|0|0,0:1|0:0|0:0|0:0|0:0,0:0:0:0:
339,199,101135,6,0,P|323:237|293:264,1,82.5000031471254,10|2,0:0|0:1,0:0:0:0:
332,272,101237,6,0,P|370:287|397:317,1,82.5000031471254,2|2,0:1|0:1,0:0:0:0:
408,280,101340,6,0,P|423:241|453:214,1,82.5000031471254,2|2,0:1|0:1,0:0:0:0:
414,202,101443,6,0,P|375:186|348:156,1,82.5000031471254,2|2,0:1|0:1,0:0:0:0:
415,119,101546,5,2,0:0:0:0:
409,80,101614,5,2,0:1:0:0:
437,57,101683,5,2,0:1:0:0:
472,70,101751,5,2,0:1:0:0:
478,107,101820,5,2,0:1:0:0:
449,130,101888,5,2,0:1:0:0:
417,126,101957,6,0,B|402:77|343:116|389:29|392:72|389:14|389:14|467:268,1,363.000011077881,14|0,0:0|0:0,0:0:0:0:
489,317,102368,1,2,0:1:0:0:
304,84,102573,6,0,P|304:54|315:26,1,60.5000018463135,0|0,0:0|0:0,0:0:0:0:
512,137,102779,1,10,0:1:0:0:
171,65,102984,1,8,0:0:0:0:
387,251,103190,6,0,B|403:245|404:227|404:227|382:132,1,88,8|0,0:0|0:0,0:0:0:0:
483,263,103395,2,0,B|501:244|490:222|490:222|465:165,1,88,0|0,0:0|0:0,0:0:0:0:
92,325,103600,6,0,L|187:302,1,88,2|0,0:1|0:0,0:0:0:0:
336,324,103806,2,0,L|250:344,1,88,2|0,0:1|0:0,0:0:0:0:
67,168,104011,6,0,P|116:141|155:196,1,88,8|0,0:0|0:0,0:0:0:0:
220,273,104217,5,0,0:0:0:0:
255,356,104320,1,0,0:0:0:0:
275,220,104422,1,10,0:1:0:0:
379,274,104628,5,2,0:1:0:0:
117,365,104833,2,0,B|108:315|60:302|60:302|71:243|29:200,1,181.500005538941,2|0,0:1|0:0,0:0:0:0:
156,277,105039,2,0,P|107:304|76:258,1,121.000003692627,2|0,0:1|0:0,0:0:0:0:
78,117,105244,5,2,0:1:0:0:
118,57,105347,1,2,0:1:0:0:
186,36,105450,1,2,0:1:0:0:
243,41,105553,1,2,0:1:0:0:
283,68,105655,1,2,0:1:0:0:
300,115,105758,1,2,0:1:0:0:
299,156,105861,1,2,0:1:0:0:
286,182,105963,1,2,0:1:0:0:
209,224,106066,6,0,P|188:246|179:274,3,60.5000018463135,10|2|2|2,0:1|0:1|0:1|0:1,0:0:0:0:
178,148,106272,6,0,P|137:143|100:161,1,82.5000031471254,8|0,0:0|0:0,0:0:0:0:
47,369,106477,6,0,B|162:244|74:194|132:113|132:113|39:183|56:223|90:210,1,412.5,12|0,0:0|0:0,0:0:0:0:
264,174,106888,5,2,0:1:0:0:
289,140,106991,1,2,0:1:0:0:
293,101,107094,1,2,0:1:0:0:
274,57,107196,1,2,0:1:0:0:
234,30,107299,1,2,0:1:0:0:
177,25,107402,1,2,0:1:0:0:
109,48,107505,1,2,0:1:0:0:
66,110,107607,1,2,0:1:0:0:
47,190,107710,1,2,0:1:0:0:
69,272,107813,1,2,0:1:0:0:
137,328,107916,1,2,0:1:0:0:
238,348,108018,1,2,0:1:0:0:
332,308,108121,6,0,P|339:277|338:250,6,44,2|2|2|2|2|2|2,0:1|0:1|0:1|0:1|0:1|0:1|0:1,0:0:0:0:
474,285,108532,6,0,B|198:212|198:212|104:310|271:371|307:249|232:229,1,528,12|0,0:0|0:0,0:0:0:0:
230,101,109354,6,0,B|196:149|167:120|126:184,1,121.000003692627,10|0,0:1|0:0,0:0:0:0:
82,337,109559,1,8,0:0:0:0:
438,170,109765,6,0,B|397:184|397:184|300:158,1,121.000003692627,12|2,0:0|0:1,0:0:0:0:
168,55,109970,6,0,B|177:47|179:30|179:30|167:24|167:24|153:32|153:32|159:49|166:54,1,68.75,2|0,0:1|0:0,0:0:0:0:
98,47,110073,2,0,B|100:37|92:23|92:23|79:25|79:25|72:38|72:38|84:48|96:48,1,68.75,2|0,0:1|0:0,0:0:0:0:
33,76,110176,2,0,B|27:68|11:64|11:64|4:75|4:75|10:90|10:90|25:86|32:77,1,68.75,2|0,0:1|0:0,0:0:0:0:
6,140,110279,2,0,B|-3:138|-17:147|-17:147|-14:160|-14:160|0:165|0:165|8:153|7:141,1,68.75,2|0,0:1|0:0,0:0:0:0:
25,206,110381,2,0,B|16:210|11:226|11:226|22:234|22:234|37:229|37:229|35:214|26:206,1,68.75,2|0,0:1|0:0,0:0:0:0:
71,241,110484,2,0,B|67:249|72:265|72:265|85:265|85:265|94:253|94:253|84:242|72:240,1,68.75,2|0,0:1|0:0,0:0:0:0:
124,251,110587,2,0,B|116:256|112:272|112:272|123:279|123:279|138:273|138:273|134:258|125:251,1,68.75,2|0,0:1|0:0,0:0:0:0:
174,260,110690,2,0,B|164:260|153:272|153:272|159:284|159:284|175:286|175:286|179:272|175:260,1,68.75,2|0,0:1|0:0,0:0:0:0:
207,291,110792,2,0,B|198:287|182:292|182:292|182:305|182:305|194:314|194:314|205:304|207:292,1,68.75,2|0,0:1|0:0,0:0:0:0:
227,327,110895,2,0,B|221:319|205:315|205:315|198:326|198:326|204:341|204:341|219:337|226:328,1,68.75,2|0,0:1|0:0,0:0:0:0:
344,370,110998,6,0,B|360:343|354:314|354:314|324:334|320:360|320:360|344:370,1,137.5,10|2,0:1|0:1,0:0:0:0:
279,263,111203,2,0,P|341:286|398:253,1,137.5,8|2,0:0|0:1,0:0:0:0:
307,46,111409,6,0,B|294:126|332:210|332:210|323:172|337:140,1,220,8|2,0:0|0:1,0:0:0:0:
309,187,111717,5,2,0:1:0:0:
404,126,111820,2,0,P|397:-1|327:84,1,307.999990600586,2|0,0:1|0:0,0:0:0:0:
104,169,112436,5,2,0:1:0:0:
30,200,112539,1,2,0:1:0:0:
37,122,112642,2,0,B|75:124|93:152|93:152|119:157|146:150,1,110,10|0,0:1|0:0,0:0:0:0:
256,56,112847,2,0,B|285:41|264:26|265:1|265:1|257:26|235:31|256:55,1,110,8|0,0:0|0:0,0:0:0:0:
249,339,113053,6,0,B|233:345|224:358|224:358|230:374|241:383|241:383|256:378|268:364|268:364|262:348|248:337,1,110,12|0,0:0|0:0,0:0:0:0:
332,333,113155,2,0,B|322:345|321:359|321:359|333:369|346:371|346:371|356:361|359:344|359:344|346:334|330:331,1,110,2|0,0:1|0:0,0:0:0:0:
372,273,113258,2,0,B|369:287|375:299|375:299|390:302|402:297|402:297|405:284|399:269|399:269|384:267|370:272,1,110,2|0,0:1|0:0,0:0:0:0:
383,202,113361,2,0,B|392:213|406:216|406:216|417:206|421:194|421:194|413:183|397:178|397:178|386:188|381:203,1,110,2|0,0:1|0:0,0:0:0:0:
389,147,113463,2,0,B|391:160|400:168|400:168|413:166|422:158|422:158|420:146|411:135|411:135|398:137|387:147,1,98.9999969787599,2|0,0:1|0:0,0:0:0:0:
414,103,113566,2,0,B|410:114|413:125|413:125|424:129|435:127|435:127|439:117|436:103|436:103|425:100|412:102,1,93.500001783371,2|0,0:1|0:0,0:0:0:0:
449,82,113669,2,0,B|440:89|438:99|438:99|445:108|454:111|454:111|462:105|467:93|467:93|459:84|448:81,1,88,2|0,0:1|0:0,0:0:0:0:
486,78,113772,2,0,B|474:80|467:87|467:87|469:99|476:106|476:106|486:105|495:96|495:96|493:85|485:76,1,88,2|0,0:1|0:0,0:0:0:0:
484,186,113874,6,0,B|508:210|502:233|502:233|483:220|486:200,1,88,8|0,0:0|0:0,0:0:0:0:
439,197,113977,2,0,B|447:228|431:244|431:244|420:224|437:197,1,88,2|0,0:1|0:0,0:0:0:0:
403,194,114080,2,0,B|393:222|372:225|372:225|375:205|401:193,1,88,2|0,0:1|0:0,0:0:0:0:
370,185,114183,2,0,B|352:201|328:192|328:192|351:174|372:184,1,88,2|0,0:1|0:0,0:0:0:0:
365,109,114285,6,0,B|306:96|272:162|195:146|258:87|315:111,1,197.99999395752,10|0,0:1|0:0,0:0:0:0:
324,36,114491,6,0,B|364:34|372:-44|191:-80|167:162|329:215|329:215|254:175|253:94,1,527.999983886719,2|0,0:1|0:0,0:0:0:0:
146,95,115107,5,2,0:1:0:0:
135,92,115210,1,0,0:0:0:0:
124,90,115313,1,0,0:0:0:0:
112,87,115416,1,0,0:0:0:0:
89,95,115518,5,2,0:1:0:0:
79,92,115621,1,2,0:1:0:0:
74,49,115724,5,2,0:1:0:0:
169,31,115826,1,2,0:1:0:0:
136,126,115929,2,0,B|107:207|107:207|112:174|104:158,1,131.99999597168,10|0,0:1|0:0,0:0:0:0:
6,101,116135,5,8,0:0:0:0:
152,366,116340,2,0,B|65:10|65:10|186:40|186:40|121:62|106:126|106:126|-13:190|-68:377|160:392|160:233|163:238|164:231|131:93|250:102,1,1116.50003407288,12|0,0:0|0:0,0:0:0:0:
356,199,117162,6,0,B|362:316|362:316|417:245|293:250|351:156,1,263.99999194336,12|2,0:0|0:1,0:0:0:0:
285,286,117470,5,2,0:1:0:0:
433,213,117573,2,0,B|501:172|484:222|484:222|371:238|371:238|356:245|356:245|240:262|240:262|219:310|219:310|263:264|349:252,1,528,10|0,0:1|0:0,0:0:0:0:
443,313,117984,6,0,B|427:372|359:368|359:368|362:299|299:235|299:235|364:263|372:312,1,363.000011077881,8|0,0:0|0:0,0:0:0:0:
212,349,118395,6,0,L|136:368,3,60.5000018463135,2|0|0|0,0:1|0:0|0:0|0:0,0:0:0:0:
150,348,118600,6,0,P|149:317|167:288,1,60.5000018463135,0|0,0:0|0:0,0:0:0:0:
137,320,118703,2,0,P|147:288|176:266,1,65.9999979858399,2|0,0:1|0:0,0:0:0:0:
134,286,118806,2,0,P|166:254|238:243,1,71.4999967269899,2|0,0:1|0:0,0:0:0:0:
153,247,118909,2,0,P|215:224|240:230,1,76.9999976501466,2|0,0:1|0:0,0:0:0:0:
187,211,119011,2,0,P|227:207|267:218,1,82.5000031471254,2|0,0:1|0:0,0:0:0:0:
233,192,119114,2,0,P|297:215|317:228,1,88,2|0,0:1|0:0,0:0:0:0:
298,136,119217,6,0,P|310:194|358:238,1,121.000003692627,10|0,0:1|0:0,0:0:0:0:
465,232,119422,1,8,0:0:0:0:
221,343,119628,5,10,0:0:0:0:
259,302,119731,1,0,0:0:0:0:
315,307,119833,1,0,0:0:0:0:
351,338,119936,1,0,0:0:0:0:
391,337,120039,1,2,0:0:0:0:
410,317,120142,1,0,0:0:0:0:
391,244,120244,6,0,L|312:219,1,55,2|0,0:1|0:0,0:0:0:0:
404,237,120347,2,0,L|486:261,1,55,2|0,0:1|0:0,0:0:0:0:
372,162,120450,5,10,0:0:0:0:
320,150,120553,1,0,0:0:0:0:
255,180,120655,1,0,0:0:0:0:
186,168,120758,1,0,0:0:0:0:
125,209,120861,6,0,B|117:180|117:180|118:165|118:165|110:136,3,74.2500002832413,10|2|2|2,0:0|0:1|0:1|0:1,0:0:0:0:
41,120,121066,6,0,P|61:144|86:158,1,60.5000018463135,2|0,0:1|0:0,0:0:0:0:
44,143,121169,2,0,P|66:162|95:172,1,60.5000018463135,2|0,0:1|0:0,0:0:0:0:
51,164,121272,2,0,P|73:179|101:186,1,55,2|0,0:1|0:0,0:0:0:0:
56,178,121374,2,0,P|80:190|109:193,1,55,2|0,0:1|0:0,0:0:0:0:
68,192,121477,2,0,P|97:200|129:196,1,49.4999984893799,2|0,0:1|0:0,0:0:0:0:
76,204,121580,2,0,P|100:206|124:202,1,49.4999984893799,2|0,0:1|0:0,0:0:0:0:
94,213,121683,6,0,B|153:214|213:188|213:188|261:240|261:240|238:219|204:216,1,247.4999924469,2|0,0:1|0:0,0:0:0:0:
210,263,122017,5,0,0:0:0:0:
220,261,122094,5,0,0:0:0:0:
356,244,122231,5,0,0:0:0:0:
496,226,122368,5,0,0:0:0:0:
489,353,122505,6,0,B|450:279|400:318|386:223,1,165.000006294251,10|0,0:1|0:0,0:0:0:0:
391,71,122710,1,8,0:0:0:0:
38,318,122916,6,0,B|44:343|58:351|58:351|67:348|71:338|71:338|60:327|42:319,1,90.7500008654595,12|0,0:0|0:0,0:0:0:0:
121,339,123019,2,0,B|137:355|155:357|155:357|162:351|160:340|160:340|146:335|127:339,1,90.7500008654595,2|0,0:1|0:0,0:0:0:0:
197,322,123122,2,0,B|224:323|235:318|235:318|235:306|228:300|228:300|217:305|201:318,1,90.7500008654595,2|0,0:1|0:0,0:0:0:0:
258,278,123224,2,0,B|279:265|286:253|286:253|281:244|271:242|271:242|261:256|259:273,1,90.7500008654595,2|0,0:1|0:0,0:0:0:0:
301,224,123327,2,0,B|319:209|321:192|321:192|314:183|304:186|304:186|296:202|300:218,1,90.7500008654595,2|0,0:1|0:0,0:0:0:0:
341,174,123430,2,0,B|366:169|381:159|381:159|380:148|371:144|371:144|356:150|344:168,1,90.7500008654595,2|0,0:1|0:0,0:0:0:0:
396,149,123533,2,0,B|418:158|433:158|433:158|437:150|433:139|433:139|417:139|401:147,1,90.7500008654595,2|0,0:1|0:0,0:0:0:0:
439,151,123635,2,0,B|449:174|461:183|461:183|470:179|473:169|473:169|461:158|444:154,1,90.7500008654595,2|0,0:1|0:0,0:0:0:0:
425,303,123737,6,0,B|438:317|439:331|439:331|431:336|422:334|422:334|418:320|425:300,1,71.4999967269899,8|0,0:0|0:0,0:0:0:0:
377,297,123840,2,0,B|380:318|375:328|375:328|365:330|358:323|358:323|361:310|378:295,1,71.4999967269899,2|0,0:1|0:0,0:0:0:0:
345,273,123943,2,0,B|339:291|327:299|327:299|318:295|316:285|316:285|326:275|347:271,1,71.4999967269899,2|0,0:1|0:0,0:0:0:0:
334,245,124046,2,0,B|317:258|306:259|306:259|299:251|302:242|302:242|315:238|336:245,1,71.4999967269899,2|0,0:1|0:0,0:0:0:0:
340,171,124148,6,0,B|318:165|296:168|296:168|316:149|327:112|327:112|332:148,1,131.99999597168,10|2,0:1|0:1,0:0:0:0:
509,197,124354,2,0,B|501:257|501:257|485:268|485:268|496:239|492:208,1,131.99999597168,8|2,0:0|0:1,0:0:0:0:
394,84,124559,5,8,0:0:0:0:
406,70,124662,1,0,0:0:0:0:
418,57,124765,1,2,0:1:0:0:
430,42,124868,1,2,0:1:0:0:
418,18,124970,6,0,B|432:65|432:65|429:75|429:75|442:124,1,110,2|0,0:1|0:0,0:0:0:0:
447,265,125176,6,0,L|440:292,6,27.5,2|2|2|2|2|2|2,0:1|0:1|0:1|0:1|0:1|0:1|0:1,0:0:0:0:
468,258,125381,6,0,P|416:243|365:262,1,110,2|0,0:1|0:0,0:0:0:0:
204,334,125587,2,0,B|180:339|179:364|179:364|201:344|251:345,1,110,2|2,0:1|0:1,0:0:0:0:
328,371,125792,6,0,B|309:311|309:311|299:298|299:298|281:244,1,131.99999597168,10|0,0:1|0:0,0:0:0:0:
128,131,125998,6,0,L|135:86,3,27.5,8|2|2|2,0:0|0:1|0:1|0:1,0:0:0:0:
111,95,126203,2,0,B|107:48|84:13|84:13|114:28|123:64,1,131.99999597168,12|2,0:0|0:1,0:0:0:0:
195,261,126409,6,0,B|216:252|236:252|236:252|246:230|221:228|221:228|214:245|193:260,1,110,2|0,0:1|0:0,0:0:0:0:
256,325,126511,2,0,B|262:303|276:287|276:287|265:266|248:284|248:284|256:300|254:325,1,110,2|0,0:1|0:0,0:0:0:0:
337,336,126614,2,0,B|326:315|325:295|325:295|302:287|302:312|302:312|319:318|336:337,1,110,2|0,0:1|0:0,0:0:0:0:
408,303,126717,2,0,B|388:290|377:273|377:273|353:278|366:299|366:299|384:296|408:304,1,110,2|0,0:1|0:0,0:0:0:0:
443,239,126820,2,0,B|407:244|437:286|437:286|474:255|443:239,1,110,2|0,0:1|0:0,0:0:0:0:
425,175,126922,2,0,B|402:199|444:219|444:219|456:178|425:175,1,110,2|0,0:1|0:0,0:0:0:0:
358,147,127025,6,0,B|325:148|319:166|319:166|335:172|358:147,1,82.5000031471254,8|0,0:0|0:0,0:0:0:0:
343,99,127128,2,0,B|314:84|299:96|299:96|311:109|343:99,1,82.5000031471254,2|0,0:1|0:0,0:0:0:0:
354,61,127231,2,0,B|329:39|312:47|312:47|320:63|354:61,1,82.5000031471254,2|0,0:1|0:0,0:0:0:0:
379,39,127333,2,0,B|369:8|350:7|350:7|348:26|378:40,1,82.5000031471254,2|0,0:1|0:0,0:0:0:0:
485,37,127436,6,0,B|329:115|310:7|190:63|190:63|226:58|254:89|312:55,1,412.5,10|0,0:1|0:0,0:0:0:0:
65,173,127847,2,0,B|213:143|182:415|429:242|320:127|236:154,1,412.5,12|0,0:0|0:0,0:0:0:0:
35,360,128258,6,0,B|197:324|197:324|283:354|340:310|340:310|394:294|394:294|458:338|458:338|383:314|320:339,1,550,12|0,0:0|0:1,0:0:0:0:
78,239,129080,5,10,0:1:0:0:
73,225,129183,1,0,0:0:0:0:
69,212,129285,1,8,0:0:0:0:
65,200,129388,1,0,0:1:0:0:
14,145,129491,6,0,B|99:285|99:285|59:299|33:340|33:340|58:285|33:177,1,363.000011077881,12|0,0:0|0:0,0:0:0:0:
86,115,129902,6,0,L|127:186,1,65.9999979858399,2|0,0:0|0:0,0:0:0:0:
188,338,130107,2,0,P|170:353|183:334,1,65.9999979858399
303,310,130313,6,0,P|282:284|252:270,1,65.9999979858399,10|0,0:0|0:0,0:0:0:0:
65,267,130518,2,0,B|25:266|47:309|71:275,1,65.9999979858399,2|2,0:1|0:1,0:0:0:0:
189,204,130724,1,10,0:0:0:0:
414,267,130929,6,0,L|379:148,1,88
468,189,131135,2,0,B|480:223|480:223|483:195,2,44,8|0|0,0:0|0:0|0:0,0:0:0:0:
334,89,131340,6,0,B|346:55|346:55|349:83,2,44
316,55,131546,6,0,P|298:79|302:108,1,55,2|0,0:1|0:0,0:0:0:0:
293,63,131648,2,0,P|282:93|291:125,1,60.5000018463135,0|0,0:0|0:0,0:0:0:0:
273,76,131751,2,0,P|272:111|287:143,1,65.9999979858399,2|0,0:1|0:0,0:0:0:0:
253,95,131854,2,0,P|259:130|276:160,1,65.9999979858399,2|0,0:1|0:0,0:0:0:0:
237,120,131957,2,0,P|246:157|267:189,1,71.4999967269899,2|0,0:1|0:0,0:0:0:0:
224,158,132059,2,0,P|261:215|302:234,1,74.2500002832413,2|0,0:1|0:0,0:0:0:0:
227,194,132162,6,0,B|275:171|281:203|342:180,1,110,2|2,0:1|0:1,0:0:0:0:
382,119,132368,5,10,0:1:0:0:
377,103,132470,1,2,0:1:0:0:
373,85,132573,1,8,0:0:0:0:
368,67,132676,1,2,0:1:0:0:
297,21,132779,6,0,B|266:14|247:40|247:40|279:46|298:26,1,98.9999969787599,4|0,0:0|0:0,2:0:0:0:
487,85,132984,2,0,P|466:31|409:10,1,98.9999969787599
415,191,133190,1,0,0:0:0:0:
227,102,133395,5,2,0:1:0:0:
284,117,133498,1,2,0:1:0:0:
334,80,133600,6,0,P|310:72|293:71,1,41.2500015735627,8|0,0:0|0:0,0:0:0:0:
332,59,133703,2,0,P|311:62|293:71,1,41.2500015735627,0|0,0:0|0:0,0:0:0:0:
320,41,133806,2,0,P|304:54|293:71,1,41.2500015735627,0|0,0:0|0:0,0:0:0:0:
301,31,133909,2,0,P|293:50|292:70,1,41.2500015735627,0|0,0:0|0:0,0:0:0:0:
230,1,134011,6,0,B|188:57|242:68|198:124,1,131.99999597168,2|0,0:1|0:0,0:0:0:0:
263,184,134217,2,0,B|325:169|293:133|355:120,1,115.49999647522,0|0,0:1|0:1,0:0:0:0:
445,219,134422,2,0,B|392:201|400:243|348:224,1,98.9999969787599,2|0,0:1|0:1,0:0:0:0:
398,301,134628,2,0,B|426:338|440:307|466:344,1,82.5000031471254,0|0,0:1|0:1,0:0:0:0:
403,384,134833,6,0,P|392:372|393:359,8,27.5,2|0|0|0|0|0|0|0|0,0:1|0:0|0:0|0:0|0:0|0:0|0:0|0:0|0:0,0:0:0:0:
397,54,135655,5,8,0:1:0:0:
350,300,135861,1,8,0:0:0:0:
493,248,136066,6,0,B|453:246|422:225|422:225|399:220|363:231,1,110,12|0,0:0|0:1,0:0:0:0:
275,262,136477,1,2,0:1:0:0:
311,72,136683,1,0,0:1:0:0:
399,307,136888,5,8,0:0:0:0:
495,142,137094,1,2,0:1:0:0:
474,72,137196,1,2,0:1:0:0:
405,49,137299,2,0,P|384:78|390:111,1,55,10|0,0:1|0:0,0:0:0:0:
386,298,137505,2,0,B|405:278|405:278|409:248,1,55,2|0,0:1|0:0,0:0:0:0:
261,165,137710,5,2,0:1:0:0:
234,174,137813,1,0,0:0:0:0:
243,203,137916,1,0,0:0:0:0:
265,197,138018,1,0,0:0:0:0:
305,104,138121,2,0,P|286:94|251:93,1,55,2|0,0:1|0:0,0:0:0:0:
155,266,138327,5,2,0:1:0:0:
180,338,138429,2,0,P|198:344|237:334,1,55,0|0,0:1|0:0,0:0:0:0:
174,75,138635,5,2,0:1:0:0:
145,61,138737,1,8,0:0:0:0:
111,66,138840,1,0,0:0:0:0:
76,134,138943,6,0,L|89:204,1,55,10|0,0:1|0:0,0:0:0:0:
373,210,139148,5,10,0:1:0:0:
340,290,139251,2,0,P|305:287|274:271,1,55
222,158,139457,1,10,0:1:0:0:
218,141,139559,2,0,P|232:117|258:104,1,55
422,183,139765,5,8,0:0:0:0:
501,199,139868,1,0,0:0:0:0:
475,120,139970,1,0,0:1:0:0:
404,189,140073,6,0,P|410:215|428:237,1,55,2|0,0:1|0:0,0:0:0:0:
484,103,140279,5,2,0:1:0:0:
483,79,140381,2,0,P|460:62|415:68,1,55,0|0,0:1|0:0,0:0:0:0:
306,3,140587,2,0,B|313:57,1,55,10|0,0:1|0:0,0:0:0:0:
338,243,140792,6,0,L|326:267,3,27.5,2|0|0|0,0:1|0:1|0:1|0:1,0:0:0:0:
308,268,140998,5,2,0:1:0:0:
289,266,141066,5,2,0:1:0:0:
273,254,141135,5,2,0:1:0:0:
264,234,141203,5,2,0:1:0:0:
265,212,141272,5,2,0:1:0:0:
279,196,141340,5,2,0:1:0:0:
296,187,141409,5,2,0:1:0:0:
21,101,141820,6,0,B|92:146|113:108|174:156,1,165,0|0,0:1|0:0,0:0:0:0:
215,81,142231,5,8,0:1:0:0:
261,303,142436,1,8,0:1:0:0:
211,68,142642,6,0,B|171:22|171:22|205:26|230:6|230:6|215:61|234:128,1,230.99999295044,12|0,0:0|0:0,0:0:0:0:
74,136,143053,2,0,P|111:121|165:125,1,76.9999976501466,2|0,0:1|0:0,0:0:0:0:
401,268,143258,1,0,0:0:0:0:
308,92,143463,6,0,B|321:6|436:4|434:116|348:148,1,230.99999295044,8|0,0:0|0:0,0:0:0:0:
417,323,143874,2,0,B|384:333|356:371|356:371|389:210,1,230.99999295044,10|0,0:1|0:0,0:0:0:0:
498,213,144285,6,0,P|469:197|454:168,1,65.9999979858399,2|0,0:1|0:0,0:0:0:0:
474,19,144491,2,0,P|483:41|487:65,1,49.4999984893799,2|0,0:1|0:0,0:0:0:0:
359,194,144696,5,2,0:1:0:0:
319,210,144799,1,0,0:1:0:0:
294,242,144902,1,0,0:1:0:0:
267,265,145005,1,0,0:1:0:0:
241,272,145107,1,2,0:1:0:0:
219,267,145210,1,0,0:1:0:0:
207,252,145313,1,2,0:1:0:0:
206,239,145416,1,0,0:1:0:0:
238,168,145518,6,0,P|244:149|260:135,3,24.74999924469,10|2|2|2,0:1|0:1|0:1|0:1,0:0:0:0:
401,248,145724,6,0,P|355:254|316:281,1,93.500001783371,2|0,0:1|0:0,0:0:0:0:
24,96,145929,6,0,B|39:144|39:144|50:151|50:151|63:196,1,110,12|0,0:0|0:0,0:0:0:0:
101,25,146135,1,2,0:1:0:0:
48,288,146340,5,2,0:1:0:0:
444,204,146546,1,8,0:0:0:0:
324,313,146751,6,0,B|315:341|315:341|314:306,2,55,10|2|2,0:0|0:1|0:1,0:0:0:0:
336,153,146957,1,2,0:1:0:0:
144,273,147162,5,10,0:0:0:0:
130,202,147265,1,2,0:1:0:0:
56,270,147368,5,10,0:0:0:0:
48,298,147470,1,8,0:0:0:0:
20,205,147573,6,0,L|33:143,2,55,2|0|8,0:0|0:0|0:0,0:0:0:0:
152,269,147779,5,0,0:1:0:0:
157,286,147881,1,8,0:0:0:0:
288,229,147984,5,10,0:0:0:0:
274,206,148087,1,0,0:0:0:0:
241,199,148190,1,0,0:0:0:0:
217,217,148292,1,0,0:0:0:0:
218,248,148395,2,0,B|232:278|225:314|225:314|251:287|242:263,1,110,2|0,0:1|0:0,0:0:0:0:
158,173,148600,5,0,0:0:0:0:
165,145,148703,1,0,0:0:0:0:
182,75,148806,1,10,0:1:0:0:
116,369,149011,1,0,0:1:0:0:
476,103,149217,6,0,B|364:114|401:38|284:49|284:49|327:49|363:82,1,264,12|0,0:0|0:0,0:0:0:0:
396,171,149628,2,0,B|506:-46|330:-20|439:91,1,264,2|2,0:1|0:1,0:0:0:0:
316,135,150039,5,8,0:0:0:0:
288,131,150142,1,0,0:0:0:0:
258,148,150244,1,0,0:0:0:0:
250,186,150347,1,0,0:0:0:0:
310,230,150450,6,0,B|375:208|375:208|342:207,1,88,10|0,0:1|0:0,0:0:0:0:
165,61,150655,2,0,B|154:44|128:36|128:36|153:32|178:42,1,88,2|0,0:1|0:0,0:0:0:0:
297,113,150861,5,2,0:1:0:0:
215,212,150963,2,0,P|206:164|227:124,1,88,0|2,0:1|0:1,0:0:0:0:
354,166,151169,5,2,0:1:0:0:
429,180,151272,2,0,B|461:185|461:185|472:181|472:181|481:188|481:188|513:194,2,88,0|0|0,0:1|0:0|0:0,0:0:0:0:
344,168,151580,5,2,0:1:0:0:
357,93,151683,2,0,B|362:61|362:61|358:50|358:50|365:41|365:41|370:9,2,88,0|0|0,0:0|0:0|0:1,0:0:0:0:
434,311,151991,5,2,0:0:0:0:
437,334,152094,2,0,P|399:319|371:277,1,88,8|8,0:0|0:0,0:0:0:0:
301,148,152299,5,8,0:0:0:0:
314,150,152402,1,8,0:0:0:0:
294,231,152505,5,8,0:0:0:0:
258,276,152607,1,0,0:1:0:0:
213,284,152710,1,0,0:1:0:0:
186,272,152813,1,0,0:1:0:0:
175,253,152916,1,2,0:1:0:0:
208,65,153121,1,2,0:1:0:0:
298,304,153326,6,0,P|313:264|300:222,1,88,8|2,0:0|0:1,0:0:0:0:
104,211,153532,2,0,P|87:250|94:293,1,88,2|2,0:1|0:1,0:0:0:0:
201,319,153737,6,0,P|182:291|169:261,1,65.9999979858399,10|2,0:0|0:1,0:0:0:0:
235,263,153840,6,0,P|202:267|169:262,1,65.9999979858399,2|2,0:1|0:1,0:0:0:0:
214,214,153943,6,0,P|195:241|170:262,1,65.9999979858399,2|2,0:1|0:1,0:0:0:0:
180,199,154046,6,0,P|181:231|171:262,1,65.9999979858399,2|2,0:1|0:1,0:0:0:0:
107,221,154148,5,2,0:0:0:0:
82,245,154217,5,2,0:1:0:0:
52,250,154285,5,2,0:1:0:0:
32,235,154354,5,2,0:1:0:0:
24,216,154422,5,2,0:1:0:0:
24,200,154491,5,2,0:1:0:0:
30,190,154559,5,10,0:0:0:0:
101,25,154970,5,2,0:1:0:0:
231,326,155176,1,0,0:0:0:0:
247,251,155279,1,0,0:0:0:0:
233,228,155381,1,10,0:1:0:0:
158,361,155587,6,0,P|142:338|139:311,1,55,8|0,0:0|0:0,0:0:0:0:
29,302,155792,6,0,B|152:275|152:275|107:276|76:255,1,197.99999395752,12|0,0:0|0:0,0:0:0:0:
272,296,156203,6,0,B|265:314|260:337|260:337|241:320|244:296,1,76.9999976501466,2|0,0:1|0:0,0:0:0:0:
338,355,156409,2,0,P|309:315|303:256,1,76.9999976501466,2|0,0:1|0:0,0:0:0:0:
434,346,156614,2,0,B|317:209|451:86|516:199|497:249|429:265,1,296.99999093628,8|0,0:0|0:0,0:0:0:0:
305,317,157025,6,0,B|263:312|272:335|222:331,1,76.9999976501466,10|0,0:1|0:0,0:0:0:0:
123,153,157231,2,0,P|160:159|192:180,1,76.9999976501466,2|0,0:1|0:0,0:0:0:0:
142,353,157436,2,0,P|135:380|152:357,1,76.9999976501466,2|0,0:1|0:0,0:0:0:0:
183,260,157642,1,2,0:1:0:0:
91,83,157847,6,0,B|60:106|60:106|47:137|47:137|17:160,1,110,2|2,0:1|0:1,0:0:0:0:
182,188,158053,2,0,B|188:152|188:152|179:119|179:119|187:78,1,98.9999969787599,0|2,0:1|0:1,0:0:0:0:
271,124,158258,2,0,B|283:147|283:147|286:174|286:174|301:199,1,82.5000031471254,2|2,0:1|0:1,0:0:0:0:
373,168,158463,2,0,B|378:146|378:146|389:127|389:127|392:104,1,65.9999979858399,0|2,0:1|0:1,0:0:0:0:
451,169,158669,6,0,L|489:176,4,32.99999899292,10|0|0|0|8,0:1|0:1|0:1|0:1|0:0,0:0:0:0:
232,55,159080,6,0,L|241:120,1,65.9999979858399,8|0,0:0|0:0,0:0:0:0:
277,377,159285,1,0,0:0:0:0:
246,255,159491,5,8,0:0:0:0:
327,262,159594,1,0,0:0:0:0:
366,297,159696,1,8,0:0:0:0:
152,310,159902,5,8,0:1:0:0:
457,237,160107,2,0,L|391:227,1,65.9999979858399,0|8,0:0|0:0,0:0:0:0:
301,216,160313,5,8,0:1:0:0:
252,220,160416,1,8,0:0:0:0:
222,256,160518,5,8,0:0:0:0:
222,278,160621,1,8,0:0:0:0:
234,292,160724,1,8,0:0:0:0:
303,138,160929,5,8,0:0:0:0:
306,121,161032,1,0,0:0:0:0:
303,113,161135,1,4,0:0:0:0:
361,290,162368,6,0,P|361:273|359:257,3,32.99999899292,0|0|0|0,0:0|0:0|0:0|0:0,0:0:0:0:
411,205,162779,2,0,P|395:179|368:156,5,49.4999984893799,0|0|0|0|0|0,0:0|0:0|0:0|0:0|0:0|0:0,0:0:0:0:
321,114,163395,6,0,P|296:123|261:120,1,49.4999984893799,0|0,0:0|0:0,0:0:0:0:
392,87,163600,2,0,P|396:62|408:41,4,49.4999984893799
481,23,164114,2,0,B|493:19|505:24|505:24|495:29|485:26,1,32.99999899292
33,319,166066,6,0,P|82:322|128:345,1,98.9999969787599,0|0,0:0|0:0,0:0:0:0:
129,360,166477,1,0,0:0:0:0:
186,294,166683,1,0,0:0:0:0:
191,274,166785,1,0,0:0:0:0:
181,252,166888,1,0,0:0:0:0:
204,365,167094,5,0,0:0:0:0:
164,226,167299,2,0,P|151:186|157:139,1,65.9999979858399,0|0,0:0|0:0,0:0:0:0:
76,102,167710,6,0,B|63:153|-65:154|-54:14|16:-2|137:-22|66:48|155:31|217:226|450:-22|227:0|165:48,1,550,2|0,0:0|0:0,0:0:0:0:
144,132,168943,6,0,P|145:142|150:152,5,22,0|0|0|0|0|0,0:0|0:0|0:0|0:0|0:0|0:0,0:0:0:0:
119,218,169559,2,0,P|135:234|153:246,5,44,0|0|0|0|0|0,0:0|0:0|0:0|0:0|0:0|0:0,0:0:0:0:
170,319,170176,1,0,0:0:0:0:
184,322,170279,1,0,0:0:0:0:
199,322,170381,2,0,P|226:314|258:317,1,44,0|0,0:0|0:0,0:0:0:0:
277,252,170587,2,0,P|304:258|323:277,1,55,0|0,0:0|0:0,0:0:0:0:
394,244,170792,2,0,P|410:258|435:299,1,65.9999979858399,0|0,0:0|0:0,0:0:0:0:
499,325,170998,5,2,0:0:0:0:
463,163,174285,6,0,P|477:98|497:35,1,132,0|0,0:0|0:0,0:0:0:0:
390,140,174696,2,0,P|398:74|413:10,1,115.49999647522,0|0,0:0|0:0,0:0:0:0:
314,133,175107,2,0,P|316:75|323:17,1,98.9999969787599,0|0,0:0|0:0,0:0:0:0:
250,180,175518,2,0,P|222:172|250:174,1,82.5,0|0,0:0|0:0,0:0:0:0:
174,237,175929,6,0,P|211:260|252:261,1,82.5,0|0,0:0|0:0,0:0:0:0:
250,339,176340,2,0,P|290:331|326:311,1,82.5,0|0,0:0|0:0,0:0:0:0:
384,362,176751,2,0,P|406:327|413:287,1,82.5,0|0,0:0|0:0,0:0:0:0:
371,183,177162,2,0,B|367:202|371:223|371:223|363:205|343:193,1,82.5,0|0,0:0|0:0,0:0:0:0:
293,57,177573,6,0,B|260:3|342:16|309:112,1,132,0|0,0:0|0:0,0:0:0:0:
385,115,177984,2,0,B|404:174|447:103|352:66,1,132,0|0,0:0|0:0,0:0:0:0:
410,66,178395,1,0,0:0:0:0:
483,167,178600,6,0,L|535:156,1,29.3333333333333,0|0,0:0|0:0,0:0:0:0:
443,238,178806,2,0,L|391:235,1,29.3333333333333,0|0,0:0|0:0,0:0:0:0:
479,306,179011,5,0,0:0:0:0:
329,214,179217,6,0,B|315:115|315:115|329:143,1,132,0|0,0:0|0:0,0:0:0:0:
236,207,179628,2,0,L|242:125,1,82.5,0|0,0:0|0:0,0:0:0:0:
151,172,180039,2,0,L|170:124,1,49.4999984893799,0|0,0:0|0:0,0:0:0:0:
92,119,180450,6,0,P|85:101|98:115,1,49.4999984893799,0|0,0:0|0:0,0:0:0:0:
8,80,180861,6,0,P|96:63|186:58,1,165,0|0,0:0|0:0,0:0:0:0:
236,23,181272,2,0,P|297:32|355:51,1,123.750004720688
160,64,181683,6,0,P|120:73|85:95,1,82.5000031471254,0|0,0:0|0:0,0:0:0:0:
75,98,182094,2,0,P|62:122|62:149,1,55,0|0,0:0|0:0,0:0:0:0:
433,40,183327,6,0,P|446:52|458:71,3,32.99999899292,0|0|0|0,0:0|0:0|0:0|0:0,0:0:0:0:
48,203,186203,6,0,B|129:293|238:190|230:193|334:58|522:62|629:203|479:430|324:328|352:230,1,660.000025177003,12|0,0:0|0:0,0:0:0:0:
226,49,186820,2,0,B|5:252|160:382|363:367|308:68,1,632.50001206398,4|0,0:1|0:0,0:0:0:0:
0,81,187436,6,0,B|113:138|94:55|234:123,1,214.49999018097,14|0,0:3|0:0,0:0:0:0:
9,116,187847,2,0,B|118:159|93:83|205:126,1,181.500005538941,2|0,0:1|0:0,0:0:0:0:
178,241,188258,6,0,B|81:238|49:73|219:55|240:245|153:224,1,296.99999093628,10|0,0:1|0:0,0:0:0:0:
51,255,188669,6,0,B|24:266|7:240|7:240|33:228|59:257,1,98.9999969787599,2|0,0:1|0:0,0:0:0:0:
74,342,188874,2,0,P|102:321|160:308,1,71.4999967269899,2|0,0:1|0:0,0:0:0:0:
223,378,189080,5,8,0:0:0:0:
221,344,189157,5,8,0:0:0:0:
237,315,189234,5,8,0:0:0:0:
399,52,189491,6,0,B|371:33|360:3|360:3|392:189,1,214.49999018097,8|0,0:0|0:0,0:0:0:0:
428,244,189902,6,0,B|425:260|434:290|434:290|421:266|397:252,1,71.4999967269899,10|0,0:1|0:0,0:0:0:0:
364,327,190107,6,0,P|309:330|259:308,1,110,2|0,0:1|0:0,0:0:0:0:
181,339,190313,2,0,P|140:287|121:219,1,121.000003692627,2|0,0:1|0:0,0:0:0:0:
64,176,190518,2,0,P|70:110|100:52,1,131.99999597168,2|0,0:1|0:0,0:0:0:0:
160,0,190724,6,0,P|219:102|211:222,1,214.49999018097,14|0,0:0|0:0,0:0:0:0:
146,41,191135,2,0,P|194:98|207:170,1,148.49999546814,2|0,0:1|0:0,0:0:0:0:
183,268,191546,6,0,B|139:289|94:284|94:284|208:316|207:220|344:273,1,296.99999093628,10|0,0:1|0:0,0:0:0:0:
344,342,191957,2,0,B|441:381|597:285|439:171|449:316,1,247.500009441376,2|0,0:1|0:0,0:0:0:0:
337,349,192368,5,8,0:0:0:0:
328,314,192445,5,8,0:0:0:0:
343,277,192522,5,8,0:0:0:0:
137,246,192779,6,0,B|318:201|318:201|287:210|271:242,1,214.49999018097,8|0,0:0|0:0,0:0:0:0:
244,352,193190,2,0,B|198:117|198:117|199:91|187:64|187:64|220:95|207:147,1,375.374988544465,10|0,0:1|0:0,0:0:0:0:
304,52,193600,6,0,P|315:108|303:164,1,115.49999647522,2|0,0:1|0:0,0:0:0:0:
354,282,193806,2,0,P|365:216|419:176,1,137.5,2|0,0:1|0:0,0:0:0:0:
453,0,194011,6,0,B|447:93|502:73|498:173,1,165,12|0,0:0|0:0,0:0:0:0:
393,106,194422,6,0,P|395:21|404:106,1,230.99999295044,10|0,0:0|0:0,0:0:0:0:
258,74,194833,6,0,B|281:43|281:43|276:87|299:130|299:130|265:109|251:74,1,165,10|0,0:1|0:0,0:0:0:0:
138,57,195244,6,0,B|48:62|38:302|295:176|182:48|140:41,1,296.99999093628,10|0,0:0|0:0,0:0:0:0:
52,208,195655,6,0,B|55:240|55:240|80:257|132:249|132:249|88:248|54:215,1,165,8|0,0:0|0:0,0:0:0:0:
203,226,196066,6,0,B|145:295|-77:337|-91:53|122:101|118:188,1,363.000011077881,10|0,0:0|0:0,0:0:0:0:
317,262,196477,6,0,B|355:365|355:365|362:326|362:326|337:310|323:270,1,197.99999395752,10|0,0:1|0:0,0:0:0:0:
317,139,196888,6,0,B|344:233|240:443|127:313|177:406|84:233|268:282,1,428.999980361939,10|0,0:0|0:0,0:0:0:0:
512,138,197299,6,0,B|509:19|402:28|402:28|446:29|472:54,1,230.99999295044,8|0,0:0|0:0,0:0:0:0:
384,235,197710,6,0,B|214:12|561:-40|472:224,1,461.999985900879,10|0,0:0|0:0,0:0:0:0:
257,147,198121,6,0,B|191:25|191:25|254:29|214:54|246:114,1,230.99999295044,10|0,0:1|0:0,0:0:0:0:
79,198,198532,6,0,B|205:449|554:144|229:8|396:150|287:260,1,495.000018882752,10|0,0:0|0:0,0:0:0:0:
108,67,198943,6,0,B|113:136|139:109|183:167|183:167|116:47,1,247.500009441376,8|0,0:0|0:0,0:0:0:0:
32,71,199354,6,0,P|35:101|45:130,1,60.5000018463135,8|0,0:0|0:0,0:0:0:0:
129,337,199559,2,0,B|107:356|116:385|116:385|137:363|133:341,1,71.4999967269899,2|0,0:1|0:0,0:0:0:0:
36,278,199765,6,0,B|136:345|284:305|284:305|237:365|157:357,1,330,14|0,0:1|0:0,0:0:0:0:
453,360,200176,6,0,P|417:319|373:287,1,110,14|0,0:1|0:0,0:0:0:0:
313,221,200381,2,0,P|303:155|316:91,1,131.99999597168,0|0,0:1|0:0,0:0:0:0:
400,10,200587,5,12,0:0:0:0:
437,24,200690,1,2,0:1:0:0:
459,54,200792,1,2,0:1:0:0:
463,101,200895,1,2,0:1:0:0:
451,149,200998,6,0,P|420:193|384:223,1,71.4999967269899,2|0,0:1|0:0,0:0:0:0:
359,297,201203,2,0,P|366:333|379:366,1,71.4999967269899,2|0,0:1|0:0,0:0:0:0:
303,211,201409,6,0,P|285:200|260:191,7,35.749998363495,10|0|0|0|0|0|0|0,0:1|0:0|0:0|0:0|0:0|0:0|0:0|0:0,0:0:0:0:
273,123,201820,6,0,P|220:109|166:115,1,82.5000031471254,2|0,0:1|0:0,0:0:0:0:
104,67,202025,2,0,P|58:95|27:140,1,82.5000031471254,2|0,0:1|0:0,0:0:0:0:
11,213,202231,6,0,L|114:225,1,82.5000031471254,2|0,0:1|0:0,0:0:0:0:
97,237,202436,2,0,L|16:227,1,82.5000031471254,2|0,0:1|0:0,0:0:0:0:
173,358,202642,6,0,P|198:318|209:273,1,93.500001783371,8|0,0:0|0:0,0:0:0:0:
268,204,202847,2,0,P|243:147|201:102,1,93.500001783371,2|0,0:1|0:0,0:0:0:0:
190,32,203053,1,10,0:1:0:0:
182,258,203258,6,0,B|451:206|451:206|400:167|428:218|329:209,1,374.000007133484,2|2,0:1|0:1,0:0:0:0:
337,343,203772,5,2,0:1:0:0:
254,321,203874,2,0,L|409:291,1,142.99999345398,8|2,0:0|0:1,0:0:0:0:
107,370,204285,6,0,P|114:319|103:269,1,76.9999976501466,2|0,0:1|0:0,0:0:0:0:
125,174,204491,2,0,P|94:132|52:103,1,76.9999976501466,2|0,0:1|0:0,0:0:0:0:
27,270,204696,6,0,B|84:258|84:258|101:246|101:246|121:252|121:252|189:240,1,153.999995300293,10|2,0:1|0:1,0:0:0:0:
326,334,205107,6,0,P|376:342|438:328,1,82.5000031471254,2|0,0:1|0:0,0:0:0:0:
505,360,205313,2,0,P|451:353|398:364,1,82.5000031471254,2|0,0:1|0:0,0:0:0:0:
348,305,205518,5,2,0:1:0:0:
277,261,205621,2,0,P|258:223|251:175,1,71.4999967269899,2|2,0:1|0:1,0:0:0:0:
337,320,205827,5,2,0:1:0:0:
212,296,205929,2,0,B|159:287|159:287|197:281,1,71.4999967269899,8|2,0:0|0:1,0:0:0:0:
356,245,206135,5,2,0:1:0:0:
359,231,206237,1,2,0:1:0:0:
446,192,206340,2,0,B|463:134|463:134|448:151,1,71.4999967269899,10|0,0:1|0:0,0:0:0:0:
362,72,206546,5,2,0:1:0:0:
377,144,206648,2,0,P|343:130|310:88,1,71.4999967269899,2|0,0:1|0:0,0:0:0:0:
222,15,206854,5,2,0:1:0:0:
155,27,206957,1,2,0:1:0:0:
98,77,207059,1,0,0:0:0:0:
94,158,207162,2,0,B|105:222|105:222|112:200|103:182,1,88,8|0,0:0|0:1,0:0:0:0:
0,115,207368,6,0,P|28:91|87:92,1,88,2|0,0:1|0:1,0:0:0:0:
204,297,207573,6,0,B|207:324|224:333|224:333|224:314|219:313,1,65.9999979858399,2|0,0:1|0:0,0:0:0:0:
210,153,207710,2,0,B|232:135|231:116|231:116|214:126|216:130,1,65.9999979858399,2|0,0:1|0:1,0:0:0:0:
87,212,207847,2,0,B|61:201|44:211|44:211|61:221|64:217,1,65.9999979858399,2|0,0:1|0:0,0:0:0:0:
168,224,207984,5,10,0:1:0:0:
405,283,208190,5,2,0:0:0:0:
396,279,208292,1,2,0:0:0:0:
374,371,208395,6,0,P|323:329|315:281,1,98.9999969787599,2|0,0:1|0:0,0:0:0:0:
324,221,208600,2,0,P|342:175|315:102,1,98.9999969787599,2|0,0:1|0:0,0:0:0:0:
270,66,208806,5,2,0:0:0:0:
265,56,208909,1,2,0:0:0:0:
172,54,209011,6,0,P|178:103|212:138,1,98.9999969787599,2|0,0:1|0:0,0:0:0:0:
410,106,209217,2,0,B|474:98|474:98|439:94,1,98.9999969787599,8|0,0:0|0:0,0:0:0:0:
265,56,209422,5,2,0:0:0:0:
254,60,209525,1,2,0:0:0:0:
164,38,209628,6,0,B|96:24|96:24|83:82,1,98.9999969787599,10|0,0:1|0:0,0:0:0:0:
179,275,209833,2,0,B|165:346|230:323|184:275,1,98.9999969787599,2|0,0:1|0:0,0:0:0:0:
74,141,210039,5,2,0:0:0:0:
61,142,210142,1,2,0:0:0:0:
138,176,210244,5,2,0:1:0:0:
190,158,210347,1,0,0:0:0:0:
217,126,210450,2,0,P|287:121|336:149,1,98.9999969787599,10|0,0:0|0:0,0:0:0:0:
364,196,210655,2,0,P|356:243|314:265,1,98.9999969787599,2|0,0:1|0:0,0:0:0:0:
435,117,210861,5,2,0:0:0:0:
435,117,210963,1,2,0:0:0:0:
422,37,211066,2,0,B|426:20|426:-3|426:-3|450:23|449:62,1,98.9999969787599,2|0,0:1|0:0,0:0:0:0:
384,195,211272,6,0,B|383:221|401:240|401:240|388:219|396:186,1,80.6666691284181,10|0,0:1|0:0,0:0:0:0:
331,138,211409,2,0,B|309:125|285:130|285:130|309:130|333:153,1,80.6666691284181,2|0,0:1|0:0,0:0:0:0:
409,122,211546,2,0,B|433:110|440:86|440:86|428:107|396:117,1,80.6666691284181,2|0,0:1|0:0,0:0:0:0:
377,200,211683,6,0,B|371:228|386:252|386:252|377:227|392:193,1,87.9999973144532,2|0,0:1|0:0,0:0:0:0:
330,128,211820,2,0,B|309:109|281:110|281:110|307:115|330:145,1,87.9999973144532,2|0,0:1|0:0,0:0:0:0:
418,126,211957,2,0,B|446:118|459:93|459:93|442:113|405:117,1,87.9999973144532,2|0,0:1|0:0,0:0:0:0:
367,209,212094,6,0,B|355:240|367:269|367:269|362:239|386:204,1,95.3333289693199,2|0,0:1|0:0,0:0:0:0:
328,118,212231,2,0,B|309:93|277:88|277:88|305:99|324:137,1,95.3333289693199,2|0,0:1|0:0,0:0:0:0:
428,134,212368,2,0,B|461:130|480:105|480:105|457:124|415:122,1,95.3333289693199,2|0,0:1|0:0,0:0:0:0:
344,245,212505,6,0,B|326:274|333:306|333:306|354:282|341:244,1,102.666663533529,10|0,0:0|0:0,0:0:0:0:
392,61,212642,2,0,B|412:35|407:8|407:8|384:26|395:71,1,102.666663533529,2|0,0:1|0:0,0:0:0:0:
480,241,212779,6,0,B|496:242|503:237|503:237|414:214,1,102.666663533529,2|0,0:1|0:0,0:0:0:0:
193,162,212916,1,10,0:1:0:0:
445,130,213327,5,2,0:0:0:0:
452,111,213430,1,2,0:0:0:0:
461,91,213533,1,2,0:0:0:0:
467,72,213635,1,2,0:0:0:0:
510,148,213737,6,0,B|484:96|430:74|430:74|397:124|411:177,1,214.49999018097,14|0,0:0|0:0,0:0:0:0:
500,161,214148,2,0,B|480:108|436:99|436:99|410:135|426:189,1,181.500005538941,2|0,0:1|0:0,0:0:0:0:
502,253,214559,6,0,B|491:272|471:285|471:285|207:176,1,296.99999093628,10|0,0:1|0:0,0:0:0:0:
101,177,214970,6,0,B|83:125|48:108|48:108|65:35|65:35|148:275,1,363.000011077881,2|0,0:1|0:0,0:0:0:0:
144,345,215381,6,0,B|99:368|46:364|46:364|89:362|116:340,1,148.49999546814,10|0,0:0|0:0,0:0:0:0:
0,294,215792,6,0,B|229:342|229:342|207:306|160:296,1,280.500005350113,8|0,0:0|0:0,0:0:0:0:
305,330,216203,6,0,P|259:341|224:373,1,71.4999967269899,10|0,0:1|0:0,0:0:0:0:
391,344,216409,6,0,P|398:299|394:252,1,93.500001783371,2|0,0:1|0:0,0:0:0:0:
439,167,216614,2,0,P|410:125|368:95,1,104.499997209549,2|0,0:1|0:0,0:0:0:0:
317,12,216820,2,0,P|260:3|203:13,1,115.49999647522,2|0,0:1|0:0,0:0:0:0:
100,187,217025,6,0,B|56:168|61:89|173:62|194:222,1,214.49999018097,14|0,0:0|0:0,0:0:0:0:
61,143,217436,2,0,P|143:153|179:230,1,148.49999546814,8|0,0:0|0:0,0:0:0:0:
102,251,217847,6,0,B|121:278|119:333|119:333|183:79,1,296.99999093628,10|0,0:1|0:0,0:0:0:0:
26,71,218258,6,0,B|-2:65|-2:65|11:101|11:101|39:111|39:111|174:88|174:88|187:81|187:81|293:62|293:62|213:54,1,428.999980361939,14|0,0:1|0:0,0:0:0:0:
209,48,218669,5,8,0:0:0:0:
220,100,218746,5,8,0:0:0:0:
231,151,218823,5,8,0:0:0:0:
498,82,219080,6,0,B|463:61|356:88|356:88|344:104|344:104|262:117,1,247.500009441376,8|0,0:0|0:0,0:0:0:0:
397,177,219491,6,0,B|277:234|329:354|501:379|514:120|375:210,1,346.49998942566,10|0,0:1|0:0,0:0:0:0:
332,293,219902,6,0,P|373:323|424:331,1,104.499997209549,2|0,0:1|0:0,0:0:0:0:
269,384,220107,2,0,P|256:320|213:271,1,131.99999597168,2|0,0:1|0:0,0:0:0:0:
63,293,220313,6,0,B|45:294|32:310|32:310|38:337|34:363|34:363|55:355|72:326|72:326|72:314|67:302,1,165,12|0,0:0|0:0,0:0:0:0:
135,382,220724,6,0,B|158:334|156:288|107:231|107:231|84:178|104:133,1,230.99999295044,10|0,0:0|0:0,0:0:0:0:
190,80,221135,6,0,B|190:117|157:119|157:119|141:96|116:89|116:89|185:80,1,165,10|0,0:1|0:0,0:0:0:0:
33,26,221546,6,0,B|134:-9|137:71|233:66|233:66|355:48,1,296.99999093628,10|0,0:0|0:0,0:0:0:0:
351,234,221957,6,0,B|381:157|381:157|398:180|384:193|384:193|408:216|359:226,1,165,8|0,0:0|0:0,0:0:0:0:
285,352,222368,6,0,B|393:88|393:88|380:83|423:54|474:61,1,363.000011077881,10|0,0:0|0:0,0:0:0:0:
296,126,222779,6,0,B|247:114|223:73|223:73|265:94|314:84|314:84|298:122,1,197.99999395752,10|0,0:1|0:0,0:0:0:0:
354,6,223190,6,0,B|306:30|298:89|298:89|416:349|416:349|418:318|408:290,1,428.999980361939,10|0,0:0|0:0,0:0:0:0:
269,216,223600,2,0,B|213:206|155:230|155:230|230:186|230:186|266:210,1,230.99999295044,8|0,0:0|0:0,0:0:0:0:
83,257,224011,6,0,B|272:142|272:142|341:115|408:127|459:111|459:111|448:149|408:127,1,461.999985900879,10|0,0:0|0:0,0:0:0:0:
340,24,224422,6,0,P|374:41|412:45,1,76.9999976501466,10|0,0:1|0:0,0:0:0:0:
325,13,224628,2,0,P|336:42|326:12,1,76.9999976501466,2|0,0:1|0:0,0:0:0:0:
240,5,224833,6,0,B|165:346|165:346|150:301|139:270|139:270|173:252|190:197,1,495.000018882752,10|0,0:0|0:0,0:0:0:0:
0,165,225244,6,0,B|43:166|65:183|65:183|103:188|103:188|96:134|96:134|14:161,1,247.500009441376,8|0,0:0|0:0,0:0:0:0:
310,344,225655,6,0,L|295:255,1,60.5000018463135,8|0,0:0|0:0,0:0:0:0:
263,52,225861,1,2,0:1:0:0:
12,240,226066,6,0,B|161:116|305:386|435:197|435:197|421:231|364:235,1,528,14|0,0:0|0:0,0:0:0:0:
216,124,226477,2,0,B|42:267|150:398|323:389|290:142,1,495.000018882752,6|0,0:1|0:0,0:0:0:0:
198,4,226888,5,8,0:0:0:0:
153,18,226991,1,2,0:1:0:0:
136,53,227094,1,2,0:1:0:0:
138,82,227196,1,2,0:1:0:0:
153,108,227299,6,0,P|179:137|217:153,1,71.4999967269899,2|2,0:1|0:0,0:0:0:0:
353,139,227505,2,0,B|355:120|369:103|369:103|352:114|327:114,1,71.4999967269899,2|0,0:1|0:0,0:0:0:0:
280,192,227710,1,10,0:1:0:0:
390,356,227916,5,2,0:0:0:0:
394,345,228018,1,2,0:0:0:0:
311,333,228121,6,0,P|306:293|321:255,1,82.5000031471254,2|0,0:1|0:0,0:0:0:0:
351,149,228327,2,0,P|391:138|432:143,1,82.5000031471254,2|0,0:1|0:0,0:0:0:0:
484,227,228532,5,2,0:0:0:0:
481,240,228635,1,2,0:0:0:0:
318,94,228943,6,0,B|313:125|313:125|330:184,1,93.500001783371,8|0,0:0|0:0,0:0:0:0:
508,339,229148,5,2,0:0:0:0:
496,331,229251,1,2,0:0:0:0:
417,323,229354,6,0,B|231:352|231:352|290:385|264:350|331:338,1,280.500005350113,10|0,0:1|0:0,0:0:0:0:
377,248,229765,5,2,0:0:0:0:
390,251,229868,1,2,0:0:0:0:
225,368,230176,6,0,P|179:373|123:353,1,71.4999967269899,10|0,0:0|0:0,0:0:0:0:
54,367,230381,2,0,P|31:327|27:276,1,71.4999967269899,2|0,0:1|0:0,0:0:0:0:
90,223,230587,5,2,0:0:0:0:
93,212,230690,2,0,B|123:242|123:242|163:225|163:225|168:181|141:145,1,153.999995300293,2|0,0:0|0:0,0:0:0:0:
19,162,230998,5,10,0:1:0:0:
220,93,231203,5,2,0:0:0:0:
218,104,231306,1,2,0:0:0:0:
243,213,231409,6,0,P|185:253|134:251,1,82.5000031471254,2|0,0:1|0:0,0:0:0:0:
84,305,231614,2,0,P|35:274|10:231,1,82.5000031471254,2|0,0:1|0:0,0:0:0:0:
77,97,231820,1,2,0:0:0:0:
91,100,231922,1,2,0:0:0:0:
8,249,232231,6,0,B|27:233|27:233|81:243,1,71.4999967269899,8|2,0:0|0:1,0:0:0:0:
206,224,232436,5,2,0:0:0:0:
220,224,232538,1,2,0:0:0:0:
255,291,232642,6,0,L|266:328,3,38.4999988250733,10|0|0|0,0:1|0:0|0:0|0:0,0:0:0:0:
329,249,233053,5,2,0:0:0:0:
351,237,233155,1,2,0:0:0:0:
379,243,233258,1,2,0:0:0:0:
389,271,233361,1,2,0:0:0:0:
366,298,233463,2,0,B|175:277|175:277|223:275|270:239,1,264,10|2,0:0|0:1,0:0:0:0:
203,131,233874,6,0,B|202:129|187:139|187:139|185:167|171:184,1,65.9999979858399,2|0,0:0|0:0,0:0:0:0:
127,348,234011,2,0,B|128:348|126:331|126:331|103:315|95:294,1,65.9999979858399,2|0,0:0|0:0,0:0:0:0:
227,262,234148,2,0,B|228:259|212:252|212:252|186:264|166:260,1,65.9999979858399,2|0,0:0|0:0,0:0:0:0:
98,213,234285,5,10,0:1:0:0:
121,41,234491,5,2,0:0:0:0:
121,41,234594,1,2,0:0:0:0:
97,122,234696,6,0,B|87:161|80:177|80:177|92:203|88:225,1,98.9999969787599,2|0,0:1|0:0,0:0:0:0:
23,329,234902,2,0,B|43:302|33:271|33:271|18:254|12:228,1,98.9999969787599,2|0,0:1|0:0,0:0:0:0:
236,67,235107,5,2,0:0:0:0:
244,69,235210,2,0,B|234:21|234:21|203:68,1,98.9999969787599,2|2,0:0|0:1,0:0:0:0:
476,210,235518,6,0,B|453:228|453:228|382:212,1,98.9999969787599,8|0,0:0|0:0,0:0:0:0:
157,168,235723,5,2,0:0:0:0:
157,168,235826,1,2,0:0:0:0:
135,259,235929,6,0,B|141:292|133:328|133:328|148:309|146:289,1,98.9999969787599,10|0,0:1|0:0,0:0:0:0:
230,262,236135,2,0,B|265:269|281:296|281:296|307:306|342:286,1,98.9999969787599,2|0,0:1|0:0,0:0:0:0:
273,193,236340,5,2,0:0:0:0:
273,193,236443,1,2,0:0:0:0:
308,115,236545,5,2,0:1:0:0:
245,61,236648,1,0,0:0:0:0:
209,137,236751,2,0,B|261:148|302:117,1,98.9999969787599,8|0,0:0|0:0,0:0:0:0:
494,157,236956,2,0,P|509:110|492:65,1,98.9999969787599,2|0,0:1|0:0,0:0:0:0:
434,315,237162,5,2,0:0:0:0:
434,315,237264,1,2,0:0:0:0:
374,253,237368,2,0,B|361:206|419:215|413:142,1,98.9999969787599,2|0,0:1|0:0,0:0:0:0:
191,96,237573,6,0,B|149:13|209:34|175:92,1,80.6666691284181,10|0,0:1|0:0,0:0:0:0:
172,175,237710,2,0,B|79:169|127:128|160:186,1,80.6666691284181,2|0,0:1|0:0,0:0:0:0:
264,54,237847,2,0,B|314:-23|326:38|259:38,1,80.6666691284181,2|0,0:1|0:0,0:0:0:0:
257,247,237984,6,0,B|201:332|188:263|261:264,1,87.9999973144532,2|0,0:1|0:0,0:0:0:0:
342,221,238121,2,0,B|388:312|322:289|359:225,1,87.9999973144532,2|0,0:1|0:0,0:0:0:0:
176,200,238258,2,0,B|73:194|126:148|163:213,1,87.9999973144532,2|0,0:1|0:0,0:0:0:0:
356,113,238395,6,0,B|475:119|413:172|370:97,1,95.3333289693199,2|0,0:1|0:0,0:0:0:0:
279,42,238532,2,0,B|344:-58|359:22|273:21,1,95.3333289693199,2|0,0:1|0:0,0:0:0:0:
355,222,238669,2,0,B|409:328|331:301|375:227,1,95.3333289693199,2|0,0:1|0:0,0:0:0:0:
184,52,238806,6,0,B|165:21|173:-10|173:-10|195:13|182:47,1,95.3333289693199,8|0,0:0|0:0,0:0:0:0:
267,286,238943,2,0,B|246:312|251:339|251:339|274:320|264:276,1,102.666663533529,2|0,0:1|0:0,0:0:0:0:
343,83,239080,6,0,B|349:141|291:165,1,102.666663533529,2|0,0:1|0:0,0:0:0:0:
80,210,239217,6,2,B|61:181|69:168|78:173|77:199,3,55,10|2|2|2,0:1|0:1|0:1|0:1,0:1:0:0:
72,227,239628,5,2,0:0:0:0:
148,209,239730,1,2,0:0:0:0:
224,191,239833,1,2,0:0:0:0:
300,173,239936,1,2,0:0:0:0:
374,156,240038,5,12,0:0:0:0:
174,348,240244,1,2,0:1:0:0:
209,97,240450,6,0,B|213:57|213:57|211:6,1,71.4999967269899,2|2,0:1|0:2,0:0:0:0:
284,107,240553,2,0,B|298:72|298:72|300:29,1,71.4999967269899,2|2,0:1|0:2,0:0:0:0:
354,141,240655,2,0,B|380:113|380:113|383:79,3,71.4999967269899,2|0|2|0,0:1|0:0|0:1|0:0,0:0:0:0:
365,151,240861,5,8,0:1:0:0:
220,314,241066,5,2,0:1:0:0:
224,328,241169,2,0,B|336:305|336:305|306:333,2,142.99999345398,2|2|2,0:1|0:1|0:1,0:0:0:0:
14,206,241477,1,2,0:1:0:0:
311,274,241683,5,2,0:1:0:0:
312,265,241785,1,2,0:1:0:0:
285,198,241888,2,0,B|263:310|263:310|214:321,1,142.99999345398,2|0,0:1|0:0,0:0:0:0:
93,236,242094,1,12,0:0:0:0:
433,289,242299,5,10,0:2:0:0:
430,295,242402,1,2,0:1:0:0:
388,354,242505,6,0,B|390:325|390:325|363:292,1,71.4999967269899,8|0,0:1|0:0,0:0:0:0:
298,317,242607,1,2,0:1:0:0:
227,293,242710,1,2,0:1:0:0:
157,306,242813,1,2,0:1:0:0:
112,361,242916,5,2,0:1:0:0:
99,364,243018,2,0,B|82:335|82:335|81:296,1,71.4999967269899,2|0,0:1|0:0,0:0:0:0:
38,331,243121,2,0,B|83:334|83:334|204:293,1,142.99999345398,10|0,0:2|0:0,0:0:0:0:
440,194,243327,5,12,0:0:0:0:
170,227,243532,2,0,B|124:234|124:234|88:214|88:214|178:225,1,142.99999345398,2|0,0:1|0:0,0:0:0:0:
427,199,243737,5,2,0:1:0:0:
426,125,243840,1,2,0:1:0:0:
406,78,243943,1,2,0:1:0:0:
403,38,244046,1,2,0:1:0:0:
415,15,244148,2,0,B|461:38|461:38|380:56|380:56|402:40,1,142.99999345398,8|0,0:1|0:0,0:0:0:0:
250,23,244354,5,2,0:1:0:0:
242,40,244457,1,2,0:1:0:0:
210,108,244559,2,0,B|201:73|201:73|308:40,1,142.99999345398,12|0,0:0|0:0,0:0:0:0:
486,61,244765,1,2,0:1:0:0:
130,112,244970,5,2,0:1:0:0:
127,97,245073,1,2,0:1:0:0:
186,52,245176,1,10,0:2:0:0:
204,58,245279,1,2,0:1:0:0:
223,68,245381,2,0,B|219:132|219:132|147:162,1,142.99999345398,10|0,0:2|0:0,0:0:0:0:
49,41,245587,5,2,0:1:0:0:
56,52,245690,1,2,0:1:0:0:
124,18,245792,2,0,B|146:47|146:47|142:103,1,71.4999967269899,8|0,0:1|0:0,0:0:0:0:
185,56,245895,1,10,0:2:0:0:
406,220,246100,5,2,0:1:0:0:
421,218,246203,6,0,B|438:188|438:188|434:151,3,71.4999967269899,2|2|2|2,0:1|0:2|0:1|0:2,0:0:0:0:
358,137,246409,2,0,B|340:166|340:166|344:203,3,71.4999967269899,2|2|2|2,0:1|0:2|0:1|0:2,0:0:0:0:
479,84,246614,6,0,B|475:112|475:112|357:176,1,142.99999345398,12|0,0:0|0:0,0:0:0:0:
177,91,246820,2,0,B|183:36|183:36|217:118,1,142.99999345398,10|0,0:1|0:0,0:0:0:0:
345,315,247025,6,0,B|347:350|347:350|357:384,1,71.4999967269899,2|2,0:1|0:2,0:0:0:0:
258,316,247128,2,0,B|244:351|244:351|244:399,1,71.4999967269899,2|2,0:1|0:2,0:0:0:0:
192,276,247231,2,0,B|164:301|164:301|148:339,3,71.4999967269899,2|10|2|10,0:1|0:2|0:1|0:2,0:0:0:0:
189,262,247436,5,8,0:1:0:0:
381,249,247642,5,2,0:1:0:0:
390,244,247744,1,2,0:1:0:0:
361,174,247847,2,0,B|338:281|338:281|387:297,1,142.99999345398,12|0,0:0|0:0,0:0:0:0:
381,369,248053,1,2,0:1:0:0:
280,191,248258,5,2,0:1:0:0:
267,187,248361,1,2,0:1:0:0:
313,112,248463,5,2,0:1:0:0:
310,91,248566,1,2,0:1:0:0:
240,84,248669,2,0,B|273:63|273:63|418:97,1,142.99999345398,12|0,0:0|0:0,0:0:0:0:
427,142,248874,5,2,0:1:0:0:
437,138,248977,1,2,0:1:0:0:
500,109,249080,1,8,0:1:0:0:
289,153,249285,1,2,0:1:0:0:
77,199,249491,6,2,B|90:212|90:212|78:146,6,71.4999967269899,2|2|2|2|2|2|2,0:1|0:1|0:1|0:1|0:1|0:1|0:1,0:1:0:0:
0,108,249902,6,0,L|204:148,1,142.99999345398,12|0,0:0|0:0,0:0:0:0:
292,166,250107,1,2,0:1:0:0:
105,351,250313,5,2,0:1:0:0:
100,340,250416,1,2,0:1:0:0:
67,277,250518,1,2,0:1:0:0:
128,217,250621,1,2,0:1:0:0:
152,298,250724,2,0,B|42:287|42:287|7:257,1,142.99999345398,8|0,0:1|0:0,0:0:0:0:
33,170,250929,5,2,0:1:0:0:
21,141,251032,1,2,0:1:0:0:
53,71,251135,2,0,L|82:232,1,142.99999345398,12|0,0:0|0:0,0:0:0:0:
104,365,251340,2,0,B|60:350|60:350|179:326,1,142.99999345398,2|0,0:1|0:0,0:0:0:0:
263,232,251546,5,2,0:1:0:0:
258,218,251648,1,2,0:1:0:0:
201,164,251751,2,0,B|235:136|235:136|261:169|261:169|227:196|227:196|205:169,1,142.99999345398,2|0,0:1|0:0,0:0:0:0:
309,101,251957,5,2,0:1:0:0:
107,7,252162,5,10,0:2:0:0:
98,1,252265,1,2,0:2:0:0:
38,35,252368,5,10,0:1:0:0:
20,114,252470,2,0,B|30:137|30:137|74:148,1,71.4999967269899,2|2,0:1|0:2,0:0:0:0:
61,183,252573,1,2,0:1:0:0:
86,226,252676,1,2,0:1:0:0:
76,291,252779,1,10,0:1:0:0:
49,320,252881,2,0,B|86:330|86:330|121:304,1,71.4999967269899,10|2,0:2|0:2,0:0:0:0:
109,338,252984,6,0,B|90:371|90:371|53:348,3,71.4999967269899,10|10|10|10,0:2|0:2|0:2|0:2,0:0:0:0:
94,384,253190,5,12,0:0:0:0:
53,179,253396,5,2,0:1:0:0:
357,368,253600,2,0,B|354:332|354:332|335:302,1,71.4999967269899,2|10,0:1|0:2,0:0:0:0:
444,310,253703,2,0,B|419:282|419:282|381:260,1,71.4999967269899,2|10,0:1|0:2,0:0:0:0:
483,240,253806,2,0,B|449:226|449:226|414:233,3,71.4999967269899,10|2|2|2,0:1|0:2|0:1|0:2,0:0:0:0:
447,207,254011,5,8,0:1:0:0:
262,160,254217,5,2,0:1:0:0:
271,149,254320,2,0,B|200:164|200:164|258:439,1,285.99998690796,2|0,0:1|0:0,0:0:0:0:
381,361,254628,2,0,B|426:306|426:306|411:200,1,142.99999345398,2|0,0:1|0:0,0:0:0:0:
339,112,254833,5,2,0:1:0:0:
336,96,254936,1,2,0:1:0:0:
260,80,255039,2,0,B|249:112|249:112|370:157,1,142.99999345398,2|0,0:1|0:0,0:0:0:0:
491,119,255244,1,12,0:0:0:0:
295,225,255450,5,10,0:2:0:0:
303,240,255553,1,2,0:1:0:0:
365,257,255655,6,0,B|398:276|398:276|380:326,1,71.4999967269899,8|0,0:1|0:0,0:0:0:0:
389,260,255758,1,2,0:1:0:0:
452,212,255861,1,2,0:1:0:0:
458,120,255963,1,2,0:1:0:0:
396,63,256066,5,2,0:1:0:0:
386,66,256169,2,0,B|369:37|369:37|368:-2,1,71.4999967269899,2|0,0:1|0:0,0:0:0:0:
345,5,256272,1,10,0:2:0:0:
512,44,256477,5,12,0:0:0:0:
290,149,256683,2,0,B|321:183|321:183|300:71,1,142.99999345398,2|0,0:1|0:0,0:0:0:0:
224,43,256889,5,2,0:1:0:0:
229,52,256992,1,2,0:1:0:0:
207,120,257095,5,2,0:1:0:0:
227,189,257196,1,2,0:1:0:0:
190,265,257300,1,10,0:1:0:0:
46,149,257505,5,2,0:1:0:0:
32,154,257607,1,2,0:1:0:0:
20,231,257710,2,0,B|-1:123|-1:123|51:109,1,142.99999345398,12|0,0:0|0:0,0:0:0:0:
159,84,257916,1,2,0:1:0:0:
97,234,258121,5,2,0:1:0:0:
104,159,258224,1,2,0:1:0:0:
174,138,258326,1,2,0:1:0:0:
195,169,258429,1,2,0:1:0:0:
211,200,258532,1,8,0:0:0:0:
27,127,258737,5,2,0:1:0:0:
40,46,258840,1,2,0:1:0:0:
124,19,258943,2,0,B|146:48|146:48|142:104,1,71.4999967269899,10|0,0:1|0:0,0:0:0:0:
164,43,259046,1,8,0:0:0:0:
54,359,259251,5,10,0:2:0:0:
41,384,259354,2,0,B|20:352|20:352|20:318,3,71.4999967269899,2|2|2|2,0:1|0:2|0:1|0:2,0:0:0:0:
63,255,259559,2,0,B|84:223|84:223|83:189,3,71.4999967269899,2|10|2|10,0:1|0:2|0:1|0:2,0:0:0:0:
70,176,259765,5,12,0:0:0:0:
464,101,259970,1,2,0:1:0:0:
239,298,260176,2,0,B|273:278|273:278|316:286,1,71.4999967269899,2|0,0:1|0:0,0:0:0:0:
209,224,260279,2,0,B|234:195|234:195|267:187,1,71.4999967269899,2|2,0:1|0:2,0:0:0:0:
150,174,260381,2,0,B|163:142|163:142|191:117,3,71.4999967269899,2|10|2|10,0:1|0:2|0:1|0:2,0:0:0:0:
146,135,260587,5,8,0:1:0:0:
186,345,260792,5,2,0:1:0:0:
191,360,260895,1,2,0:1:0:0:
273,360,260998,2,0,L|98:339,1,142.99999345398,12|0,0:0|0:0,0:0:0:0:
24,322,261203,2,0,B|-1:254|-1:254|45:263|45:263|24:317,1,142.99999345398,10|0,0:1|0:0,0:0:0:0:
294,260,261409,5,10,0:1:0:0:
286,277,261511,1,2,0:1:0:0:
305,352,261614,5,2,0:1:0:0:
386,348,261717,1,2,0:1:0:0:
446,293,261820,2,0,B|488:170|488:170|445:193,1,142.99999345398,8|0,0:0|0:0,0:0:0:0:
223,185,262025,5,2,0:1:0:0:
231,207,262128,1,2,0:1:0:0:
232,286,262231,5,8,0:1:0:0:
291,21,262436,2,0,P|291:43|284:64,6,35.749998363495,2|0|0|0|0|0|0,0:1|0:1|0:1|0:1|0:1|0:1|0:1,0:1:0:0:
218,31,262642,6,0,B|199:34|199:34|213:102,7,71.4999967269899,2|2|2|2|2|2|2|2,0:1|0:2|0:1|0:2|0:1|0:2|0:1|0:2,0:0:0:0:
292,0,263053,6,0,B|242:21|242:21|213:144|213:144|241:95,1,214.49999018097,12|0,0:0|0:0,0:0:0:0:
267,202,263258,1,2,0:1:0:0:
10,187,263463,5,2,0:1:0:0:
25,174,263566,1,2,0:1:0:0:
97,181,263669,5,2,0:1:0:0:
157,229,263772,1,2,0:1:0:0:
236,238,263874,2,0,B|338:218|338:218|283:204,1,142.99999345398,10|0,0:1|0:0,0:0:0:0:
165,121,264080,5,2,0:1:0:0:
171,137,264184,1,2,0:1:0:0:
249,220,264285,2,0,B|363:273|363:273|382:231,1,142.99999345398,8|0,0:0|0:0,0:0:0:0:
510,192,264492,1,2,0:1:0:0:
339,183,264696,5,2,0:1:0:0:
330,163,264799,1,2,0:1:0:0:
257,144,264902,6,0,B|222:149|222:149|213:157|213:157|151:164|151:164|191:151,1,142.99999345398,2|0,0:1|0:0,0:0:0:0:
416,311,265107,2,0,B|430:357|430:357|377:339|377:339|412:314,1,142.99999345398,8|0,0:0|0:0,0:0:0:0:
461,59,265314,5,10,0:2:0:0:
384,311,265518,5,2,0:1:0:0:
368,326,265621,2,0,B|354:306|354:306|373:293|373:293|386:311|386:311|367:323,1,71.4999967269899,2|2,0:1|0:2,0:0:0:0:
279,296,265724,5,2,0:1:0:0:
262,198,265827,1,2,0:1:0:0:
314,141,265929,1,2,0:1:0:0:
388,137,266032,6,0,B|395:100|395:100|367:62,1,71.4999967269899,10|2,0:2|0:2,0:0:0:0:
430,86,266135,6,0,B|429:45|429:45|417:77,3,71.4999967269899,10|10|10|10,0:2|0:2|0:2|0:2,0:0:0:0:
436,30,266340,5,12,0:0:0:0:
441,27,266751,6,0,L|447:64,1,38.4999988250733,2|0,0:0|0:0,0:0:0:0:
448,34,266854,1,2,0:0:0:0:
386,135,267368,6,0,L|379:97,1,38.4999988250733,2|0,0:0|0:0,0:0:0:0:
379,128,267471,1,2,0:0:0:0:
467,100,267984,5,2,0:0:0:0:
460,107,268087,1,2,0:0:0:0:
359,45,268601,6,0,L|396:38,1,38.4999988250733,2|0,0:0|0:0,0:0:0:0:
366,38,268704,1,2,0:0:0:0:
467,100,269217,5,2,0:0:0:0:
462,108,269320,2,0,B|429:116|429:116|343:93,1,110,2|0,0:0|0:0,0:0:0:0:
278,106,269628,6,0,B|206:-2|306:-15|276:80,1,165,6|0,0:0|0:0,0:0:0:0:
235,177,270039,5,2,0:0:0:0:
233,191,270142,1,2,0:0:0:0:
288,248,270655,5,2,0:0:0:0:
290,255,270758,1,2,0:0:0:0:
349,298,271272,5,2,0:0:0:0:
345,314,271375,1,2,0:0:0:0:
286,360,271888,5,2,0:0:0:0:
294,382,271991,1,2,0:0:0:0:
294,366,272094,1,2,0:0:0:0:
131,356,272505,5,2,0:0:0:0:
134,344,272607,1,2,0:0:0:0:
148,352,272710,1,2,0:0:0:0:
122,348,272813,1,2,0:0:0:0:
49,328,272916,6,0,B|135:308|106:375|217:357,1,165,6|0,0:0|0:0,0:0:0:0:
274,306,273327,5,2,0:0:0:0:
278,292,273429,2,0,L|268:247,1,27.5,2|0,0:0|0:0,0:0:0:0:
392,263,273943,6,0,B|405:291|405:291|397:314,1,55,2|2,0:0|0:0,0:0:0:0:
411,265,274559,6,0,B|414:298|414:298|398:329,1,55,2|2,0:0|0:0,0:0:0:0:
429,276,275176,6,0,B|439:306|439:306|430:350,1,55,2|2,0:0|0:0,0:0:0:0:
457,276,275792,6,0,B|478:299|478:299|460:335,1,55,2|2,0:0|0:0,0:0:0:0:
37,190,276203,6,0,P|110:152|192:148,1,165,6|0,0:0|0:0,0:0:0:0:
52,75,276614,5,2,0:0:0:0:
59,84,276717,1,2,0:0:0:0:
63,154,276820,2,0,B|81:69|120:98|170:53|62:17|82:84,1,165,6|0,0:0|0:0,0:0:0:0:
136,174,277231,5,2,0:0:0:0:
149,181,277333,1,2,0:0:0:0:
218,146,277847,5,2,0:0:0:0:
222,146,277950,1,2,0:0:0:0:
299,198,278463,5,2,0:0:0:0:
313,204,278566,1,2,0:0:0:0:
303,206,278669,1,2,0:0:0:0:
373,157,279080,6,0,B|386:152|386:152|391:155|391:155|406:150,4,32.99999899292,2|2|2|2|2,0:0|0:0|0:0|0:0|0:0,0:0:0:0:
489,167,279594,6,0,P|497:153|499:136,1,32.99999899292,6|0,0:0|0:0,0:0:0:0:
424,81,279799,2,0,B|413:53|421:21|421:21|394:91|433:97|415:159,1,197.99999395752,4|0,0:0|0:0,0:0:0:0:
381,219,280518,5,2,0:0:0:0:
384,226,280621,1,2,0:0:0:0:
442,280,281135,5,2,0:0:0:0:
446,286,281237,1,2,0:0:0:0:
383,327,281751,5,2,0:0:0:0:
380,330,281854,1,2,0:0:0:0:
438,377,282368,5,2,0:0:0:0:
441,384,282470,1,2,0:0:0:0:
195,332,282779,6,0,P|179:295|178:294,1,32.99999899292,6|0,0:0|0:0,0:0:0:0:
273,371,282984,5,2,0:0:0:0:
267,383,283087,2,0,B|281:304|174:322|170:220,1,197.99999395752,4|0,0:0|0:0,0:0:0:0:
203,157,283806,5,2,0:0:0:0:
202,148,283909,1,2,0:0:0:0:
144,101,284422,5,2,0:0:0:0:
142,93,284525,1,2,0:0:0:0:
202,55,285039,101,2,0:0:0:0:
204,47,285142,1,2,0:0:0:0:
208,60,285244,1,2,0:0:0:0:
84,41,285655,6,0,B|99:32|99:32|118:35,3,32.99999899292,2|2|2|2,0:0|0:0|0:0|0:0,0:0:0:0:
92,153,286066,6,0,P|67:180|22:194,1,82.5,6|0,0:0|0:0,0:0:0:0:
103,252,286477,2,0,B|67:171|160:128|153:15|-32:15|20:172|97:133,1,330,4|0,0:0|0:0,0:0:0:0:
182,333,289354,6,0,B|186:331|180:320|173:301,1,27.5,6|0,0:0|0:0,0:0:0:0:
262,356,289559,2,0,B|245:316|297:295|278:243,1,110.000004196167,4|0,0:0|0:0,0:0:0:0:
163,315,289970,6,0,B|99:339|87:255|200:226|177:298|260:344|358:229|358:229|327:259|293:265,1,396,4|0,0:0|0:0,0:0:0:0:
227,178,292744,38,0,B|250:172|261:178|283:171,1,55,4|0,0:0|0:0,0:0:0:0:
338,117,293155,2,0,B|223:92|260:200|146:201|133:113|133:113|146:148|174:140|175:152,1,313.49999043274,4|0,0:0|0:0,0:0:0:0:
285,119,295929,6,0,P|285:108|292:98,1,22,4|0,0:0|0:0,0:0:0:0:
227,56,296237,2,0,B|176:17|208:-54|316:26|217:77|255:150,1,231,4|0,0:0|0:0,0:0:0:0:
256,255,299217,5,4,0:0:0:0:
256,192,299320,12,0,302094,0:0:0:0:
395,99,302505,6,0,B|385:84|363:69|363:69|356:64|371:63|371:63|371:74|363:69|363:69|363:69|344:56|314:49|314:49|304:48|318:41|318:41|325:52|314:49|314:49|289:44|265:44|265:44|255:45|265:36|265:36|275:44|265:44|265:44|185:48|132:102|144:60|144:60|196:34|289:76|234:89|319:150|319:150|358:121|147:47|72:198|128:326|260:348|260:348|343:271|352:172|267:124|203:146,1,1337.59998367188,4|0,0:2|0:0,0:0:0:0:
