osu file format v14

[General]
AudioFilename: audio.mp3
AudioLeadIn: 0
PreviewTime: -1
Countdown: 1
SampleSet: None
StackLeniency: 0.7
Mode: 0
LetterboxInBreaks: 0
WidescreenStoryboard: 1

[Editor]
DistanceSpacing: 1
BeatDivisor: 4
GridSize: 4
TimelineZoom: 1

[Metadata]
Title:Goodbye
TitleUnicode:Goodbye
Artist:Apashe
ArtistUnicode:Apashe
Creator:GuitarHeroNewb
Version:Goodbye!!!
Source:Idk
Tags:GOBGUB
BeatmapID:1324356
BeatmapSetID:628133

[Difficulty]
HPDrainRate:6
CircleSize:4
OverallDifficulty:10
ApproachRate:10
SliderMultiplier:2.1
SliderTickRate:4

[Events]
//Background and Video events
0,0,"cool-background-10.jpg",0,0
//Break Periods
//Storyboard Layer 0 (Background)
//Storyboard Layer 1 (Fail)
//Storyboard Layer 2 (Pass)
//Storyboard Layer 3 (Foreground)
//Storyboard Sound Samples

[TimingPoints]
-8,375,4,1,0,100,1,0

[HitObjects]
435,123,742,1,0,0:0:0:0:
390,212,929,1,0,0:0:0:0:
86,252,1117,1,0,0:0:0:0:
412,241,1304,1,0,0:0:0:0:
479,354,1492,2,0,B|479:344|478:292|478:283|477:231,1,209
172,12,2242,1,0,0:0:0:0:
370,63,2429,1,0,0:0:0:0:
394,121,2617,1,0,0:0:0:0:
399,303,2804,1,0,0:0:0:0:
343,108,2992,2,0,B|428:169|428:94,1,209
187,326,3742,5,0,0:0:0:0:
87,250,3929,1,0,0:0:0:0:
241,215,4117,1,0,0:0:0:0:
219,250,4304,1,0,0:0:0:0:
492,283,4492,2,0,L|921:691,1,104
57,335,4867,1,0,0:0:0:0:
433,278,5054,1,0,0:0:0:0:
211,260,5242,1,0,0:0:0:0:
155,128,5429,1,0,0:0:0:0:
189,26,5617,1,0,0:0:0:0:
393,67,5804,1,0,0:0:0:0:
416,252,5992,2,0,B|401:283|425:258|449:234,1,104
391,57,6367,5,0,0:0:0:0:
389,286,6554,1,0,0:0:0:0:
390,288,6647,1,0,0:0:0:0:
391,290,6741,1,0,0:0:0:0:
325,119,6929,1,0,0:0:0:0:
350,269,7117,1,0,0:0:0:0:
451,68,7304,1,0,0:0:0:0:
201,344,7492,2,0,B|212:276|223:207|233:138,1,209
473,228,8242,1,0,0:0:0:0:
474,227,8335,1,0,0:0:0:0:
475,226,8429,1,0,0:0:0:0:
253,90,8617,1,0,0:0:0:0:
211,23,8804,1,0,0:0:0:0:
12,186,8992,2,0,L|-68:247,1,104
97,329,9367,1,0,0:0:0:0:
99,326,9460,1,0,0:0:0:0:
101,323,9554,1,0,0:0:0:0:
355,190,9742,1,0,0:0:0:0:
202,112,9929,1,0,0:0:0:0:
346,233,10117,1,0,0:0:0:0:
138,187,10304,1,0,0:0:0:0:
163,259,10492,2,0,B|199:222|236:185,1,104
97,250,10867,1,0,0:0:0:0:
261,171,11054,1,0,0:0:0:0:
313,367,11242,1,0,0:0:0:0:
403,367,11429,1,0,0:0:0:0:
404,365,11522,1,0,0:0:0:0:
405,363,11616,1,0,0:0:0:0:
195,110,11804,1,0,0:0:0:0:
227,318,11992,2,0,L|600:395,1,209
49,113,12742,1,0,0:0:0:0:
51,111,12835,1,0,0:0:0:0:
53,109,12929,1,0,0:0:0:0:
355,190,13117,1,0,0:0:0:0:
325,251,13304,1,0,0:0:0:0:
440,143,13492,2,0,L|914:682,1,104
198,210,13867,1,0,0:0:0:0:
372,30,14054,1,0,0:0:0:0:
119,26,14242,1,0,0:0:0:0:
45,120,14429,1,0,0:0:0:0:
304,289,14617,1,0,0:0:0:0:
450,148,14804,1,0,0:0:0:0:
447,147,14897,1,0,0:0:0:0:
444,146,14991,1,0,0:0:0:0:
355,190,15179,5,0,0:0:0:0:
277,343,15367,1,0,0:0:0:0:
275,344,15460,1,0,0:0:0:0:
273,345,15554,1,0,0:0:0:0:
270,91,15742,1,0,0:0:0:0:
146,247,15929,1,0,0:0:0:0:
332,340,16117,1,0,0:0:0:0:
390,17,16304,1,0,0:0:0:0:
170,284,16492,2,0,B|124:308|78:333|47:291|16:249,1,209
180,49,17242,1,0,0:0:0:0:
268,151,17429,1,0,0:0:0:0:
340,199,17617,1,0,0:0:0:0:
90,318,17804,1,0,0:0:0:0:
293,144,17992,2,0,B|251:89|190:121|128:154,1,209
163,237,18742,5,0,0:0:0:0:
40,220,18929,1,0,0:0:0:0:
443,358,19117,1,0,0:0:0:0:
274,286,19304,1,0,0:0:0:0:
115,338,19492,2,0,B|90:330|112:345|87:337|108:353,1,104
210,114,19867,1,0,0:0:0:0:
118,114,20054,1,0,0:0:0:0:
271,126,20242,1,0,0:0:0:0:
272,125,20335,1,0,0:0:0:0:
273,124,20429,1,0,0:0:0:0:
263,196,20617,1,0,0:0:0:0:
265,197,20710,1,0,0:0:0:0:
267,198,20804,1,0,0:0:0:0:
109,302,20992,2,0,B|78:261|95:310,1,104
353,172,21367,5,0,0:0:0:0:
446,327,21554,1,0,0:0:0:0:
126,228,21742,1,0,0:0:0:0:
232,215,21929,1,0,0:0:0:0:
216,161,22117,1,0,0:0:0:0:
207,62,22304,1,0,0:0:0:0:
97,344,22492,2,0,B|76:316|55:288|83:308,1,104
495,34,22867,1,0,0:0:0:0:
291,73,23054,1,0,0:0:0:0:
226,153,23242,1,0,0:0:0:0:
425,123,23429,1,0,0:0:0:0:
425,121,23522,1,0,0:0:0:0:
425,119,23616,1,0,0:0:0:0:
156,177,23804,1,0,0:0:0:0:
361,238,23992,2,0,L|738:496,1,104
452,112,24367,5,0,0:0:0:0:
44,222,24554,1,0,0:0:0:0:
262,335,24742,1,0,0:0:0:0:
263,337,24835,1,0,0:0:0:0:
264,339,24929,1,0,0:0:0:0:
288,285,25117,1,0,0:0:0:0:
32,248,25304,1,0,0:0:0:0:
105,360,25492,2,0,L|313:447,1,104
339,128,25867,1,0,0:0:0:0:
178,255,26054,1,0,0:0:0:0:
196,267,26242,1,0,0:0:0:0:
290,143,26429,1,0,0:0:0:0:
195,46,26617,1,0,0:0:0:0:
186,335,26804,1,0,0:0:0:0:
186,332,26897,1,0,0:0:0:0:
186,329,26991,1,0,0:0:0:0:
156,177,27179,5,0,0:0:0:0:
107,351,27367,1,0,0:0:0:0:
170,314,27554,1,0,0:0:0:0:
275,95,27742,1,0,0:0:0:0:
258,79,27929,1,0,0:0:0:0:
303,199,28117,1,0,0:0:0:0:
433,119,28304,1,0,0:0:0:0:
409,285,28492,2,0,B|443:285|478:285|478:285,1,104
242,37,28867,1,0,0:0:0:0:
294,85,29054,1,0,0:0:0:0:
490,303,29242,1,0,0:0:0:0:
488,54,29429,1,0,0:0:0:0:
60,17,29617,1,0,0:0:0:0:
160,93,29804,1,0,0:0:0:0:
310,76,29992,2,0,B|321:109|333:141|302:158,1,104
346,83,30367,5,0,0:0:0:0:
284,48,30554,1,0,0:0:0:0:
197,233,30742,1,0,0:0:0:0:
72,327,30929,1,0,0:0:0:0:
185,301,31117,1,0,0:0:0:0:
426,268,31304,1,0,0:0:0:0:
115,342,31492,2,0,B|83:300|100:350|69:308|86:357,1,209
439,210,32242,1,0,0:0:0:0:
251,242,32429,1,0,0:0:0:0:
267,101,32617,1,0,0:0:0:0:
238,290,32804,1,0,0:0:0:0:
240,291,32897,1,0,0:0:0:0:
242,292,32991,1,0,0:0:0:0:
355,190,33179,5,0,0:0:0:0:
347,26,33367,1,0,0:0:0:0:
198,295,33554,1,0,0:0:0:0:
436,75,33742,1,0,0:0:0:0:
101,308,33929,1,0,0:0:0:0:
434,126,34117,1,0,0:0:0:0:
142,202,34304,1,0,0:0:0:0:
431,231,34492,2,0,L|966:662,1,104
47,48,34867,1,0,0:0:0:0:
184,125,35054,1,0,0:0:0:0:
179,114,35242,1,0,0:0:0:0:
120,217,35429,1,0,0:0:0:0:
219,30,35617,1,0,0:0:0:0:
219,29,35710,1,0,0:0:0:0:
219,28,35804,1,0,0:0:0:0:
141,294,35992,2,0,B|42:262|42:230,1,209
210,279,36742,5,0,0:0:0:0:
27,146,36929,1,0,0:0:0:0:
149,234,37117,1,0,0:0:0:0:
264,173,37304,1,0,0:0:0:0:
394,127,37492,2,0,B|497:109|497:207,1,209
353,62,38242,1,0,0:0:0:0:
343,166,38429,1,0,0:0:0:0:
340,166,38522,1,0,0:0:0:0:
337,166,38616,1,0,0:0:0:0:
355,190,38804,1,0,0:0:0:0:
301,58,38992,2,0,B|337:21|306:21|275:21|317:51,1,209
224,58,39742,5,0,0:0:0:0:
114,133,39929,1,0,0:0:0:0:
380,102,40117,1,0,0:0:0:0:
370,44,40304,1,0,0:0:0:0:
372,43,40397,1,0,0:0:0:0:
374,42,40491,1,0,0:0:0:0:
195,110,40679,1,0,0:0:0:0:
429,179,40867,1,0,0:0:0:0:
393,323,41054,1,0,0:0:0:0:
381,112,41242,1,0,0:0:0:0:
455,249,41429,1,0,0:0:0:0:
338,304,41617,1,0,0:0:0:0:
65,70,41804,1,0,0:0:0:0:
230,284,41992,2,0,B|207:296|191:275|176:254|160:233,1,104
154,104,42367,5,0,0:0:0:0:
288,262,42554,1,0,0:0:0:0:
189,111,42742,1,0,0:0:0:0:
200,320,42929,1,0,0:0:0:0:
365,177,43117,1,0,0:0:0:0:
270,180,43304,1,0,0:0:0:0:
412,346,43492,2,0,L|731:945,1,209
157,116,44242,1,0,0:0:0:0:
100,108,44429,1,0,0:0:0:0:
378,159,44617,1,0,0:0:0:0:
484,52,44804,1,0,0:0:0:0:
360,259,44992,2,0,B|335:251|310:243|299:266|320:281,1,104
50,326,45367,5,0,0:0:0:0:
152,25,45554,1,0,0:0:0:0:
154,25,45647,1,0,0:0:0:0:
156,25,45741,1,0,0:0:0:0:
336,248,45929,1,0,0:0:0:0:
356,352,46117,1,0,0:0:0:0:
174,52,46304,1,0,0:0:0:0:
22,133,46492,2,0,L|111:352,1,209
195,39,47242,1,0,0:0:0:0:
236,218,47429,1,0,0:0:0:0:
489,83,47617,1,0,0:0:0:0:
488,85,47710,1,0,0:0:0:0:
487,87,47804,1,0,0:0:0:0:
90,276,47992,2,0,B|21:267|32:198|102:198,1,209
156,177,48742,5,0,0:0:0:0:
441,171,48929,1,0,0:0:0:0:
450,296,49117,1,0,0:0:0:0:
424,159,49304,1,0,0:0:0:0:
35,253,49492,2,0,B|105:253|174:253|185:184,1,209
273,128,50242,1,0,0:0:0:0:
96,161,50429,1,0,0:0:0:0:
167,298,50617,1,0,0:0:0:0:
79,151,50804,1,0,0:0:0:0:
389,131,50992,2,0,B|410:146|394:126|416:141|434:122,1,104
43,348,51367,5,0,0:0:0:0:
288,288,51554,1,0,0:0:0:0:
196,127,51742,1,0,0:0:0:0:
304,250,51929,1,0,0:0:0:0:
211,103,52117,1,0,0:0:0:0:
281,263,52304,1,0,0:0:0:0:
389,309,52492,2,0,B|459:309|459:309|459:309,1,209
392,163,53242,1,0,0:0:0:0:
232,258,53429,1,0,0:0:0:0:
171,158,53617,1,0,0:0:0:0:
341,204,53804,1,0,0:0:0:0:
55,19,53992,2,0,L|-74:172,1,209
190,172,54742,5,0,0:0:0:0:
452,336,54929,1,0,0:0:0:0:
330,360,55117,1,0,0:0:0:0:
145,267,55304,1,0,0:0:0:0:
48,178,55492,2,0,B|56:126|64:74|116:74|169:74,1,209
119,205,56242,1,0,0:0:0:0:
105,192,56429,1,0,0:0:0:0:
415,99,56617,1,0,0:0:0:0:
239,73,56804,1,0,0:0:0:0:
58,168,56992,2,0,L|-84:162,1,209
89,168,57742,5,0,0:0:0:0:
29,273,57929,1,0,0:0:0:0:
334,263,58117,1,0,0:0:0:0:
333,261,58210,1,0,0:0:0:0:
332,259,58304,1,0,0:0:0:0:
123,220,58492,2,0,B|180:260|236:301|205:363,1,209
195,110,59242,1,0,0:0:0:0:
473,196,59429,1,0,0:0:0:0:
473,198,59522,1,0,0:0:0:0:
473,200,59616,1,0,0:0:0:0:
156,177,59804,1,0,0:0:0:0:
52,322,59992,2,0,B|21:280|57:242|26:201|26:225,1,209
191,76,60742,5,0,0:0:0:0:
406,338,60929,1,0,0:0:0:0:
405,337,61022,1,0,0:0:0:0:
404,336,61116,1,0,0:0:0:0:
270,91,61304,1,0,0:0:0:0:
462,206,61492,2,0,B|462:267|399:183,1,209
434,239,62242,1,0,0:0:0:0:
326,208,62429,1,0,0:0:0:0:
285,10,62617,1,0,0:0:0:0:
285,11,62710,1,0,0:0:0:0:
285,12,62804,1,0,0:0:0:0:
262,210,62992,2,0,B|314:201|365:192|417:183|468:174,1,209
210,279,63742,5,0,0:0:0:0:
351,315,63929,1,0,0:0:0:0:
348,316,64022,1,0,0:0:0:0:
345,317,64116,1,0,0:0:0:0:
270,91,64304,1,0,0:0:0:0:
95,13,64492,2,0,B|148:13|156:13|164:13|216:13,1,209
29,228,65242,1,0,0:0:0:0:
40,233,65429,1,0,0:0:0:0:
293,232,65617,1,0,0:0:0:0:
280,281,65804,1,0,0:0:0:0:
413,368,65992,2,0,B|422:368|430:368|415:347|423:347,1,104
455,176,66367,5,0,0:0:0:0:
12,48,66554,1,0,0:0:0:0:
387,80,66742,1,0,0:0:0:0:
150,152,66929,1,0,0:0:0:0:
336,81,67117,1,0,0:0:0:0:
103,236,67304,1,0,0:0:0:0:
102,234,67397,1,0,0:0:0:0:
101,232,67491,1,0,0:0:0:0:
336,248,67679,1,0,0:0:0:0:
293,168,67867,1,0,0:0:0:0:
471,146,68054,1,0,0:0:0:0:
217,276,68242,1,0,0:0:0:0:
159,353,68429,1,0,0:0:0:0:
18,340,68617,1,0,0:0:0:0:
181,102,68804,1,0,0:0:0:0:
326,354,68992,2,0,B|284:298|222:331|271:281,1,209
173,212,69742,5,0,0:0:0:0:
360,147,69929,1,0,0:0:0:0:
384,29,70117,1,0,0:0:0:0:
192,163,70304,1,0,0:0:0:0:
193,163,70397,1,0,0:0:0:0:
194,163,70491,1,0,0:0:0:0:
156,177,70679,1,0,0:0:0:0:
19,94,70867,1,0,0:0:0:0:
275,148,71054,1,0,0:0:0:0:
64,36,71242,1,0,0:0:0:0:
422,187,71429,1,0,0:0:0:0:
170,253,71617,1,0,0:0:0:0:
169,250,71710,1,0,0:0:0:0:
168,247,71804,1,0,0:0:0:0:
496,133,71992,2,0,B|495:81|493:28|493:78|493:69,1,209
355,190,72742,5,0,0:0:0:0:
401,311,72929,1,0,0:0:0:0:
383,23,73117,1,0,0:0:0:0:
491,81,73304,1,0,0:0:0:0:
153,88,73492,2,0,L|303:137,1,104
300,246,73867,1,0,0:0:0:0:
103,269,74054,1,0,0:0:0:0:
101,302,74242,1,0,0:0:0:0:
235,295,74429,1,0,0:0:0:0:
234,294,74522,1,0,0:0:0:0:
233,293,74616,1,0,0:0:0:0:
355,190,74804,1,0,0:0:0:0:
104,295,74992,2,0,B|161:336|209:286|258:236,1,209
358,295,75742,5,0,0:0:0:0:
158,14,75929,1,0,0:0:0:0:
365,290,76117,1,0,0:0:0:0:
353,219,76304,1,0,0:0:0:0:
104,116,76492,2,0,B|125:131|113:154|131:136|153:151,1,104
457,164,76867,1,0,0:0:0:0:
200,65,77054,1,0,0:0:0:0:
72,219,77242,1,0,0:0:0:0:
71,217,77335,1,0,0:0:0:0:
70,215,77429,1,0,0:0:0:0:
355,190,77617,1,0,0:0:0:0:
280,336,77804,1,0,0:0:0:0:
321,220,77992,2,0,L|637:332,1,209
477,148,78742,5,0,0:0:0:0:
427,266,78929,1,0,0:0:0:0:
351,116,79117,1,0,0:0:0:0:
307,356,79304,1,0,0:0:0:0:
194,295,79492,2,0,L|493:490,1,104
482,221,79867,1,0,0:0:0:0:
159,93,80054,1,0,0:0:0:0:
132,224,80242,1,0,0:0:0:0:
134,221,80335,1,0,0:0:0:0:
136,218,80429,1,0,0:0:0:0:
353,172,80617,1,0,0:0:0:0:
292,77,80804,1,0,0:0:0:0:
181,205,80992,2,0,B|115:184|84:246|140:287,1,209
355,266,81742,5,0,0:0:0:0:
191,143,81929,1,0,0:0:0:0:
207,283,82117,1,0,0:0:0:0:
394,330,82304,1,0,0:0:0:0:
160,210,82492,2,0,L|355:469,1,104
319,54,82867,1,0,0:0:0:0:
193,314,83054,1,0,0:0:0:0:
43,215,83242,1,0,0:0:0:0:
330,198,83429,1,0,0:0:0:0:
66,183,83617,1,0,0:0:0:0:
222,73,83804,1,0,0:0:0:0:
379,142,83992,2,0,B|395:191|394:139,1,104
313,55,84367,5,0,0:0:0:0:
411,90,84554,1,0,0:0:0:0:
264,88,84742,1,0,0:0:0:0:
226,176,84929,1,0,0:0:0:0:
187,176,85117,1,0,0:0:0:0:
202,236,85304,1,0,0:0:0:0:
161,28,85492,2,0,B|109:21|58:14,1,104
137,223,85867,1,0,0:0:0:0:
147,87,86054,1,0,0:0:0:0:
144,88,86147,1,0,0:0:0:0:
141,89,86241,1,0,0:0:0:0:
355,190,86429,1,0,0:0:0:0:
155,270,86617,1,0,0:0:0:0:
206,115,86804,1,0,0:0:0:0:
37,363,86992,2,0,B|94:363|63:363|32:363,1,209
203,43,87742,5,0,0:0:0:0:
352,346,87929,1,0,0:0:0:0:
374,354,88117,1,0,0:0:0:0:
372,351,88210,1,0,0:0:0:0:
370,348,88304,1,0,0:0:0:0:
431,105,88492,2,0,L|934:462,1,104
270,91,88867,1,0,0:0:0:0:
226,199,89054,1,0,0:0:0:0:
31,38,89242,1,0,0:0:0:0:
492,10,89429,1,0,0:0:0:0:
232,130,89617,1,0,0:0:0:0:
128,122,89804,1,0,0:0:0:0:
295,287,89992,2,0,B|329:281|328:246|294:242,1,104
60,99,90367,5,0,0:0:0:0:
141,197,90554,1,0,0:0:0:0:
112,96,90742,1,0,0:0:0:0:
435,360,90929,1,0,0:0:0:0:
482,336,91117,1,0,0:0:0:0:
453,208,91304,1,0,0:0:0:0:
45,209,91492,2,0,B|44:157|43:105|94:96|146:87,1,209
268,255,92242,1,0,0:0:0:0:
478,290,92429,1,0,0:0:0:0:
418,22,92617,1,0,0:0:0:0:
441,21,92804,1,0,0:0:0:0:
438,22,92897,1,0,0:0:0:0:
435,23,92991,1,0,0:0:0:0:
195,110,93179,5,0,0:0:0:0:
244,155,93367,1,0,0:0:0:0:
406,125,93554,1,0,0:0:0:0:
476,73,93742,1,0,0:0:0:0:
395,14,93929,1,0,0:0:0:0:
427,139,94117,1,0,0:0:0:0:
416,101,94304,1,0,0:0:0:0:
387,252,94492,2,0,L|671:625,1,104
241,112,94867,1,0,0:0:0:0:
176,51,95054,1,0,0:0:0:0:
358,202,95242,1,0,0:0:0:0:
313,262,95429,1,0,0:0:0:0:
18,174,95617,1,0,0:0:0:0:
99,12,95804,1,0,0:0:0:0:
454,17,95992,2,0,B|405:17,1,104
44,100,96367,5,0,0:0:0:0:
102,134,96554,1,0,0:0:0:0:
92,64,96742,1,0,0:0:0:0:
94,62,96835,1,0,0:0:0:0:
96,60,96929,1,0,0:0:0:0:
336,248,97117,1,0,0:0:0:0:
51,176,97304,1,0,0:0:0:0:
458,119,97492,2,0,B|466:143|443:155|428:134|412:114,1,104
364,161,97867,1,0,0:0:0:0:
149,197,98054,1,0,0:0:0:0:
338,249,98242,1,0,0:0:0:0:
163,233,98429,1,0,0:0:0:0:
381,325,98617,1,0,0:0:0:0:
321,43,98804,1,0,0:0:0:0:
158,187,98992,2,0,B|156:117|225:105|223:35,1,209
202,133,99742,5,0,0:0:0:0:
263,215,99929,1,0,0:0:0:0:
398,180,100117,1,0,0:0:0:0:
431,337,100304,1,0,0:0:0:0:
380,323,100492,2,0,B|414:323|414:305,1,209
456,183,101242,1,0,0:0:0:0:
65,46,101429,1,0,0:0:0:0:
314,154,101617,1,0,0:0:0:0:
344,174,101804,1,0,0:0:0:0:
141,177,101992,2,0,B|214:102|299:163,1,209
244,236,102742,5,0,0:0:0:0:
68,153,102929,1,0,0:0:0:0:
396,300,103117,1,0,0:0:0:0:
315,358,103304,1,0,0:0:0:0:
481,366,103492,2,0,B|381:335|282:303,1,209
62,195,104242,1,0,0:0:0:0:
64,192,104335,1,0,0:0:0:0:
66,189,104429,1,0,0:0:0:0:
160,160,104617,1,0,0:0:0:0:
252,337,104804,1,0,0:0:0:0:
468,25,104992,2,0,B|466:25|397:15|396:15,1,209
213,31,105742,5,0,0:0:0:0:
408,211,105929,1,0,0:0:0:0:
86,301,106117,1,0,0:0:0:0:
462,346,106304,1,0,0:0:0:0:
359,146,106492,2,0,B|367:95|317:79|325:27|333:27,1,209
439,349,107242,1,0,0:0:0:0:
351,277,107429,1,0,0:0:0:0:
29,324,107617,1,0,0:0:0:0:
263,299,107804,1,0,0:0:0:0:
214,183,107992,2,0,L|637:397,1,209
168,248,108742,5,0,0:0:0:0:
21,168,108929,1,0,0:0:0:0:
367,183,109117,1,0,0:0:0:0:
419,180,109304,1,0,0:0:0:0:
274,357,109492,2,0,B|222:350|221:298|273:289|271:236,1,209
444,185,110242,1,0,0:0:0:0:
463,288,110429,1,0,0:0:0:0:
123,339,110617,1,0,0:0:0:0:
250,368,110804,1,0,0:0:0:0:
251,365,110897,1,0,0:0:0:0:
252,362,110991,1,0,0:0:0:0:
270,91,111179,5,0,0:0:0:0:
309,336,111367,1,0,0:0:0:0:
264,218,111554,1,0,0:0:0:0:
369,258,111742,1,0,0:0:0:0:
469,132,111929,1,0,0:0:0:0:
422,200,112117,1,0,0:0:0:0:
183,185,112304,1,0,0:0:0:0:
185,183,112397,1,0,0:0:0:0:
187,181,112491,1,0,0:0:0:0:
253,90,112679,1,0,0:0:0:0:
120,338,112867,1,0,0:0:0:0:
120,336,112960,1,0,0:0:0:0:
120,334,113054,1,0,0:0:0:0:
355,190,113242,1,0,0:0:0:0:
333,125,113429,1,0,0:0:0:0:
132,46,113617,1,0,0:0:0:0:
115,17,113804,1,0,0:0:0:0:
380,204,113992,2,0,L|970:585,1,209
481,291,114742,5,0,0:0:0:0:
497,120,114929,1,0,0:0:0:0:
174,104,115117,1,0,0:0:0:0:
221,62,115304,1,0,0:0:0:0:
217,328,115492,2,0,L|642:545,1,209
99,14,116242,1,0,0:0:0:0:
222,197,116429,1,0,0:0:0:0:
178,322,116617,1,0,0:0:0:0:
159,25,116804,1,0,0:0:0:0:
382,153,116992,2,0,B|434:153|442:102|451:50|451:50,1,209
126,117,117742,1,0,0:0:0:0:
124,119,117835,1,0,0:0:0:0:
122,121,117929,1,0,0:0:0:0:
167,237,118117,1,0,0:0:0:0:
140,337,118304,1,0,0:0:0:0:
320,326,118492,2,0,B|356:289|398:319,1,104
357,188,118867,1,0,0:0:0:0:
284,151,119054,1,0,0:0:0:0:
367,116,119242,1,0,0:0:0:0:
367,118,119335,1,0,0:0:0:0:
367,120,119429,1,0,0:0:0:0:
195,110,119617,1,0,0:0:0:0:
241,217,119804,1,0,0:0:0:0:
249,88,119992,2,0,B|248:53|247:18|213:14,1,104
171,14,120367,5,0,0:0:0:0:
219,249,120554,1,0,0:0:0:0:
216,246,120647,1,0,0:0:0:0:
213,243,120741,1,0,0:0:0:0:
325,119,120929,1,0,0:0:0:0:
380,30,121117,1,0,0:0:0:0:
191,363,121304,1,0,0:0:0:0:
318,240,121492,2,0,L|653:455,1,104
140,183,121867,1,0,0:0:0:0:
478,165,122054,1,0,0:0:0:0:
72,191,122242,1,0,0:0:0:0:
161,190,122429,1,0,0:0:0:0:
142,173,122617,1,0,0:0:0:0:
129,112,122804,1,0,0:0:0:0:
437,276,122992,2,0,L|668:686,1,209
161,283,123742,5,0,0:0:0:0:
308,267,123929,1,0,0:0:0:0:
468,258,124117,1,0,0:0:0:0:
373,223,124304,1,0,0:0:0:0:
149,18,124492,2,0,B|87:50|136:50|94:50,1,209
378,260,125242,1,0,0:0:0:0:
89,220,125429,1,0,0:0:0:0:
397,172,125617,1,0,0:0:0:0:
154,76,125804,1,0,0:0:0:0:
71,208,125992,2,0,B|87:105|40:198,1,209
76,176,126742,1,0,0:0:0:0:
75,178,126835,1,0,0:0:0:0:
74,180,126929,1,0,0:0:0:0:
249,182,127117,1,0,0:0:0:0:
247,184,127210,1,0,0:0:0:0:
245,186,127304,1,0,0:0:0:0:
434,87,127492,2,0,B|402:149|459:189|459:140,1,209
270,91,128242,1,0,0:0:0:0:
85,159,128429,1,0,0:0:0:0:
185,141,128617,1,0,0:0:0:0:
36,243,128804,1,0,0:0:0:0:
426,345,128992,2,0,L|956:770,1,104
496,209,129367,5,0,0:0:0:0:
345,129,129554,1,0,0:0:0:0:
359,69,129742,1,0,0:0:0:0:
496,136,129929,1,0,0:0:0:0:
276,15,130117,1,0,0:0:0:0:
488,348,130304,1,0,0:0:0:0:
454,52,130492,2,0,L|981:432,1,104
480,341,130867,1,0,0:0:0:0:
187,216,131054,1,0,0:0:0:0:
127,296,131242,1,0,0:0:0:0:
355,296,131429,1,0,0:0:0:0:
361,203,131617,1,0,0:0:0:0:
380,313,131804,1,0,0:0:0:0:
103,330,131992,2,0,B|101:225|204:207,1,209
186,50,132742,5,0,0:0:0:0:
437,51,132929,1,0,0:0:0:0:
127,114,133117,1,0,0:0:0:0:
120,234,133304,1,0,0:0:0:0:
335,335,133492,2,0,B|351:232|251:200,1,209
102,47,134242,1,0,0:0:0:0:
481,234,134429,1,0,0:0:0:0:
133,204,134617,1,0,0:0:0:0:
257,154,134804,1,0,0:0:0:0:
456,111,134992,2,0,L|713:503,1,209
338,126,135742,5,0,0:0:0:0:
265,38,135929,1,0,0:0:0:0:
335,121,136117,1,0,0:0:0:0:
334,118,136210,1,0,0:0:0:0:
333,115,136304,1,0,0:0:0:0:
312,174,136492,2,0,L|727:468,1,104
270,91,136867,1,0,0:0:0:0:
278,163,137054,1,0,0:0:0:0:
374,201,137242,1,0,0:0:0:0:
376,199,137335,1,0,0:0:0:0:
378,197,137429,1,0,0:0:0:0:
270,91,137617,1,0,0:0:0:0:
306,334,137804,1,0,0:0:0:0:
43,261,137992,2,0,L|-98:402,1,209
431,315,138742,5,0,0:0:0:0:
311,232,138929,1,0,0:0:0:0:
221,284,139117,1,0,0:0:0:0:
32,85,139304,1,0,0:0:0:0:
422,53,139492,2,0,L|659:572,1,209
58,241,140242,1,0,0:0:0:0:
365,360,140429,1,0,0:0:0:0:
242,233,140617,1,0,0:0:0:0:
37,215,140804,1,0,0:0:0:0:
138,147,140992,2,0,L|150:117,1,209
136,292,141742,5,0,0:0:0:0:
265,193,141929,1,0,0:0:0:0:
148,195,142117,1,0,0:0:0:0:
469,290,142304,1,0,0:0:0:0:
273,37,142492,2,0,B|343:37|413:37|482:37,1,209
465,106,143242,1,0,0:0:0:0:
467,107,143335,1,0,0:0:0:0:
469,108,143429,1,0,0:0:0:0:
245,189,143617,1,0,0:0:0:0:
244,186,143710,1,0,0:0:0:0:
243,183,143804,1,0,0:0:0:0:
283,146,143992,2,0,L|381:526,1,209
355,190,144742,5,0,0:0:0:0:
423,143,144929,1,0,0:0:0:0:
93,130,145117,1,0,0:0:0:0:
151,244,145304,1,0,0:0:0:0:
486,250,145492,2,0,B|439:344|439:269,1,209
322,285,146242,1,0,0:0:0:0:
363,272,146429,1,0,0:0:0:0:
398,357,146617,1,0,0:0:0:0:
430,224,146804,1,0,0:0:0:0:
499,350,146992,2,0,L|1207:849,1,209
290,370,147742,5,0,0:0:0:0:
435,290,147929,1,0,0:0:0:0:
114,106,148117,1,0,0:0:0:0:
261,195,148304,1,0,0:0:0:0:
260,197,148397,1,0,0:0:0:0:
259,199,148491,1,0,0:0:0:0:
270,91,148679,1,0,0:0:0:0:
342,249,148867,1,0,0:0:0:0:
16,237,149054,1,0,0:0:0:0:
77,248,149242,1,0,0:0:0:0:
31,168,149429,1,0,0:0:0:0:
345,227,149617,1,0,0:0:0:0:
59,130,149804,1,0,0:0:0:0:
437,340,149992,2,0,B|488:331|488:322,1,104
451,125,150367,5,0,0:0:0:0:
407,178,150554,1,0,0:0:0:0:
353,98,150742,1,0,0:0:0:0:
43,153,150929,1,0,0:0:0:0:
202,108,151117,1,0,0:0:0:0:
201,105,151210,1,0,0:0:0:0:
200,102,151304,1,0,0:0:0:0:
169,312,151492,2,0,L|139:418,1,209
336,248,152242,1,0,0:0:0:0:
130,231,152429,1,0,0:0:0:0:
170,141,152617,1,0,0:0:0:0:
276,55,152804,1,0,0:0:0:0:
276,52,152897,1,0,0:0:0:0:
276,49,152991,1,0,0:0:0:0:
258,199,153179,1,0,0:0:0:0:
255,197,153272,1,0,0:0:0:0:
252,195,153366,1,0,0:0:0:0:
355,190,153554,1,0,0:0:0:0:
439,94,153742,1,0,0:0:0:0:
168,365,153929,1,0,0:0:0:0:
105,352,154117,1,0,0:0:0:0:
65,368,154304,1,0,0:0:0:0:
63,369,154397,1,0,0:0:0:0:
61,370,154491,1,0,0:0:0:0:
353,172,154679,1,0,0:0:0:0:
75,195,154867,1,0,0:0:0:0:
474,22,155054,1,0,0:0:0:0:
73,174,155242,1,0,0:0:0:0:
75,173,155335,1,0,0:0:0:0:
77,172,155429,1,0,0:0:0:0:
160,160,155617,1,0,0:0:0:0:
368,131,155804,1,0,0:0:0:0:
302,303,155992,2,0,L|600:396,1,209
192,215,156742,5,0,0:0:0:0:
119,228,156929,1,0,0:0:0:0:
178,338,157117,1,0,0:0:0:0:
422,263,157304,1,0,0:0:0:0:
462,153,157492,2,0,B|499:115|475:162|452:209|495:239,1,209
69,163,158242,1,0,0:0:0:0:
71,321,158429,1,0,0:0:0:0:
212,283,158617,1,0,0:0:0:0:
204,262,158804,1,0,0:0:0:0:
335,204,158992,2,0,B|438:185|345:234,1,209
468,320,159742,5,0,0:0:0:0:
50,294,159929,1,0,0:0:0:0:
120,198,160117,1,0,0:0:0:0:
221,188,160304,1,0,0:0:0:0:
413,196,160492,2,0,B|486:121|424:37,1,209
327,237,161242,1,0,0:0:0:0:
34,243,161429,1,0,0:0:0:0:
34,245,161522,1,0,0:0:0:0:
34,247,161616,1,0,0:0:0:0:
270,91,161804,1,0,0:0:0:0:
269,243,161992,2,0,B|267:138|265:34,1,209
214,95,162742,5,0,0:0:0:0:
247,298,162929,1,0,0:0:0:0:
290,298,163117,1,0,0:0:0:0:
96,151,163304,1,0,0:0:0:0:
94,148,163397,1,0,0:0:0:0:
92,145,163491,1,0,0:0:0:0:
336,248,163679,1,0,0:0:0:0:
374,79,163867,1,0,0:0:0:0:
329,126,164054,1,0,0:0:0:0:
395,247,164242,1,0,0:0:0:0:
257,139,164429,1,0,0:0:0:0:
70,117,164617,1,0,0:0:0:0:
223,86,164804,1,0,0:0:0:0:
383,37,164992,2,0,B|456:37|393:37,1,209
119,223,165742,1,0,0:0:0:0:
120,224,165835,1,0,0:0:0:0:
121,225,165929,1,0,0:0:0:0:
195,110,166117,1,0,0:0:0:0:
490,328,166304,1,0,0:0:0:0:
127,92,166492,2,0,B|146:73|134:96|122:119|111:143,1,104
470,117,166867,1,0,0:0:0:0:
482,88,167054,1,0,0:0:0:0:
71,53,167242,1,0,0:0:0:0:
64,40,167429,1,0,0:0:0:0:
392,256,167617,1,0,0:0:0:0:
393,256,167710,1,0,0:0:0:0:
394,256,167804,1,0,0:0:0:0:
338,146,167992,2,0,B|386:96|435:47|492:87,1,209
353,172,168742,5,0,0:0:0:0:
136,281,168929,1,0,0:0:0:0:
159,280,169117,1,0,0:0:0:0:
157,279,169210,1,0,0:0:0:0:
155,278,169304,1,0,0:0:0:0:
49,165,169492,2,0,L|96:111,1,104
167,237,169867,1,0,0:0:0:0:
269,26,170054,1,0,0:0:0:0:
180,209,170242,1,0,0:0:0:0:
319,191,170429,1,0,0:0:0:0:
201,189,170617,1,0,0:0:0:0:
199,189,170710,1,0,0:0:0:0:
197,189,170804,1,0,0:0:0:0:
63,198,170992,2,0,B|136:123|209:48,1,209
355,190,171742,5,0,0:0:0:0:
83,159,171929,1,0,0:0:0:0:
254,134,172117,1,0,0:0:0:0:
223,90,172304,1,0,0:0:0:0:
449,336,172492,2,0,L|982:845,1,104
395,249,172867,1,0,0:0:0:0:
324,239,173054,1,0,0:0:0:0:
326,239,173147,1,0,0:0:0:0:
328,239,173241,1,0,0:0:0:0:
210,279,173429,1,0,0:0:0:0:
107,211,173617,1,0,0:0:0:0:
70,47,173804,1,0,0:0:0:0:
501,284,173992,2,0,B|500:316|500:349|489:360,1,104
497,343,174367,5,0,0:0:0:0:
126,137,174554,1,0,0:0:0:0:
27,262,174742,1,0,0:0:0:0:
345,193,174929,1,0,0:0:0:0:
66,288,175117,1,0,0:0:0:0:
437,147,175304,1,0,0:0:0:0:
70,250,175492,2,0,B|24:274|24:298,1,104
129,286,175867,1,0,0:0:0:0:
110,276,176054,1,0,0:0:0:0:
110,275,176147,1,0,0:0:0:0:
110,274,176241,1,0,0:0:0:0:
195,110,176429,1,0,0:0:0:0:
201,250,176617,1,0,0:0:0:0:
389,147,176804,1,0,0:0:0:0:
477,331,176992,2,0,L|892:725,1,104
136,56,177367,5,0,0:0:0:0:
53,145,177554,1,0,0:0:0:0:
259,86,177742,1,0,0:0:0:0:
23,363,177929,1,0,0:0:0:0:
268,283,178117,1,0,0:0:0:0:
311,277,178304,1,0,0:0:0:0:
74,133,178492,2,0,B|92:114|69:127|53:106|38:85,1,104
315,209,178867,1,0,0:0:0:0:
245,217,179054,1,0,0:0:0:0:
93,229,179242,1,0,0:0:0:0:
198,367,179429,1,0,0:0:0:0:
198,342,179617,1,0,0:0:0:0:
197,344,179710,1,0,0:0:0:0:
196,346,179804,1,0,0:0:0:0:
131,317,179992,2,0,B|65:296|65:275|33:337,1,209
195,110,180742,5,0,0:0:0:0:
363,39,180929,1,0,0:0:0:0:
480,247,181117,1,0,0:0:0:0:
478,244,181210,1,0,0:0:0:0:
476,241,181304,1,0,0:0:0:0:
149,356,181492,2,0,B|222:281|295:206,1,209
355,190,182242,1,0,0:0:0:0:
435,307,182429,1,0,0:0:0:0:
434,82,182617,1,0,0:0:0:0:
405,140,182804,1,0,0:0:0:0:
231,12,182992,2,0,B|334:12|437:12,1,209
227,273,183742,5,0,0:0:0:0:
25,22,183929,1,0,0:0:0:0:
45,79,184117,1,0,0:0:0:0:
145,227,184304,1,0,0:0:0:0:
309,266,184492,2,0,L|615:470,1,104
234,300,184867,1,0,0:0:0:0:
146,315,185054,1,0,0:0:0:0:
446,54,185242,1,0,0:0:0:0:
422,43,185429,1,0,0:0:0:0:
377,358,185617,1,0,0:0:0:0:
89,138,185804,1,0,0:0:0:0:
182,213,185992,2,0,L|318:489,1,104
38,252,186367,1,0,0:0:0:0:
36,252,186460,1,0,0:0:0:0:
34,252,186554,1,0,0:0:0:0:
270,91,186742,1,0,0:0:0:0:
406,316,186929,1,0,0:0:0:0:
201,160,187117,1,0,0:0:0:0:
198,157,187210,1,0,0:0:0:0:
195,154,187304,1,0,0:0:0:0:
219,189,187492,2,0,B|270:180|287:229|286:177|303:226,1,209
288,285,188242,1,0,0:0:0:0:
422,11,188429,1,0,0:0:0:0:
421,222,188617,1,0,0:0:0:0:
109,97,188804,1,0,0:0:0:0:
30,88,188992,2,0,B|41:20|111:20|44:20,1,209
179,220,189742,5,0,0:0:0:0:
159,23,189929,1,0,0:0:0:0:
347,109,190117,1,0,0:0:0:0:
144,69,190304,1,0,0:0:0:0:
143,69,190397,1,0,0:0:0:0:
142,69,190491,1,0,0:0:0:0:
210,279,190679,1,0,0:0:0:0:
88,226,190867,1,0,0:0:0:0:
132,217,191054,1,0,0:0:0:0:
230,206,191242,1,0,0:0:0:0:
431,273,191429,1,0,0:0:0:0:
428,271,191522,1,0,0:0:0:0:
425,269,191616,1,0,0:0:0:0:
167,237,191804,1,0,0:0:0:0:
361,158,191992,2,0,L|755:617,1,104
147,146,192367,5,0,0:0:0:0:
454,135,192554,1,0,0:0:0:0:
436,305,192742,1,0,0:0:0:0:
437,304,192835,1,0,0:0:0:0:
438,303,192929,1,0,0:0:0:0:
160,160,193117,1,0,0:0:0:0:
240,102,193304,1,0,0:0:0:0:
428,91,193492,2,0,B|398:108|367:124|346:96,1,104
287,180,193867,1,0,0:0:0:0:
191,190,194054,1,0,0:0:0:0:
193,191,194147,1,0,0:0:0:0:
195,192,194241,1,0,0:0:0:0:
265,190,194429,1,0,0:0:0:0:
265,191,194522,1,0,0:0:0:0:
265,192,194616,1,0,0:0:0:0:
160,160,194804,1,0,0:0:0:0:
452,59,194992,2,0,L|704:447,1,209
229,44,195742,5,0,0:0:0:0:
222,205,195929,1,0,0:0:0:0:
275,205,196117,1,0,0:0:0:0:
330,366,196304,1,0,0:0:0:0:
478,179,196492,2,0,B|463:158|440:170|424:150|408:129,1,104
203,64,196867,1,0,0:0:0:0:
230,255,197054,1,0,0:0:0:0:
229,257,197147,1,0,0:0:0:0:
228,259,197241,1,0,0:0:0:0:
160,160,197429,1,0,0:0:0:0:
203,116,197617,1,0,0:0:0:0:
400,212,197804,1,0,0:0:0:0:
489,238,197992,2,0,L|1082:727,1,104
443,91,198367,5,0,0:0:0:0:
215,256,198554,1,0,0:0:0:0:
215,257,198647,1,0,0:0:0:0:
215,258,198741,1,0,0:0:0:0:
270,91,198929,1,0,0:0:0:0:
384,325,199117,1,0,0:0:0:0:
116,175,199304,1,0,0:0:0:0:
347,67,199492,2,0,B|326:39|355:59|383:79,1,104
478,139,199867,1,0,0:0:0:0:
475,137,199960,1,0,0:0:0:0:
472,135,200054,1,0,0:0:0:0:
160,160,200242,1,0,0:0:0:0:
476,340,200429,1,0,0:0:0:0:
341,243,200617,1,0,0:0:0:0:
386,97,200804,1,0,0:0:0:0:
190,52,200992,2,0,L|173:214,1,209
287,342,201742,5,0,0:0:0:0:
427,188,201929,1,0,0:0:0:0:
296,186,202117,1,0,0:0:0:0:
293,188,202210,1,0,0:0:0:0:
290,190,202304,1,0,0:0:0:0:
247,78,202492,2,0,B|147:46|163:46,1,209
160,160,203242,1,0,0:0:0:0:
466,169,203429,1,0,0:0:0:0:
348,69,203617,1,0,0:0:0:0:
141,84,203804,1,0,0:0:0:0:
145,345,203992,2,0,L|165:323,1,209
131,335,204742,1,0,0:0:0:0:
133,334,204835,1,0,0:0:0:0:
135,333,204929,1,0,0:0:0:0:
167,237,205117,1,0,0:0:0:0:
75,187,205304,1,0,0:0:0:0:
497,154,205492,2,0,B|448:138,1,104
226,231,205867,1,0,0:0:0:0:
328,85,206054,1,0,0:0:0:0:
409,295,206242,1,0,0:0:0:0:
255,301,206429,1,0,0:0:0:0:
255,303,206522,1,0,0:0:0:0:
255,305,206616,1,0,0:0:0:0:
167,237,206804,1,0,0:0:0:0:
383,45,206992,2,0,L|763:324,1,104
284,24,207367,5,0,0:0:0:0:
228,170,207554,1,0,0:0:0:0:
133,253,207742,1,0,0:0:0:0:
167,137,207929,1,0,0:0:0:0:
355,231,208117,1,0,0:0:0:0:
400,89,208304,1,0,0:0:0:0:
177,15,208492,2,0,B|130:109|83:202,1,209
98,51,209242,1,0,0:0:0:0:
426,191,209429,1,0,0:0:0:0:
286,256,209617,1,0,0:0:0:0:
301,218,209804,1,0,0:0:0:0:
490,182,209992,2,0,L|1151:794,1,209
417,118,210742,5,0,0:0:0:0:
233,154,210929,1,0,0:0:0:0:
381,85,211117,1,0,0:0:0:0:
393,148,211304,1,0,0:0:0:0:
163,25,211492,2,0,B|171:25|148:72,1,104
80,238,211867,1,0,0:0:0:0:
124,255,212054,1,0,0:0:0:0:
223,285,212242,1,0,0:0:0:0:
132,221,212429,1,0,0:0:0:0:
131,223,212522,1,0,0:0:0:0:
130,225,212616,1,0,0:0:0:0:
210,279,212804,1,0,0:0:0:0:
178,48,212992,2,0,L|461:226,1,104
246,125,213367,5,0,0:0:0:0:
368,14,213554,1,0,0:0:0:0:
160,319,213742,1,0,0:0:0:0:
365,93,213929,1,0,0:0:0:0:
320,76,214117,1,0,0:0:0:0:
372,324,214304,1,0,0:0:0:0:
464,355,214492,2,0,L|1000:744,1,104
389,294,214867,1,0,0:0:0:0:
124,206,215054,1,0,0:0:0:0:
172,337,215242,1,0,0:0:0:0:
232,77,215429,1,0,0:0:0:0:
302,321,215617,1,0,0:0:0:0:
303,320,215710,1,0,0:0:0:0:
304,319,215804,1,0,0:0:0:0:
323,344,215992,2,0,L|663:565,1,104
355,190,216367,5,0,0:0:0:0:
205,214,216554,1,0,0:0:0:0:
207,212,216647,1,0,0:0:0:0:
209,210,216741,1,0,0:0:0:0:
336,248,216929,1,0,0:0:0:0:
471,133,217117,1,0,0:0:0:0:
372,259,217304,1,0,0:0:0:0:
316,296,217492,2,0,B|324:245|332:194,1,104
60,228,217867,1,0,0:0:0:0:
464,234,218054,1,0,0:0:0:0:
141,257,218242,1,0,0:0:0:0:
173,138,218429,1,0,0:0:0:0:
122,186,218617,1,0,0:0:0:0:
299,22,218804,1,0,0:0:0:0:
376,323,218992,2,0,B|324:316|323:264,1,104
103,43,219367,5,0,0:0:0:0:
118,118,219554,1,0,0:0:0:0:
466,22,219742,1,0,0:0:0:0:
367,275,219929,1,0,0:0:0:0:
335,229,220117,1,0,0:0:0:0:
264,264,220304,1,0,0:0:0:0:
96,69,220492,2,0,B|138:99|89:83|65:130|108:160,1,209
352,36,221242,1,0,0:0:0:0:
390,195,221429,1,0,0:0:0:0:
244,195,221617,1,0,0:0:0:0:
168,60,221804,1,0,0:0:0:0:
392,117,221992,2,0,B|288:104|286:104,1,209
181,104,222742,5,0,0:0:0:0:
499,288,222929,1,0,0:0:0:0:
159,247,223117,1,0,0:0:0:0:
161,248,223210,1,0,0:0:0:0:
163,249,223304,1,0,0:0:0:0:
235,37,223492,2,0,B|212:50|221:74|229:99|206:111,1,104
167,237,223867,1,0,0:0:0:0:
362,71,224054,1,0,0:0:0:0:
251,118,224242,1,0,0:0:0:0:
359,112,224429,1,0,0:0:0:0:
317,339,224617,1,0,0:0:0:0:
168,241,224804,1,0,0:0:0:0:
422,209,224992,2,0,L|645:567,1,209
464,264,225742,5,0,0:0:0:0:
419,103,225929,1,0,0:0:0:0:
454,251,226117,1,0,0:0:0:0:
386,53,226304,1,0,0:0:0:0:
247,82,226492,2,0,L|527:427,1,104
29,71,226867,1,0,0:0:0:0:
65,220,227054,1,0,0:0:0:0:
263,58,227242,1,0,0:0:0:0:
16,154,227429,1,0,0:0:0:0:
223,252,227617,1,0,0:0:0:0:
149,144,227804,1,0,0:0:0:0:
120,343,227992,2,0,L|237:359,1,104
232,112,228367,5,0,0:0:0:0:
241,93,228554,1,0,0:0:0:0:
241,95,228647,1,0,0:0:0:0:
241,97,228741,1,0,0:0:0:0:
210,279,228929,1,0,0:0:0:0:
183,214,229117,1,0,0:0:0:0:
131,249,229304,1,0,0:0:0:0:
80,125,229492,2,0,B|132:116|183:107,1,104
127,97,229867,1,0,0:0:0:0:
125,98,229960,1,0,0:0:0:0:
123,99,230054,1,0,0:0:0:0:
325,119,230242,1,0,0:0:0:0:
225,156,230429,1,0,0:0:0:0:
131,334,230617,1,0,0:0:0:0:
130,335,230710,1,0,0:0:0:0:
129,336,230804,1,0,0:0:0:0:
160,23,230992,2,0,B|114:47|131:96,1,104
210,279,231367,5,0,0:0:0:0:
407,70,231554,1,0,0:0:0:0:
232,29,231742,1,0,0:0:0:0:
403,11,231929,1,0,0:0:0:0:
480,43,232117,1,0,0:0:0:0:
438,287,232304,1,0,0:0:0:0:
460,175,232492,2,0,B|476:72|492:72,1,209
378,38,233242,1,0,0:0:0:0:
23,350,233429,1,0,0:0:0:0:
375,350,233617,1,0,0:0:0:0:
175,153,233804,1,0,0:0:0:0:
309,359,233992,2,0,B|414:359|310:345,1,209
397,53,234742,5,0,0:0:0:0:
375,111,234929,1,0,0:0:0:0:
277,207,235117,1,0,0:0:0:0:
179,227,235304,1,0,0:0:0:0:
241,69,235492,2,0,B|178:69|212:168,1,209
279,322,236242,1,0,0:0:0:0:
156,200,236429,1,0,0:0:0:0:
226,226,236617,1,0,0:0:0:0:
232,220,236804,1,0,0:0:0:0:
469,186,236992,2,0,L|1084:505,1,209
274,279,237742,5,0,0:0:0:0:
385,278,237929,1,0,0:0:0:0:
384,276,238022,1,0,0:0:0:0:
383,274,238116,1,0,0:0:0:0:
246,195,238304,1,0,0:0:0:0:
245,192,238397,1,0,0:0:0:0:
244,189,238491,1,0,0:0:0:0:
355,190,238679,1,0,0:0:0:0:
161,44,238867,1,0,0:0:0:0:
325,97,239054,1,0,0:0:0:0:
240,269,239242,1,0,0:0:0:0:
173,364,239429,1,0,0:0:0:0:
325,137,239617,1,0,0:0:0:0:
183,158,239804,1,0,0:0:0:0:
180,157,239897,1,0,0:0:0:0:
177,156,239991,1,0,0:0:0:0:
210,279,240179,5,0,0:0:0:0:
72,349,240367,1,0,0:0:0:0:
97,336,240554,1,0,0:0:0:0:
418,184,240742,1,0,0:0:0:0:
227,129,240929,1,0,0:0:0:0:
201,282,241117,1,0,0:0:0:0:
173,258,241304,1,0,0:0:0:0:
382,268,241492,2,0,L|672:698,1,104
74,247,241867,1,0,0:0:0:0:
61,155,242054,1,0,0:0:0:0:
258,281,242242,1,0,0:0:0:0:
379,269,242429,1,0,0:0:0:0:
378,270,242522,1,0,0:0:0:0:
377,271,242616,1,0,0:0:0:0:
167,237,242804,1,0,0:0:0:0:
28,89,242992,2,0,B|53:84|79:80|53:76|79:72,1,104
393,78,243367,5,0,0:0:0:0:
257,185,243554,1,0,0:0:0:0:
88,62,243742,1,0,0:0:0:0:
240,349,243929,1,0,0:0:0:0:
263,346,244117,1,0,0:0:0:0:
263,344,244210,1,0,0:0:0:0:
263,342,244304,1,0,0:0:0:0:
395,192,244492,2,0,B|429:290|463:290,1,209
253,90,245242,1,0,0:0:0:0:
317,322,245429,1,0,0:0:0:0:
478,192,245617,1,0,0:0:0:0:
113,153,245804,1,0,0:0:0:0:
346,370,245992,2,0,B|315:370|284:370|319:364,1,104
400,189,246367,5,0,0:0:0:0:
263,363,246554,1,0,0:0:0:0:
357,40,246742,1,0,0:0:0:0:
258,134,246929,1,0,0:0:0:0:
418,150,247117,1,0,0:0:0:0:
466,155,247304,1,0,0:0:0:0:
467,157,247397,1,0,0:0:0:0:
468,159,247491,1,0,0:0:0:0:
270,91,247679,1,0,0:0:0:0:
55,147,247867,1,0,0:0:0:0:
389,173,248054,1,0,0:0:0:0:
325,200,248242,1,0,0:0:0:0:
431,30,248429,1,0,0:0:0:0:
499,138,248617,1,0,0:0:0:0:
287,202,248804,1,0,0:0:0:0:
99,328,248992,2,0,B|52:328|125:253,1,209
260,187,249742,5,0,0:0:0:0:
199,188,249929,1,0,0:0:0:0:
154,306,250117,1,0,0:0:0:0:
437,333,250304,1,0,0:0:0:0:
30,112,250492,2,0,B|30:98|30:84,1,209
470,63,251242,1,0,0:0:0:0:
157,110,251429,1,0,0:0:0:0:
227,143,251617,1,0,0:0:0:0:
163,161,251804,1,0,0:0:0:0:
239,141,251992,2,0,B|214:133|218:108|222:82|226:56,1,104
390,13,252367,5,0,0:0:0:0:
238,44,252554,1,0,0:0:0:0:
298,26,252742,1,0,0:0:0:0:
397,78,252929,1,0,0:0:0:0:
443,105,253117,1,0,0:0:0:0:
87,110,253304,1,0,0:0:0:0:
85,110,253397,1,0,0:0:0:0:
83,110,253491,1,0,0:0:0:0:
253,90,253679,1,0,0:0:0:0:
161,183,253867,1,0,0:0:0:0:
66,189,254054,1,0,0:0:0:0:
63,298,254242,1,0,0:0:0:0:
424,302,254429,1,0,0:0:0:0:
208,354,254617,1,0,0:0:0:0:
205,351,254710,1,0,0:0:0:0:
202,348,254804,1,0,0:0:0:0:
95,228,254992,2,0,B|63:186|100:149|54:173|23:131,1,209
355,190,255742,5,0,0:0:0:0:
301,250,255929,1,0,0:0:0:0:
213,362,256117,1,0,0:0:0:0:
284,263,256304,1,0,0:0:0:0:
222,359,256492,2,0,L|381:497,1,104
196,229,256867,1,0,0:0:0:0:
393,360,257054,1,0,0:0:0:0:
173,130,257242,1,0,0:0:0:0:
412,247,257429,1,0,0:0:0:0:
413,244,257522,1,0,0:0:0:0:
414,241,257616,1,0,0:0:0:0:
355,190,257804,1,0,0:0:0:0:
64,204,257992,2,0,L|197:466,1,209
135,30,258742,5,0,0:0:0:0:
84,116,258929,1,0,0:0:0:0:
328,210,259117,1,0,0:0:0:0:
426,245,259304,1,0,0:0:0:0:
21,312,259492,2,0,B|73:303|124:294,1,104
117,227,259867,1,0,0:0:0:0:
310,159,260054,1,0,0:0:0:0:
380,253,260242,1,0,0:0:0:0:
315,154,260429,1,0,0:0:0:0:
425,196,260617,1,0,0:0:0:0:
422,198,260710,1,0,0:0:0:0:
419,200,260804,1,0,0:0:0:0:
29,195,260992,2,0,B|29:257|29:319|29:298,1,209
251,199,261742,1,0,0:0:0:0:
249,200,261835,1,0,0:0:0:0:
247,201,261929,1,0,0:0:0:0:
325,119,262117,1,0,0:0:0:0:
80,154,262304,1,0,0:0:0:0:
350,354,262492,2,0,B|455:354|455:354,1,209
392,326,263242,1,0,0:0:0:0:
480,367,263429,1,0,0:0:0:0:
336,119,263617,1,0,0:0:0:0:
130,208,263804,1,0,0:0:0:0:
418,43,263992,2,0,B|356:43|293:43,1,209
136,44,264742,5,0,0:0:0:0:
169,138,264929,1,0,0:0:0:0:
125,297,265117,1,0,0:0:0:0:
221,293,265304,1,0,0:0:0:0:
157,162,265492,2,0,L|346:112,1,209
69,111,266242,1,0,0:0:0:0:
312,180,266429,1,0,0:0:0:0:
322,71,266617,1,0,0:0:0:0:
59,58,266804,1,0,0:0:0:0:
168,152,266992,2,0,B|99:143|169:143|179:74,1,209
65,182,267742,5,0,0:0:0:0:
144,215,267929,1,0,0:0:0:0:
462,90,268117,1,0,0:0:0:0:
427,240,268304,1,0,0:0:0:0:
47,184,268492,2,0,B|31:215|37:181|37:171,1,104
328,180,268867,1,0,0:0:0:0:
157,258,269054,1,0,0:0:0:0:
306,291,269242,1,0,0:0:0:0:
23,159,269429,1,0,0:0:0:0:
86,248,269617,1,0,0:0:0:0:
195,351,269804,1,0,0:0:0:0:
219,138,269992,2,0,B|241:153|225:132|243:113|261:95,1,104
306,150,270367,5,0,0:0:0:0:
479,342,270554,1,0,0:0:0:0:
182,204,270742,1,0,0:0:0:0:
341,105,270929,1,0,0:0:0:0:
485,36,271117,1,0,0:0:0:0:
288,201,271304,1,0,0:0:0:0:
272,133,271492,2,0,B|271:81|322:72,1,104
286,136,271867,1,0,0:0:0:0:
358,353,272054,1,0,0:0:0:0:
234,195,272242,1,0,0:0:0:0:
239,98,272429,1,0,0:0:0:0:
245,44,272617,1,0,0:0:0:0:
436,113,272804,1,0,0:0:0:0:
458,234,272992,2,0,B|358:202,1,209
283,73,273742,5,0,0:0:0:0:
309,353,273929,1,0,0:0:0:0:
246,254,274117,1,0,0:0:0:0:
447,131,274304,1,0,0:0:0:0:
411,178,274492,2,0,B|409:126|461:116,1,104
407,183,274867,1,0,0:0:0:0:
408,183,274960,1,0,0:0:0:0:
409,183,275054,1,0,0:0:0:0:
156,177,275242,1,0,0:0:0:0:
215,131,275429,1,0,0:0:0:0:
283,182,275617,1,0,0:0:0:0:
32,230,275804,1,0,0:0:0:0:
192,159,275992,2,0,B|265:84|172:133,1,209
112,135,276742,1,0,0:0:0:0:
109,134,276835,1,0,0:0:0:0:
106,133,276929,1,0,0:0:0:0:
210,279,277117,1,0,0:0:0:0:
463,58,277304,1,0,0:0:0:0:
472,99,277492,2,0,B|482:30|482:30|482:30,1,209
479,110,278242,1,0,0:0:0:0:
274,138,278429,1,0,0:0:0:0:
382,87,278617,1,0,0:0:0:0:
255,355,278804,1,0,0:0:0:0:
39,350,278992,2,0,B|60:365|45:344|63:325|81:307,1,104
304,158,279367,5,0,0:0:0:0:
188,190,279554,1,0,0:0:0:0:
187,190,279647,1,0,0:0:0:0:
186,190,279741,1,0,0:0:0:0:
270,91,279929,1,0,0:0:0:0:
208,256,280117,1,0,0:0:0:0:
238,166,280304,1,0,0:0:0:0:
145,161,280492,2,0,B|83:77|156:77,1,209
298,68,281242,1,0,0:0:0:0:
174,284,281429,1,0,0:0:0:0:
357,217,281617,1,0,0:0:0:0:
464,75,281804,1,0,0:0:0:0:
298,152,281992,2,0,L|504:499,1,104
75,356,282367,1,0,0:0:0:0:
76,354,282460,1,0,0:0:0:0:
77,352,282554,1,0,0:0:0:0:
195,110,282742,1,0,0:0:0:0:
384,353,282929,1,0,0:0:0:0:
384,352,283022,1,0,0:0:0:0:
384,351,283116,1,0,0:0:0:0:
167,237,283304,1,0,0:0:0:0:
336,46,283492,2,0,L|578:569,1,209
231,177,284242,1,0,0:0:0:0:
471,301,284429,1,0,0:0:0:0:
132,291,284617,1,0,0:0:0:0:
134,291,284710,1,0,0:0:0:0:
136,291,284804,1,0,0:0:0:0:
395,347,284992,2,0,B|406:347|418:347|429:347,1,104
156,177,285367,5,0,0:0:0:0:
84,335,285554,1,0,0:0:0:0:
218,274,285742,1,0,0:0:0:0:
391,232,285929,1,0,0:0:0:0:
293,56,286117,1,0,0:0:0:0:
454,131,286304,1,0,0:0:0:0:
10,325,286492,2,0,B|10:316|10:247|79:234,1,209
487,182,287242,1,0,0:0:0:0:
286,141,287429,1,0,0:0:0:0:
330,176,287617,1,0,0:0:0:0:
348,65,287804,1,0,0:0:0:0:
228,133,287992,2,0,L|454:258,1,104
74,70,288367,5,0,0:0:0:0:
17,55,288554,1,0,0:0:0:0:
410,19,288742,1,0,0:0:0:0:
399,257,288929,1,0,0:0:0:0:
171,12,289117,1,0,0:0:0:0:
94,120,289304,1,0,0:0:0:0:
93,121,289397,1,0,0:0:0:0:
92,122,289491,1,0,0:0:0:0:
195,110,289679,1,0,0:0:0:0:
177,39,289867,1,0,0:0:0:0:
394,151,290054,1,0,0:0:0:0:
334,217,290242,1,0,0:0:0:0:
329,259,290429,1,0,0:0:0:0:
331,256,290522,1,0,0:0:0:0:
333,253,290616,1,0,0:0:0:0:
288,285,290804,1,0,0:0:0:0:
195,205,290992,2,0,B|193:101|190:101,1,209
187,235,291742,5,0,0:0:0:0:
55,340,291929,1,0,0:0:0:0:
342,82,292117,1,0,0:0:0:0:
79,72,292304,1,0,0:0:0:0:
79,74,292397,1,0,0:0:0:0:
79,76,292491,1,0,0:0:0:0:
253,90,292679,1,0,0:0:0:0:
314,310,292867,1,0,0:0:0:0:
35,66,293054,1,0,0:0:0:0:
37,65,293147,1,0,0:0:0:0:
39,64,293241,1,0,0:0:0:0:
353,172,293429,1,0,0:0:0:0:
294,149,293617,1,0,0:0:0:0:
260,285,293804,1,0,0:0:0:0:
228,323,293992,2,0,L|353:537,1,104
235,57,294367,5,0,0:0:0:0:
176,66,294554,1,0,0:0:0:0:
197,273,294742,1,0,0:0:0:0:
131,273,294929,1,0,0:0:0:0:
341,54,295117,1,0,0:0:0:0:
339,52,295210,1,0,0:0:0:0:
337,50,295304,1,0,0:0:0:0:
491,100,295492,2,0,B|499:48|499:48|477:26|477:26,1,209
210,279,296242,1,0,0:0:0:0:
417,64,296429,1,0,0:0:0:0:
458,307,296617,1,0,0:0:0:0:
225,307,296804,1,0,0:0:0:0:
99,142,296992,2,0,L|104:428,1,209
290,94,297742,1,0,0:0:0:0:
288,96,297835,1,0,0:0:0:0:
286,98,297929,1,0,0:0:0:0:
195,110,298117,1,0,0:0:0:0:
153,255,298304,1,0,0:0:0:0:
185,219,298492,2,0,L|308:320,1,104
351,144,298867,1,0,0:0:0:0:
393,191,299054,1,0,0:0:0:0:
385,207,299242,1,0,0:0:0:0:
465,220,299429,1,0,0:0:0:0:
452,229,299617,1,0,0:0:0:0:
450,226,299710,1,0,0:0:0:0:
448,223,299804,1,0,0:0:0:0:
23,77,299992,2,0,B|31:26|83:26,1,104
270,91,300367,5,0,0:0:0:0:
192,205,300554,1,0,0:0:0:0:
291,141,300742,1,0,0:0:0:0:
397,255,300929,1,0,0:0:0:0:
260,229,301117,1,0,0:0:0:0:
161,282,301304,1,0,0:0:0:0:
269,110,301492,2,0,B|277:58|228:42|204:89|212:37,1,209
322,289,302242,1,0,0:0:0:0:
146,362,302429,1,0,0:0:0:0:
146,364,302522,1,0,0:0:0:0:
146,366,302616,1,0,0:0:0:0:
195,110,302804,1,0,0:0:0:0:
38,212,302992,2,0,B|38:202|38:193|48:124,1,209
466,87,303742,1,0,0:0:0:0:
463,86,303835,1,0,0:0:0:0:
460,85,303929,1,0,0:0:0:0:
253,90,304117,1,0,0:0:0:0:
205,74,304304,1,0,0:0:0:0:
202,149,304492,2,0,B|227:144|227:118|226:92|252:88,1,104
321,69,304867,1,0,0:0:0:0:
417,364,305054,1,0,0:0:0:0:
394,362,305242,1,0,0:0:0:0:
391,359,305335,1,0,0:0:0:0:
388,356,305429,1,0,0:0:0:0:
156,177,305617,1,0,0:0:0:0:
364,126,305804,1,0,0:0:0:0:
463,269,305992,2,0,B|463:329|475:317,1,209
204,108,306742,5,0,0:0:0:0:
247,309,306929,1,0,0:0:0:0:
222,183,307117,1,0,0:0:0:0:
305,369,307304,1,0,0:0:0:0:
143,278,307492,2,0,L|187:389,1,104
171,285,307867,1,0,0:0:0:0:
167,112,308054,1,0,0:0:0:0:
156,332,308242,1,0,0:0:0:0:
382,279,308429,1,0,0:0:0:0:
259,49,308617,1,0,0:0:0:0:
168,64,308804,1,0,0:0:0:0:
83,358,308992,2,0,B|104:358|93:358|111:339|132:354,1,104
152,182,309367,1,0,0:0:0:0:
153,179,309460,1,0,0:0:0:0:
154,176,309554,1,0,0:0:0:0:
325,119,309742,1,0,0:0:0:0:
467,72,309929,1,0,0:0:0:0:
376,165,310117,1,0,0:0:0:0:
302,343,310304,1,0,0:0:0:0:
326,192,310492,2,0,L|684:311,1,209
173,111,311242,1,0,0:0:0:0:
350,223,311429,1,0,0:0:0:0:
401,267,311617,1,0,0:0:0:0:
12,254,311804,1,0,0:0:0:0:
340,252,311992,2,0,B|374:246|373:211|339:207,1,104
210,156,312367,5,0,0:0:0:0:
310,218,312554,1,0,0:0:0:0:
255,277,312742,1,0,0:0:0:0:
408,255,312929,1,0,0:0:0:0:
62,349,313117,1,0,0:0:0:0:
352,138,313304,1,0,0:0:0:0:
360,310,313492,2,0,B|377:359|394:359,1,104
382,66,313867,1,0,0:0:0:0:
211,221,314054,1,0,0:0:0:0:
172,270,314242,1,0,0:0:0:0:
71,288,314429,1,0,0:0:0:0:
167,235,314617,1,0,0:0:0:0:
161,65,314804,1,0,0:0:0:0:
476,151,314992,2,0,B|480:125|484:100|458:96|433:93,1,104
229,306,315367,5,0,0:0:0:0:
312,233,315554,1,0,0:0:0:0:
146,225,315742,1,0,0:0:0:0:
95,348,315929,1,0,0:0:0:0:
328,29,316117,1,0,0:0:0:0:
