osu file format v14

[General]
AudioFilename: audio.mp3
AudioLeadIn: 0
PreviewTime: 34005
Countdown: 1
SampleSet: None
StackLeniency: 0.7
Mode: 0
LetterboxInBreaks: 0
WidescreenStoryboard: 0

[Editor]
DistanceSpacing: 1
BeatDivisor: 2
GridSize: 4
TimelineZoom: 1

[Metadata]
Title:i love hentai.
TitleUnicode:i love hentai.
Artist:Apandah and ameba
ArtistUnicode:Apandah and ameba
Creator:PublicGamer13
Version:Normal
Source:
Tags:
BeatmapID:1655599
BeatmapSetID:788839

[Difficulty]
HPDrainRate:4
CircleSize:3
OverallDifficulty:4
ApproachRate:4
SliderMultiplier:1.4
SliderTickRate:1

[Events]
//Background and Video events
0,0,"Nice back.jpg",0,0
//Break Periods
//Storyboard Layer 0 (Background)
//Storyboard Layer 1 (Fail)
//Storyboard Layer 2 (Pass)
//Storyboard Layer 3 (Foreground)
//Storyboard Sound Samples

[TimingPoints]
3300,705.882352941176,4,2,0,25,1,0
25182,-100,4,2,0,25,0,1
28711,-100,4,2,0,25,0,0
50594,-100,4,2,0,25,0,1
54123,-100,4,2,0,25,0,0
73888,-100,4,2,0,25,0,0

[Colours]
Combo1 : 255,0,255
Combo2 : 255,0,0
Combo3 : 255,255,0
Combo4 : 128,255,0
Combo5 : 0,255,64
Combo6 : 0,255,255
Combo7 : 0,128,192
Combo8 : 128,128,192

[HitObjects]
56,128,3300,6,0,P|96:80|124:68,2,70,0|8|0,0:0|0:0|0:0,0:0:0:0:
80,192,4358,1,0,0:0:0:0:
128,244,4711,1,0,0:0:0:0:
192,268,5064,2,0,L|244:184,1,70,8|0,0:0|0:0,0:0:0:0:
268,152,5770,6,0,P|312:168|340:200,1,70
356,248,6476,1,8,0:0:0:0:
312,304,6829,1,0,0:0:0:0:
252,332,7182,2,0,L|144:320,2,70,0|0|8,0:0|0:0|0:0,0:0:0:0:
320,348,8241,1,0,0:0:0:0:
380,312,8594,5,0,0:0:0:0:
404,248,8947,2,0,L|412:168,1,70,0|8,0:0|0:0,0:0:0:0:
404,108,9652,2,0,L|324:72,1,70
272,68,10358,2,0,L|200:116,1,70,0|8,0:0|0:0,0:0:0:0:
148,132,11064,5,0,0:0:0:0:
108,188,11417,6,0,L|152:296,1,70
172,312,12123,1,8,0:0:0:0:
240,328,12476,1,0,0:0:0:0:
308,316,12829,2,0,L|380:256,1,70,0|4,0:0|0:0,0:0:0:0:
408,216,13535,1,8,0:0:0:0:
408,104,14241,6,0,L|336:52,1,70
280,60,14947,1,8,0:0:0:0:
212,84,15299,2,0,L|144:176,1,70
140,204,16005,1,0,0:0:0:0:
92,152,16358,1,8,0:0:0:0:
64,88,16711,5,0,0:0:0:0:
120,48,17064,2,0,L|176:136,1,70
200,164,17770,2,0,L|144:240,1,70,8|0,0:0|0:0,0:0:0:0:
100,256,18476,2,0,L|164:316,1,70
220,320,19182,1,8,0:0:0:0:
352,268,19888,6,0,L|372:176,1,70
348,132,20594,1,8,0:0:0:0:
296,84,20947,1,0,0:0:0:0:
232,56,21299,2,0,L|176:128,1,70
140,164,22005,2,0,L|220:220,1,70,8|0,0:0|0:0,0:0:0:0:
244,256,22711,5,0,0:0:0:0:
312,260,23064,2,0,L|340:176,1,70,0|8,0:0|0:0,0:0:0:0:
368,132,23770,1,0,0:0:0:0:
356,64,24123,1,0,0:0:0:0:
300,24,24476,2,0,L|240:96,1,70,4|8,0:0|0:0,0:0:0:0:
204,124,25182,5,0,0:0:0:0:
156,176,25535,6,0,L|104:228,1,70
156,276,26241,6,0,L|232:320,1,70
284,336,26947,6,0,L|332:248,1,70
264,232,27652,6,0,L|192:188,1,70
164,136,28358,5,0,0:0:0:0:
196,76,28711,2,0,L|276:120,1,70,0|8,0:0|0:0,0:0:0:0:
324,132,29417,1,0,0:0:0:0:
376,180,29770,1,0,0:0:0:0:
380,248,30123,1,0,0:0:0:0:
352,312,30476,1,8,0:0:0:0:
284,296,30829,5,0,0:0:0:0:
220,268,31182,2,0,L|140:188,1,70
148,152,31888,1,8,0:0:0:0:
156,84,32241,2,0,L|256:112,1,70
288,132,32947,1,0,0:0:0:0:
352,160,33299,1,8,0:0:0:0:
416,284,34005,6,0,L|320:316,1,70
280,312,34711,1,8,0:0:0:0:
212,304,35064,2,0,L|160:224,1,70
172,176,35770,1,0,0:0:0:0:
192,108,36123,5,8,0:0:0:0:
124,92,36476,6,0,L|72:152,1,70
64,212,37182,1,0,0:0:0:0:
84,280,37535,1,8,0:0:0:0:
112,344,37888,2,0,L|200:320,1,70
248,304,38594,1,4,0:0:0:0:
384,272,39299,6,0,L|376:196,1,70,0|8,0:0|0:0,0:0:0:0:
308,184,40005,2,0,L|316:108,1,70,0|8,0:0|0:0,0:0:0:0:
368,68,40711,1,0,0:0:0:0:
308,28,41064,2,0,L|216:76,1,70
188,100,41770,1,8,0:0:0:0:
60,156,42476,5,0,0:0:0:0:
64,224,42829,2,0,L|148:296,1,70,0|8,0:0|0:0,0:0:0:0:
180,304,43535,2,0,L|264:208,1,70
276,200,44241,1,0,0:0:0:0:
316,144,44594,2,0,L|248:88,1,70,8|0,0:0|0:0,0:0:0:0:
196,72,45299,5,8,0:0:0:0:
128,88,45652,2,0,L|96:160,1,70,0|8,0:0|0:0,0:0:0:0:
92,220,46358,1,0,0:0:0:0:
108,288,46711,2,0,L|204:264,1,70
240,244,47417,1,8,0:0:0:0:
288,196,47770,5,0,0:0:0:0:
340,148,48123,2,0,L|400:182,1,70,8|0,0:0|0:0,0:0:0:0:
456,224,48829,1,8,0:0:0:0:
416,280,49182,1,0,0:0:0:0:
348,292,49535,2,0,L|272:340,1,70,8|4,0:0|0:0,0:0:0:0:
224,308,50241,1,8,0:0:0:0:
168,264,50594,5,0,0:0:0:0:
132,204,50947,6,0,L|204:156,1,70
256,144,51652,6,0,L|304:204,1,70
344,252,52358,6,0,L|284:312,1,70
228,324,53064,6,0,L|180:244,1,70
168,200,53770,5,0,0:0:0:0:
176,132,54123,2,0,L|276:152,1,70,0|8,0:0|0:0,0:0:0:0:
312,156,54829,1,0,0:0:0:0:
372,192,55182,2,0,L|288:256,1,70
252,264,55888,1,8,0:0:0:0:
112,240,56594,5,0,0:0:0:0:
56,200,56947,2,0,L|24:72,1,70,0|8,0:0|0:0,0:0:0:0:
60,64,57652,1,0,0:0:0:0:
124,32,58005,1,0,0:0:0:0:
192,36,58358,1,0,0:0:0:0:
260,52,58711,2,0,L|280:120,1,70,8|0,0:0|0:0,0:0:0:0:
292,188,59417,5,0,0:0:0:0:
304,256,59770,2,0,L|216:308,1,70,0|8,0:0|0:0,0:0:0:0:
180,324,60476,1,0,0:0:0:0:
112,308,60829,2,0,L|112:224,1,70
124,168,61535,1,8,0:0:0:0:
156,108,61888,5,0,0:0:0:0:
196,52,62241,2,0,L|272:108,1,70
312,128,62947,1,8,0:0:0:0:
368,168,63299,2,0,L|336:248,1,70
300,288,64005,1,4,0:0:0:0:
232,300,64358,6,0,L|192:232,1,70,8|0,0:0|0:0,0:0:0:0:
180,172,65064,1,0,0:0:0:0:
160,104,65417,2,0,L|264:120,1,70,0|8,0:0|0:0,0:0:0:0:
372,124,67888,5,0,0:0:0:0:
412,184,68241,1,0,0:0:0:0:
404,252,68594,1,8,0:0:0:0:
368,312,68947,2,0,L|252:308,1,70
232,288,69652,1,0,0:0:0:0:
184,236,70005,1,8,0:0:0:0:
96,128,70711,6,0,L|176:76,1,70
220,68,71417,1,8,0:0:0:0:
288,72,71770,2,0,L|336:144,1,70
