osu file format v14

[General]
AudioFilename: audio.mp3
AudioLeadIn: 0
PreviewTime: 34005
Countdown: 1
SampleSet: None
StackLeniency: 0.7
Mode: 0
LetterboxInBreaks: 0
WidescreenStoryboard: 1

[Editor]
DistanceSpacing: 3
BeatDivisor: 4
GridSize: 4
TimelineZoom: 1

[Metadata]
Title:i love hentai.
TitleUnicode:i love hentai.
Artist:Apandah and ameba
ArtistUnicode:Apandah and ameba
Creator:PublicGamer13
Version:Insane
Source:
Tags:
BeatmapID:1655598
BeatmapSetID:788839

[Difficulty]
HPDrainRate:8
CircleSize:4.5
OverallDifficulty:9
ApproachRate:9
SliderMultiplier:1.4
SliderTickRate:1

[Events]
//Background and Video events
0,0,"Nice back.jpg",0,0
//Break Periods
//Storyboard Layer 0 (Background)
//Storyboard Layer 1 (Fail)
//Storyboard Layer 2 (Pass)
//Storyboard Layer 3 (Foreground)
//Storyboard Sound Samples

[TimingPoints]
3300,705.882352941176,4,2,0,25,1,0
25182,-100,4,2,0,25,0,1
28711,-100,4,2,0,25,0,0
50594,-100,4,2,0,25,0,1
54123,-100,4,2,0,25,0,0
73888,-100,4,2,0,25,0,0

[Colours]
Combo1 : 255,0,255
Combo2 : 255,0,0
Combo3 : 255,255,0
Combo4 : 128,255,0
Combo5 : 0,255,64
Combo6 : 0,255,255
Combo7 : 0,128,192
Combo8 : 128,128,192

[HitObjects]
52,64,3300,6,0,L|80:96,1,35
120,40,3652,2,0,L|152:84,1,35,8|0,0:0|0:0,0:0:0:0:
212,60,4005,1,0,0:0:0:0:
276,92,4182,2,0,L|220:124,1,35
180,136,4535,1,0,0:0:0:0:
116,168,4711,1,0,0:0:0:0:
64,216,4888,1,0,0:0:0:0:
16,264,5064,2,0,L|72:284,1,35,8|0,0:0|0:0,0:0:0:0:
116,292,5417,1,0,0:0:0:0:
212,188,5770,6,0,L|232:224,1,35
308,288,6123,1,0,0:0:0:0:
220,167,6299,1,0,0:3:0:0:
204,271,6476,1,8,0:0:0:0:
324,184,6652,1,0,0:3:0:0:
416,132,6829,6,0,L|368:104,1,35
336,64,7182,1,0,0:0:0:0:
364,164,7358,1,0,0:0:0:0:
264,132,7535,1,0,0:0:0:0:
236,232,7711,1,0,0:0:0:0:
336,200,7888,1,8,0:0:0:0:
352,304,8064,2,0,L|304:328,1,35
112,288,8594,5,0,0:0:0:0:
48,204,8770,2,0,L|64:140,1,35
100,76,9123,2,0,L|144:100,1,35,0|8,0:0|0:0,0:0:0:0:
232,60,9476,1,0,0:0:0:0:
304,136,9652,1,0,0:0:0:0:
232,212,9829,1,0,0:0:0:0:
192,308,10005,2,0,L|232:308,1,35
227,208,10358,2,0,L|192:208,1,35
235,322,10711,2,0,L|273:309,2,35,8|0|0,0:0|0:0|0:0,0:0:0:0:
92,168,11417,5,0,0:0:0:0:
80,272,11594,2,0,L|140:248,1,35
192,188,11947,1,0,0:0:0:0:
272,120,12123,1,8,0:0:0:0:
344,196,12299,1,0,0:0:0:0:
272,272,12476,2,0,L|224:296,1,35
156,224,12829,5,0,0:0:0:0:
92,140,13005,2,0,L|92:88,1,35,0|4,0:0|0:0,0:0:0:0:
176,39,13358,2,0,L|213:2,1,35,0|8,0:0|0:0,0:0:0:0:
384,116,13888,6,0,L|352:152,1,35
448,200,14241,6,0,L|416:224,1,35
316,240,14594,1,0,0:0:0:0:
276,144,14770,1,0,0:0:0:0:
380,152,14947,1,8,0:0:0:0:
419,55,15123,1,0,0:0:0:0:
316,40,15299,2,0,L|256:64,1,35
184,88,15652,2,0,L|192:144,1,35
200,228,16005,1,0,0:0:0:0:
96,224,16182,2,0,L|64:172,1,35,0|8,0:0|0:0,0:0:0:0:
56,32,16711,5,0,0:0:0:0:
160,48,16888,2,0,L|184:84,1,35
232,168,17241,1,0,0:0:0:0:
292,84,17417,1,0,0:0:0:0:
328,184,17594,1,0,0:0:0:0:
388,96,17770,2,0,L|416:144,1,35,8|0,0:0|0:0,0:0:0:0:
448,224,18123,1,0,0:0:0:0:
396,316,18299,1,0,0:0:0:0:
292,340,18476,1,0,0:0:0:0:
292,340,18652,1,0,0:0:0:0:
292,340,18829,1,0,0:0:0:0:
200,292,19005,2,0,L|176:236,1,35,0|8,0:0|0:0,0:0:0:0:
148,160,19358,1,0,0:0:0:0:
436,32,19888,6,0,L|400:80,1,35
368,152,20241,2,0,L|320:116,1,35
260,60,20594,2,0,L|240:88,1,35,8|0,0:0|0:0,0:0:0:0:
184,176,20947,1,0,0:0:0:0:
116,96,21123,1,0,0:0:0:0:
52,180,21299,1,0,0:0:0:0:
108,268,21476,1,0,0:0:0:0:
204,312,21652,1,0,0:0:0:0:
308,288,21829,1,0,0:0:0:0:
404,244,22005,1,8,0:0:0:0:
464,160,22182,2,0,L|464:104,1,35
260,72,22711,5,0,0:0:0:0:
156,92,22888,2,0,L|176:144,1,35
216,220,23241,1,0,0:0:0:0:
308,172,23417,2,0,L|356:140,1,35
424,92,23770,2,0,L|440:152,1,35
476,224,24123,2,0,L|432:240,1,35
356,296,24476,1,4,0:0:0:0:
256,312,24652,1,0,0:0:0:0:
164,264,24829,1,0,0:0:0:0:
56,84,25182,5,0,0:0:0:0:
260,36,25535,6,0,L|300:108,1,70
408,272,26241,6,0,L|336:312,1,70
140,348,26947,6,0,L|104:264,1,70
52,84,27652,6,0,L|128:60,1,70
328,52,28358,2,0,L|348:116,1,35
364,188,28711,1,0,0:0:0:0:
260,180,28888,1,0,0:0:0:0:
316,92,29064,1,8,0:0:0:0:
364,188,29241,1,0,0:0:0:0:
340,292,29417,2,0,L|284:296,1,35
212,244,29770,6,0,L|212:292,1,35
144,196,30123,2,0,L|127:241,1,35
68,144,30476,2,0,L|37:180,1,35,8|0,0:0|0:0,0:0:0:0:
208,36,31005,5,0,0:0:0:0:
312,56,31182,2,0,L|288:92,1,35
236,172,31535,1,0,0:0:0:0:
132,192,31711,2,0,L|96:140,1,35,0|8,0:0|0:0,0:0:0:0:
84,60,32064,2,0,L|48:80,2,35
188,40,32594,1,0,0:0:0:0:
200,144,32770,1,0,0:0:0:0:
300,108,32947,1,0,0:0:0:0:
234,190,33123,1,0,0:0:0:0:
332,232,33299,1,8,0:0:0:0:
227,243,33476,2,0,L|168:248,1,35
76,68,34005,6,0,L|132:56,2,35
28,164,34535,1,0,0:0:0:0:
36,268,34711,2,0,L|72:256,1,35,8|0,0:0|0:0,0:0:0:0:
168,224,35064,1,0,0:0:0:0:
268,192,35241,1,0,0:0:0:0:
372,168,35417,2,0,L|360:216,1,35
364,308,35770,2,0,L|312:292,1,35
224,296,36123,6,0,L|211:328,1,35,8|0,0:0|0:0,0:0:0:0:
200,120,36652,5,0,0:0:0:0:
292,68,36829,2,0,L|332:104,1,35
396,164,37182,1,0,0:0:0:0:
320,240,37358,1,0,0:0:0:0:
288,140,37535,1,8,0:0:0:0:
360,64,37711,1,0,0:0:0:0:
456,104,37888,2,0,L|468:156,1,35
476,244,38241,2,0,L|436:264,2,35,0|0|4,0:0|0:0|0:0,0:0:0:0:
416,156,38770,2,0,L|380:144,1,35,0|8,0:0|0:0,0:0:0:0:
188,68,39299,6,0,L|192:124,1,35
196,208,39652,1,0,0:0:0:0:
292,164,39829,2,0,L|296:96,1,35
292,24,40182,1,0,0:0:0:0:
396,48,40358,1,8,0:0:0:0:
452,136,40535,1,0,0:0:0:0:
436,240,40711,2,0,L|400:256,1,35
356,160,41064,2,0,L|328:188,1,35
264,104,41417,2,0,L|264:143,1,35
160,160,41770,2,0,L|188:188,1,35,8|0,0:0|0:0,0:0:0:0:
344,324,42299,5,0,0:0:0:0:
240,316,42476,2,0,L|208:268,1,35
320,252,42829,2,0,L|328:208,1,35
220,204,43182,1,8,0:0:0:0:
116,184,43358,2,0,L|104:140,2,35
108,288,43888,2,0,L|128:328,1,35
228,320,44241,1,0,0:0:0:0:
332,340,44417,2,0,L|340:296,1,35,0|8,0:0|0:0,0:0:0:0:
352,200,44770,1,0,0:0:0:0:
192,64,45123,5,0,0:0:0:0:
92,88,45299,2,0,L|100:144,1,35
184,184,45652,1,0,0:0:0:0:
288,184,45829,1,0,0:0:0:0:
392,164,46005,2,0,L|408:216,1,35,8|0,0:0|0:0,0:0:0:0:
324,128,46358,1,0,0:0:0:0:
328,232,46535,1,0,0:0:0:0:
436,120,46711,1,0,0:0:0:0:
440,224,46888,1,0,0:0:0:0:
324,128,47064,1,0,0:0:0:0:
328,232,47241,2,0,L|332:276,1,35,0|8,0:0|0:0,0:0:0:0:
20,224,47947,6,0,L|52:184,1,35
100,108,48299,1,0,0:0:0:0:
204,128,48476,1,0,0:0:0:0:
112,176,48652,1,0,0:0:0:0:
216,192,48829,1,8,0:0:0:0:
120,236,49005,2,0,L|64:248,1,35
32,336,49358,1,0,0:0:0:0:
136,340,49535,1,0,0:0:0:0:
236,304,49711,2,0,L|232:260,1,35,0|4,0:0|0:0,0:0:0:0:
139,273,50064,2,0,L|136:308,1,35,0|8,0:0|0:0,0:0:0:0:
236,304,50417,2,0,L|232:260,1,35
140,80,50947,6,0,L|232:80,1,70
420,68,51652,6,0,L|424:156,1,70
432,348,52358,6,0,L|348:348,1,70
152,344,53064,6,0,L|152:248,1,70
96,72,53770,5,0,0:0:0:0:
200,84,53947,2,0,L|212:136,1,35
112,164,54299,1,0,0:0:0:0:
212,200,54476,1,8,0:0:0:0:
304,152,54652,1,0,0:0:0:0:
320,256,54829,2,0,L|364:292,1,35
400,188,55182,6,0,L|400:136,1,35
312,92,55535,1,0,0:0:0:0:
392,24,55711,1,0,0:0:0:0:
468,96,55888,1,8,0:0:0:0:
392,172,56064,2,0,L|392:112,1,35
392,24,56417,6,0,L|336:56,1,35
272,96,56770,1,0,0:0:0:0:
180,44,56947,1,0,0:0:0:0:
92,104,57123,2,0,L|120:156,1,35,0|8,0:0|0:0,0:0:0:0:
152,232,57476,2,0,L|208:200,1,35
268,152,57829,1,0,0:0:0:0:
360,104,58005,1,0,0:0:0:0:
320,200,58182,1,0,0:0:0:0:
416,156,58358,1,0,0:0:0:0:
368,248,58535,2,0,L|316:292,1,35,0|8,0:0|0:0,0:0:0:0:
148,192,59064,6,0,L|152:144,1,35
220,56,59417,1,0,0:0:0:0:
344,60,59594,1,0,0:0:0:0:
280,164,59770,1,0,0:0:0:0:
236,241,59947,2,0,L|220:272,1,35,0|8,0:0|0:0,0:0:0:0:
112,328,60299,1,0,0:0:0:0:
52,220,60476,1,0,0:0:0:0:
124,120,60652,1,0,0:0:0:0:
188,224,60829,2,0,L|228:176,1,35
276,92,61182,1,0,0:0:0:0:
372,164,61358,1,0,0:0:0:0:
348,284,61535,2,0,L|304:304,1,35,8|0,0:0|0:0,0:0:0:0:
60,180,62064,6,0,L|88:140,1,35
176,48,62417,1,0,0:0:0:0:
272,152,62594,2,0,L|308:192,1,35
376,292,62947,1,0,0:0:0:0:
236,292,63123,1,0,0:0:0:0:
112,228,63299,2,0,L|128:168,1,35
356,40,63829,6,0,L|392:80,1,35
456,184,64182,1,0,0:0:0:0:
336,252,64358,2,0,L|272:248,1,35
172,192,64711,1,0,0:0:0:0:
80,84,64888,2,0,L|76:136,1,35
212,88,65241,2,0,L|208:132,1,35
52,276,66123,6,0,B|76:276|76:276|92:288|92:288|112:268|112:268|136:292|136:292|160:264|160:264|164:264,1,140
368,76,67535,6,0,L|372:124,1,35
372,216,67888,5,0,0:0:0:0:
268,212,68064,2,0,L|244:156,1,35
200,56,68594,2,0,L|156:80,1,35
72,112,68947,1,0,0:0:0:0:
60,216,69123,1,0,0:0:0:0:
148,272,69299,2,0,L|184:236,1,35
308,88,69829,2,0,L|336:140,1,35
380,208,70182,1,0,0:0:0:0:
176,168,70535,5,0,0:0:0:0:
112,252,70711,2,0,L|168:256,1,35
252,272,71064,1,0,0:0:0:0:
384,128,71417,1,0,0:0:0:0:
180,76,71770,2,0,L|184:112,1,35
