osu file format v14

[General]
AudioFilename: audio.mp3
AudioLeadIn: 0
PreviewTime: 51829
Countdown: 0
SampleSet: Soft
StackLeniency: 0.7
Mode: 0
LetterboxInBreaks: 0
WidescreenStoryboard: 1

[Editor]
Bookmarks: 108069,123069,153069
DistanceSpacing: 1
BeatDivisor: 4
GridSize: 4
TimelineZoom: 1.4

[Metadata]
Title:Roller
TitleUnicode:Roller
Artist:Apache 207
ArtistUnicode:Apache 207
Creator:AnimeStyle
Version:jamesjan's Brrm
Source:
Tags:german rap hip-hop deutsch 2019 ep platte jamesjan3 bluirre brrm vroom lucry suena scooter vespa hip hop
BeatmapID:3503265
BeatmapSetID:1590679

[Difficulty]
HPDrainRate:5
CircleSize:4
OverallDifficulty:8
ApproachRate:8.5
SliderMultiplier:2
SliderTickRate:1

[Events]
//Background and Video events
0,0,"BG.jpg",0,0
Video,0,"vid.mp4"
//Break Periods
2,83025,91809
2,115769,118878
//Storyboard Layer 0 (Background)
//Storyboard Layer 1 (Fail)
//Storyboard Layer 2 (Pass)
//Storyboard Layer 3 (Foreground)
//Storyboard Layer 4 (Overlay)
//Storyboard Sound Samples

[TimingPoints]
267,468.75,4,2,1,50,1,0
6829,-333.333333333333,4,2,1,50,0,0
7298,-66.6666666666667,4,2,1,50,0,0
7767,-100,4,2,1,60,0,0
9173,-133.333333333333,4,2,1,60,0,0
10345,-50,4,2,1,60,0,0
10579,-80,4,2,1,60,0,0
11048,-100,4,2,1,60,0,0
11868,-133.333333333333,4,2,1,60,0,0
12161,-100,4,2,1,60,0,0
12688,-66.6666666666667,4,2,1,60,0,0
14329,-333.333333333333,4,2,1,60,0,0
15267,-57.1428571428571,4,2,1,60,0,0
16673,-100,4,2,1,60,0,0
17142,-66.6666666666667,4,2,1,60,0,0
19368,-100,4,2,1,60,0,0
20657,-66.6666666666667,4,2,1,60,0,0
21829,-66.6666666666667,4,2,1,60,0,0
22298,-333.333333333333,4,2,1,60,0,0
22767,-66.6666666666667,4,2,1,50,0,0
24173,-100,4,2,1,50,0,0
24642,-66.6666666666667,4,2,1,50,0,0
25110,-100,4,2,1,50,0,0
25579,-66.6666666666667,4,2,1,50,0,0
27923,-100,4,2,1,50,0,0
28392,-66.6666666666667,4,2,1,50,0,0
28860,-100,4,2,1,50,0,0
29329,-66.6666666666667,4,2,1,50,0,0
31673,-100,4,2,1,50,0,0
32142,-66.6666666666667,4,2,1,50,0,0
32610,-100,4,2,1,50,0,0
34017,-66.6666666666667,4,2,1,50,0,0
36829,-200,4,2,1,50,0,0
37298,-133.333333333333,4,2,1,50,0,0
37767,-66.6666666666667,4,2,1,45,0,0
38235,-100,4,2,1,45,0,0
45267,-100,4,2,1,35,0,0
48079,-80,4,2,1,35,0,0
49017,-100,4,2,1,40,0,0
51829,-66.6666666666667,4,2,1,50,0,0
52767,-66.6666666666667,4,2,1,60,0,1
55345,-100,4,2,1,60,0,1
55579,-66.6666666666667,4,2,1,60,0,1
56048,-50,4,2,1,60,0,1
56517,-66.6666666666667,4,2,1,60,0,1
57220,-100,4,2,1,60,0,1
57454,-66.6666666666667,4,2,1,60,0,1
58392,-80,4,2,1,60,0,1
58860,-66.6666666666667,4,2,1,60,0,1
59329,-66.6666666666667,4,2,1,60,0,1
59798,-50,4,2,1,60,0,1
60267,-66.6666666666667,4,2,1,60,0,1
60970,-100,4,2,1,60,0,1
61204,-66.6666666666667,4,2,1,60,0,1
62376,-100,4,2,1,60,0,1
62610,-66.6666666666667,4,2,1,60,0,1
62845,-100,4,2,1,60,0,1
63548,-50,4,2,1,60,0,1
64017,-66.6666666666667,4,2,1,60,0,1
65892,-66.6666666666667,4,2,1,60,0,1
66126,-100,4,2,1,60,0,1
66360,-66.6666666666667,4,2,1,60,0,1
66595,-100,4,2,1,60,0,1
67298,-133.333333333333,4,2,1,60,0,1
67767,-57.1428571428571,4,2,1,50,0,1
68704,-57.1428571428571,4,2,1,50,0,1
69876,-100,4,2,1,50,0,1
70110,-57.1428571428571,4,2,1,50,0,1
70345,-50,4,2,1,50,0,1
71048,-133.333333333333,4,2,1,50,0,1
71517,-57.1428571428571,4,2,1,50,0,1
72454,-66.6666666666667,4,2,1,50,0,1
72923,-100,4,2,1,50,0,1
73392,-57.1428571428571,4,2,1,50,0,1
74798,-133.333333333333,4,2,1,50,0,1
75267,-57.1428571428571,4,2,1,50,0,1
78548,-133.333333333333,4,2,1,50,0,1
79017,-57.1428571428571,4,2,1,50,0,1
80423,-100,4,2,1,50,0,1
80892,-66.6666666666667,4,2,1,50,0,0
81829,-50,4,2,1,50,0,0
82298,-66.6666666666667,4,2,1,40,0,0
82767,-100,4,2,1,30,0,0
92484,468.75,4,2,1,50,1,0
92601,468.75,4,2,1,50,1,0
93069,468.75,4,2,1,50,1,0
93069,-66.6666666666667,4,2,1,50,0,0
98225,-100,4,2,1,50,0,0
98694,-66.6666666666667,4,2,1,50,0,0
101975,-100,4,2,1,50,0,0
102444,-66.6666666666667,4,2,1,50,0,0
105725,-100,4,2,1,50,0,0
106194,-66.6666666666667,4,2,1,50,0,0
106897,-40,4,2,1,50,0,0
108069,-66.6666666666667,4,2,1,50,0,0
108537,-100,4,2,1,50,0,0
108772,-66.6666666666667,4,2,1,50,0,0
112287,-100,4,2,1,50,0,0
112522,-66.6666666666667,4,2,1,50,0,0
113225,-100,4,2,1,50,0,0
113694,-66.6666666666667,4,2,1,50,0,0
115569,-66.6666666666667,4,2,1,40,0,0
122131,-66.6666666666667,4,2,1,50,0,0
123069,-66.6666666666667,4,2,1,60,0,1
125647,-100,4,2,1,60,0,1
125881,-66.6666666666667,4,2,1,60,0,1
126350,-50,4,2,1,60,0,1
126819,-66.6666666666667,4,2,1,60,0,1
127522,-100,4,2,1,60,0,1
127756,-66.6666666666667,4,2,1,60,0,1
128694,-80,4,2,1,60,0,1
129162,-66.6666666666667,4,2,1,60,0,1
130100,-50,4,2,1,60,0,1
130569,-66.6666666666667,4,2,1,60,0,1
131272,-100,4,2,1,60,0,1
131506,-66.6666666666667,4,2,1,60,0,1
132678,-100,4,2,1,60,0,1
132912,-66.6666666666667,4,2,1,60,0,1
133147,-100,4,2,1,60,0,1
133850,-50,4,2,1,60,0,1
134319,-66.6666666666667,4,2,1,60,0,1
136194,-66.6666666666667,4,2,1,60,0,1
136428,-100,4,2,1,60,0,1
136662,-66.6666666666667,4,2,1,60,0,1
136897,-100,4,2,1,60,0,1
137600,-133.333333333333,4,2,1,60,0,1
138069,-57.1428571428571,4,2,1,50,0,1
139006,-57.1428571428571,4,2,1,50,0,1
140178,-100,4,2,1,50,0,1
140412,-57.1428571428571,4,2,1,50,0,1
140647,-50,4,2,1,50,0,1
141350,-133.333333333333,4,2,1,50,0,1
141819,-57.1428571428571,4,2,1,50,0,1
142756,-66.6666666666667,4,2,1,50,0,1
143225,-100,4,2,1,50,0,1
143694,-57.1428571428571,4,2,1,50,0,1
145100,-133.333333333333,4,2,1,50,0,1
145569,-57.1428571428571,4,2,1,50,0,1
148850,-133.333333333333,4,2,1,50,0,1
149319,-57.1428571428571,4,2,1,50,0,1
150725,-100,4,2,1,50,0,1
152131,-33.3333333333333,4,2,1,50,0,1
152600,-100,4,2,1,50,0,1
153069,-100,4,2,1,50,0,0
154944,-100,4,2,1,45,0,0
156350,-100,4,2,1,40,0,0
158694,-100,4,2,1,35,0,0
160100,-100,4,2,1,30,0,0

[Colours]
Combo1 : 0,0,213
Combo2 : 255,0,128
Combo3 : 0,92,185
Combo4 : 211,211,211

[HitObjects]
162,350,267,6,0,P|169:301|190:241,1,100,6|2,0:0|0:0,0:0:0:0:
13,250,735,5,2,0:0:0:0:
86,291,970,1,2,0:0:0:0:
2,259,1204,1,2,0:0:0:0:
433,102,2142,6,0,P|383:60|339:41,1,100,6|2,0:0|0:0,0:0:0:0:
273,99,2610,1,2,0:0:0:0:
345,37,2845,1,2,0:0:0:0:
183,165,3079,6,0,P|232:123|276:104,1,100,6|2,0:0|0:0,0:0:0:0:
338,154,3548,1,2,0:0:0:0:
273,99,3782,1,2,0:0:0:0:
332,43,4017,6,0,P|319:103|315:160,1,100,6|2,0:0|0:0,0:0:0:0:
370,336,4485,5,2,0:0:0:0:
291,319,4720,1,2,0:0:0:0:
376,347,4954,1,2,0:0:0:0:
193,163,5892,6,0,P|175:221|165:272,1,100,6|2,0:0|0:0,0:0:0:0:
105,173,6360,1,2,0:0:0:0:
181,152,6595,1,2,0:0:0:0:
258,377,6829,5,6,0:0:0:0:
233,50,7532,6,0,P|214:33|230:54,1,75.0000028610231,2|2,0:0|0:0,0:0:0:0:
304,80,7767,1,6,0:0:0:0:
319,234,8001,1,2,0:0:0:0:
319,234,8118,6,0,P|315:178|263:150,1,100,2|0,0:0|0:0,0:0:0:0:
227,258,8470,6,0,P|223:233|204:219,1,50,2|0,0:0|0:0,0:0:0:0:
74,339,8938,1,2,0:0:0:0:
149,311,9173,6,0,P|136:288|107:285,1,37.5000014305115,2|0,0:0|0:0,0:0:0:0:
149,311,9407,1,2,0:0:0:0:
2,203,9642,5,6,0:0:0:0:
74,339,9876,1,2,0:0:0:0:
224,267,10110,1,2,0:0:0:0:
279,380,10345,6,0,P|270:329|307:232,1,150.000005722046,2|0,0:0|0:0,0:0:0:0:
301,238,10579,2,0,P|270:213|229:276,1,125,6|2,0:0|0:0,0:0:0:0:
221,145,11048,1,2,0:0:0:0:
359,290,11282,1,2,0:0:0:0:
492,156,11517,1,6,0:0:0:0:
492,156,11634,1,2,0:0:0:0:
397,44,11868,6,0,P|440:46|457:85,1,75.0000028610231,2|0,0:0|0:0,0:0:0:0:
336,104,12220,6,0,P|352:125|340:149,1,50,2|0,0:0|0:0,0:0:0:0:
250,74,12688,6,0,P|245:110|209:128,1,75.0000028610231,2|0,0:0|0:0,0:0:0:0:
178,58,12923,1,2,0:0:0:0:
314,149,13157,1,2,0:0:0:0:
142,251,13392,5,6,0:0:0:0:
132,239,13626,1,2,0:0:0:0:
148,244,13860,1,2,0:0:0:0:
127,252,14095,1,2,0:0:0:0:
255,383,14329,5,6,0:0:0:0:
491,191,15267,6,0,B|504:162|504:162|356:204,1,175.00000166893,6|2,3:2|0:0,0:0:0:0:
293,221,15618,6,0,P|266:201|273:140,1,87.500000834465,10|0,0:0|0:0,0:0:0:0:
105,266,15970,6,0,P|78:246|85:185,1,87.500000834465,10|0,0:0|0:0,0:0:0:0:
105,266,16438,1,2,0:0:0:0:
156,17,16673,6,0,L|143:74,1,50,2|0,3:2|0:0,0:0:0:0:
81,8,16907,2,0,L|68:65,1,50,10|0,0:0|0:0,0:0:0:0:
3,91,17142,2,0,B|15:101|15:101|160:61,1,150.000005722046,6|2,0:0|0:0,0:0:0:0:
221,80,17493,1,8,0:0:0:0:
221,80,17610,1,2,0:0:0:0:
146,258,17845,1,10,0:0:0:0:
278,172,18079,6,0,P|346:195|352:276,1,150.000005722046,6|2,0:0|0:0,0:0:0:0:
346,273,18431,1,8,0:0:0:0:
335,280,18548,2,0,P|294:272|294:241,1,75.0000028610231,2|0,3:2|0:0,0:0:0:0:
347,152,18782,1,10,0:0:0:0:
278,358,19017,6,0,P|343:321|416:309,1,150.000005722046,6|2,0:0|0:0,0:0:0:0:
484,337,19368,2,0,P|499:379|481:341,1,150.000005722046,10|10,0:0|0:0,0:0:0:0:
412,30,20188,6,0,P|399:53|391:79,1,50,2|8,0:0|0:0,0:0:0:0:
460,106,20423,2,0,P|472:84|480:60,1,50,2|0,3:2|0:0,0:0:0:0:
406,191,20657,2,0,P|391:149|409:187,1,150.000005722046,10|6,0:0|0:0,0:0:0:0:
254,288,21243,5,8,0:0:0:0:
254,288,21595,1,10,0:0:0:0:
239,32,21829,6,0,B|243:17|229:4|229:4|232:23|230:32|230:32|219:20|203:36|203:36|220:30|229:40|229:40|207:64|216:121|293:155|342:96,1,300.000011444092,6|0,0:0|0:0,0:0:0:0:
335,103,22767,6,0,L|88:72,1,225.000008583069,6|10,3:2|0:0,0:0:0:0:
71,13,23235,1,2,3:2:0:0:
0,126,23470,1,10,0:0:0:0:
1,47,23704,1,0,3:2:0:0:
166,192,23938,5,2,0:0:0:0:
32,314,24173,6,0,P|16:294|35:261,1,50,2|0,3:2|0:0,0:0:0:0:
103,295,24407,2,0,P|109:270|94:251,1,50,10|0,0:0|0:0,0:0:0:0:
32,314,24642,6,0,L|196:354,1,150.000005722046,6|2,3:2|0:0,0:0:0:0:
254,365,24993,1,10,0:0:0:0:
254,365,25110,2,0,P|264:329|256:306,1,50,2|0,3:2|0:0,0:0:0:0:
321,273,25345,2,0,P|304:241|282:230,1,50,10|0,0:0|0:0,0:0:0:0:
262,160,25579,6,0,P|333:148|422:208,1,150.000005722046,6|2,3:2|0:0,0:0:0:0:
475,188,25931,1,10,0:0:0:0:
475,188,26048,2,0,B|475:229|475:229|439:242,1,75.0000028610231,2|0,3:2|0:0,0:0:0:0:
325,174,26282,2,0,B|322:133|322:133|361:120,1,75.0000028610231,10|0,0:0|0:0,0:0:0:0:
445,101,26517,5,6,3:2:0:0:
258,65,26751,1,2,0:0:0:0:
258,65,26868,1,10,0:0:0:0:
258,65,26985,1,2,3:2:0:0:
320,12,27220,1,10,0:0:0:0:
243,146,27454,1,0,3:2:0:0:
78,0,27688,5,2,0:0:0:0:
1,173,27923,6,0,P|24:190|54:183,1,50,2|0,3:2|0:0,0:0:0:0:
69,118,28157,2,0,P|45:100|15:107,1,50,10|0,0:0|0:0,0:0:0:0:
0,172,28392,6,0,L|154:143,1,150.000005722046,6|2,3:2|0:0,0:0:0:0:
228,166,28743,1,10,0:0:0:0:
228,166,28860,2,0,P|247:132|240:114,1,50,2|0,3:2|0:0,0:0:0:0:
283,58,29095,2,0,P|315:80|316:99,1,50,10|0,0:0|0:0,0:0:0:0:
370,190,29329,6,0,B|355:200|355:200|225:165,1,150.000005722046,6|2,3:2|0:0,0:0:0:0:
225,191,29798,2,0,B|238:178|238:178|372:190,1,150.000005722046,2|10,3:2|0:0,0:0:0:0:
272,309,30267,6,0,L|317:89,2,225.000008583069,6|10|10,3:2|0:0|2:2,0:0:0:0:
317,372,31204,1,0,3:2:0:0:
199,236,31438,5,2,0:0:0:0:
2,341,31673,6,0,P|13:319|15:294,1,50,2|0,3:2|0:0,0:0:0:0:
96,318,31907,2,0,P|84:339|82:364,1,50,10|0,0:0|0:0,0:0:0:0:
2,341,32142,6,0,P|48:281|182:326,1,225.000008583069,6|10,3:2|0:0,0:0:0:0:
253,298,32610,2,0,P|251:347|223:363,1,50,2|0,3:2|0:0,0:0:0:0:
177,316,32845,1,10,0:0:0:0:
329,225,33079,5,6,3:2:0:0:
219,49,33313,1,2,0:0:0:0:
219,49,33431,1,10,0:0:0:0:
219,49,33548,2,0,P|227:14|257:-14,1,50,2|0,3:2|0:0,0:0:0:0:
295,53,33782,2,0,P|301:77|298:101,1,50,10|0,0:0|0:0,0:0:0:0:
245,157,34017,6,0,P|236:234|245:326,1,150,6|2,3:2|0:0,0:0:0:0:
274,379,34368,1,10,0:0:0:0:
274,379,34485,1,2,3:2:0:0:
171,371,34720,1,10,0:0:0:0:
338,313,34954,1,0,3:2:0:0:
183,242,35188,6,0,P|171:208|175:157,1,75.0000028610231,2|10,0:0|0:0,0:0:0:0:
307,120,35423,2,0,P|319:86|315:35,1,75.0000028610231,2|0,3:2|0:0,0:0:0:0:
256,5,35657,1,10,0:0:0:0:
480,112,35892,5,4,3:2:0:0:
503,192,36243,5,10,0:0:0:0:
503,192,36360,1,2,3:2:0:0:
487,270,36595,5,2,0:0:0:0:
409,294,36829,6,0,L|360:247,1,50,4|0,3:2|0:0,0:0:0:0:
409,294,37298,6,0,L|318:280,1,75.0000028610231,0|0,3:2|0:0,0:0:0:0:
409,294,37767,6,0,L|228:330,1,150.000005722046,4|2,3:2|0:0,0:0:0:0:
188,338,38118,1,10,0:0:0:0:
188,338,38235,2,0,P|171:313|169:281,1,50,2|2,3:2|0:0,0:0:0:0:
108,240,38470,2,0,P|125:210|127:183,1,50,10|2,0:0|0:0,0:0:0:0:
148,145,38704,1,2,3:2:0:0:
148,145,38821,1,2,0:0:0:0:
148,145,38938,1,2,0:0:0:0:
148,145,39056,1,10,0:0:0:0:
148,145,39173,1,2,3:2:0:0:
148,145,39290,1,2,0:0:0:0:
148,145,39407,1,10,0:0:0:0:
148,145,39524,1,2,0:0:0:0:
148,145,39642,5,6,3:2:0:0:
226,133,39876,1,2,0:0:0:0:
91,47,40110,2,0,P|116:58|145:63,1,50,2|0,3:2|0:0,0:0:0:0:
273,198,40345,2,0,P|298:187|327:182,1,50,10|0,0:0|0:0,0:0:0:0:
438,150,40579,5,6,3:2:0:0:
368,119,40813,1,2,0:0:0:0:
512,62,41048,2,0,P|487:73|458:78,1,50,2|0,3:2|0:0,0:0:0:0:
320,182,41283,2,0,P|294:166|198:152,1,100,10|4,0:0|3:2,0:0:0:0:
81,339,41751,6,0,P|66:363|43:373,1,50,2|10,0:0|0:0,0:0:0:0:
76,263,41985,2,0,P|104:263|124:278,1,50,2|2,3:2|0:0,0:0:0:0:
13,302,42220,2,0,P|-1:276|1:252,1,50,10|2,0:0|0:0,0:0:0:0:
76,225,42454,1,2,3:2:0:0:
76,225,42571,1,2,0:0:0:0:
76,225,42688,1,2,0:0:0:0:
76,225,42806,1,10,0:0:0:0:
76,225,42923,1,2,3:2:0:0:
76,225,43040,1,2,0:0:0:0:
76,225,43157,1,10,0:0:0:0:
76,225,43274,1,2,0:0:0:0:
76,225,43392,5,6,3:2:0:0:
119,160,43626,1,2,0:0:0:0:
184,276,43860,2,0,P|170:249|146:227,1,50,2|0,3:2|0:0,0:0:0:0:
37,157,44095,2,0,P|20:138|9:115,1,50,10|0,0:0|0:0,0:0:0:0:
65,16,44329,5,6,3:2:0:0:
89,90,44563,1,2,0:0:0:0:
175,68,44798,2,0,P|167:96|171:122,1,50,2|0,3:2|0:0,0:0:0:0:
9,115,45032,2,0,P|28:137|41:172,1,50,10|0,0:0|0:0,0:0:0:0:
125,206,45267,5,6,0:0:0:0:
499,310,46673,6,0,L|486:372,1,50,2|0,3:2|0:0,0:0:0:0:
415,345,46907,2,0,L|428:283,1,50,2|0,3:2|0:0,0:0:0:0:
370,241,47142,6,0,L|321:336,1,100,6|2,3:2|0:0,0:0:0:0:
253,292,47610,2,0,L|301:196,1,100,2|2,0:0|3:2,0:0:0:0:
249,143,48079,6,0,L|141:246,1,125,6|2,3:2|0:0,0:0:0:0:
105,178,48431,1,0,0:0:0:0:
105,178,48548,2,0,L|195:91,1,125,2|2,0:0|3:2,0:0:0:0:
80,254,49017,5,6,3:2:0:0:
86,288,49251,1,2,0:0:0:0:
86,288,49368,1,10,0:0:0:0:
86,288,49485,1,2,3:2:0:0:
122,327,49720,1,10,0:0:0:0:
193,318,49954,1,2,0:0:0:0:
252,264,50188,1,2,0:0:0:0:
283,236,50306,1,10,0:0:0:0:
328,249,50423,1,2,3:2:0:0:
398,309,50657,1,10,0:0:0:0:
193,318,50892,5,6,3:2:0:0:
245,85,51126,1,2,0:0:0:0:
181,123,51360,1,2,0:0:0:0:
253,274,51595,1,10,0:0:0:0:
43,144,51829,6,0,B|47:129|33:116|33:116|36:135|34:144|34:144|23:132|7:148|7:148|24:142|33:152|33:152|11:176|20:233|97:267|146:208,1,300.000011444092,6|2,0:0|0:0,0:0:0:0:
43,144,52532,1,2,0:0:0:0:
200,12,52767,6,0,P|229:45|232:90,1,75.0000028610231,6|0,3:2|0:0,0:0:0:0:
309,78,53001,2,0,P|297:120|262:148,1,75.0000028610231,10|10,0:0|0:0,0:0:0:0:
257,234,53235,5,2,3:2:0:0:
428,67,53470,1,10,0:0:0:0:
196,185,53704,5,2,3:2:0:0:
477,128,53938,1,10,0:0:0:0:
412,223,54173,6,0,P|375:189|368:150,1,75.0000028610231,2|0,3:2|0:0,0:0:0:0:
278,84,54407,2,0,P|297:130|287:168,1,75.0000028610231,10|0,0:0|0:0,0:0:0:0:
246,319,54642,5,6,3:2:0:0:
106,230,54876,1,10,0:0:0:0:
122,235,54993,1,10,0:0:0:0:
126,254,55110,1,2,3:2:0:0:
50,285,55345,6,0,P|26:271|26:250,1,50,10|0,0:0|0:0,0:0:0:0:
197,222,55579,2,0,P|193:139|140:98,1,150.000005722046,6|10,3:2|0:0,0:0:0:0:
69,109,55931,5,8,0:0:0:0:
69,109,56048,2,0,B|43:112|29:140|29:140|51:123|67:121|67:121|72:128|72:128|93:186|155:193|212:168|216:113,1,300,6|0,3:2|0:0,0:0:0:0:
199,44,56517,5,6,3:2:0:0:
339,178,56751,1,10,0:0:0:0:
324,140,56868,1,10,0:0:0:0:
363,121,56985,1,2,3:2:0:0:
415,178,57220,6,0,P|424:208|424:247,1,50,10|0,0:0|0:0,0:0:0:0:
291,250,57454,2,0,B|249:249|262:129|336:41,1,225.000008583069,2|8,3:2|0:0,0:0:0:0:
398,27,57923,1,2,3:2:0:0:
246,155,58157,1,10,0:0:0:0:
409,325,58392,6,0,P|456:307|472:274,1,62.5,6|0,3:2|0:0,0:0:0:0:
429,231,58626,2,0,P|381:248|365:281,1,62.5,10|10,0:0|0:0,0:0:0:0:
237,346,58860,6,0,P|185:327|168:291,1,75.0000028610231,2|0,3:2|0:0,0:0:0:0:
211,246,59094,2,0,P|263:265|280:301,1,75.0000028610231,10|0,0:0|0:0,0:0:0:0:
337,355,59329,6,0,B|346:365|346:365|336:326|300:142,1,225.000008583069,6|8,3:2|0:0,0:0:0:0:
373,127,59798,2,0,B|406:119|413:148|413:148|394:126|368:129|368:129|312:174|219:134|217:61,1,300,4|0,3:2|0:0,0:0:0:0:
160,12,60267,5,6,3:2:0:0:
38,194,60501,1,10,0:0:0:0:
85,202,60618,1,10,0:0:0:0:
109,157,60735,1,2,3:2:0:0:
39,128,60970,6,0,P|13:162|10:173,1,50,10|0,0:0|0:0,0:0:0:0:
83,353,61204,2,0,B|146:366|228:288|144:217|102:232|92:276,1,225.000008583069,2|8,3:2|0:0,0:0:0:0:
22,309,61673,5,2,3:2:0:0:
22,309,61907,2,0,P|53:327|92:365,1,75.0000028610231,10|0,0:0|0:0,0:0:0:0:
250,299,62142,6,0,P|279:265|285:216,1,75.0000028610231,6|0,3:2|0:0,0:0:0:0:
360,211,62376,2,0,P|371:187|390:170,1,50,10|10,0:0|0:0,0:0:0:0:
391,351,62610,6,0,P|361:317|355:268,1,75.0000028610231,2|0,3:2|0:0,0:0:0:0:
225,189,62845,2,0,P|213:165|194:148,1,50,10|0,0:0|0:0,0:0:0:0:
439,238,63079,5,6,3:2:0:0:
205,328,63431,1,8,0:0:0:0:
205,328,63548,2,0,B|185:325|157:345|157:345|170:311|205:328|205:328|249:375|345:358|354:285,1,300,6|0,3:2|0:0,0:0:0:0:
390,217,64017,5,6,3:2:0:0:
258,38,64251,1,10,0:0:0:0:
269,86,64368,1,10,0:0:0:0:
322,91,64485,1,2,3:2:0:0:
332,14,64720,5,10,0:0:0:0:
213,166,64954,1,2,3:2:0:0:
76,66,65188,2,0,P|131:44|206:-10,2,150.000005722046,10|2|10,0:0|3:2|0:0,0:0:0:0:
237,299,65892,6,0,P|201:266|160:255,1,75.0000028610231,6|0,3:2|0:0,0:0:0:0:
50,271,66126,2,0,P|18:273|-7:261,1,50,10|10,0:0|0:0,0:0:0:0:
147,326,66360,6,0,P|100:278|93:241,1,75.0000028610231,2|0,3:2|0:0,0:0:0:0:
73,143,66595,2,0,P|43:129|24:131,1,50,10|0,0:0|0:0,0:0:0:0:
44,348,66829,5,6,3:2:0:0:
44,348,67298,6,0,B|57:362|57:362|80:334|80:334|85:355|85:355|117:339,1,112.500004291535,4|0,3:2|0:0,0:0:0:0:
44,348,67767,6,0,B|73:371|73:371|108:310|108:310|126:347|126:347|266:321,1,262.500002503395,6|8,3:2|0:0,0:0:0:0:
316,309,68235,1,2,3:2:0:0:
157,247,68470,1,10,0:0:0:0:
429,276,68704,1,2,3:2:0:0:
243,227,69056,5,8,0:0:0:0:
243,227,69173,1,2,3:2:0:0:
436,355,69407,1,8,0:0:0:0:
281,357,69642,6,0,P|228:336|230:286,1,87.500000834465,6|0,3:2|0:0,0:0:0:0:
167,249,69876,1,2,0:0:0:0:
317,196,70110,2,0,P|279:196|243:226,1,87.500000834465,2|0,3:2|0:0,0:0:0:0:
120,233,70345,2,0,L|170:250,1,50,10|0,0:0|0:0,0:0:0:0:
408,322,70579,5,6,3:2:0:0:
484,278,70931,5,8,0:0:0:0:
484,278,71048,2,0,B|487:258|487:258|463:249|463:249|476:244|476:244|460:188,1,112.500004291535,6|0,3:2|0:0,0:0:0:0:
484,278,71517,6,0,B|453:252|453:252|469:216|469:216|452:227|452:227|363:74,1,262.500002503395,6|8,3:2|0:0,0:0:0:0:
372,11,71985,1,2,3:2:0:0:
155,136,72220,1,10,0:0:0:0:
361,259,72454,1,2,3:2:0:0:
356,177,72806,5,8,0:0:0:0:
356,177,72923,2,0,P|406:164|415:160,1,50,2|0,3:2|0:0,0:0:0:0:
354,261,73157,1,8,0:0:0:0:
160,173,73392,6,0,B|144:187|144:187|134:264,1,87.500000834465,6|0,3:2|0:0,0:0:0:0:
92,311,73626,1,2,0:0:0:0:
60,160,73860,2,0,B|71:177|71:177|60:254,1,87.500000834465,2|0,3:2|0:0,0:0:0:0:
86,355,74095,2,0,L|93:305,1,43.7500004172325,10|0,0:0|0:0,0:0:0:0:
131,70,74329,5,6,3:2:0:0:
195,26,74681,5,8,0:0:0:0:
195,26,74798,2,0,B|208:17|208:17|210:48|210:48|228:38|228:38|282:57|282:57,1,112.500004291535,4|0,3:2|0:0,0:0:0:0:
195,26,75267,6,0,B|220:6|220:6|229:55|229:55|252:32|252:32|433:49|433:49,1,262.500002503395,6|8,3:2|0:0,0:0:0:0:
476,18,75735,1,2,3:2:0:0:
292,159,75970,1,10,0:0:0:0:
507,255,76204,1,2,3:2:0:0:
457,183,76556,5,8,0:0:0:0:
457,183,76673,1,2,3:2:0:0:
512,342,76907,1,8,0:0:0:0:
280,151,77142,6,0,P|300:188|339:208,1,87.500000834465,6|0,3:2|0:0,0:0:0:0:
397,263,77376,1,2,0:0:0:0:
253,329,77610,2,0,P|273:304|331:290,1,87.500000834465,2|0,3:2|0:0,0:0:0:0:
439,271,77845,2,0,L|369:257,1,43.7500004172325,10|0,0:0|0:0,0:0:0:0:
159,226,78079,5,6,3:2:0:0:
18,286,78431,5,8,0:0:0:0:
18,286,78548,2,0,B|37:279|37:279|61:309|61:309|78:290|78:290|119:305,1,112.500004291535,6|0,3:2|0:0,0:0:0:0:
18,286,79017,6,0,B|46:261|46:261|75:327|75:327|95:277|95:277|224:301,1,262.500002503395,6|8,3:2|0:0,0:0:0:0:
254,247,79485,1,2,3:2:0:0:
37,143,79720,1,10,0:0:0:0:
237,15,79954,1,2,3:2:0:0:
162,42,80306,5,8,0:0:0:0:
162,42,80423,2,0,P|175:84|176:107,1,50,2|0,3:2|0:0,0:0:0:0:
244,19,80657,1,8,0:0:0:0:
254,302,80892,5,6,3:2:0:0:
365,41,81829,6,0,P|334:75|323:108,1,50,6|0,3:2|0:0,0:0:0:0:
388,188,82298,6,0,P|383:221|389:246,1,37.5000014305115,2|0,0:0|0:0,0:0:0:0:
463,318,82767,6,0,P|476:336|491:345,1,25,2|0,3:2|0:0,0:0:0:0:
330,286,92484,5,8,0:0:0:0:
330,286,92601,2,0,P|291:234|273:234,2,66.6666666666667,2|2|2,0:0|0:0|0:0,0:0:0:0:
405,315,93069,6,0,B|323:354|296:283|312:282|283:216|217:253,1,225.000008583069,6|8,3:2|0:0,0:0:0:0:
169,313,93537,1,2,3:2:0:0:
30,215,93772,2,0,P|96:140|39:219,1,300.000011444092,10|0,0:0|0:0,0:0:0:0:
30,215,94475,6,0,L|146:198,1,100.000003814697,2|2,3:2|0:0,0:0:0:0:
271,109,94787,1,2,0:0:0:0:
220,213,94944,6,0,P|210:162|176:123,1,100.000003814697,6|2,3:2|0:0,0:0:0:0:
26,40,95256,1,2,0:0:0:0:
95,119,95412,2,0,L|116:-1,2,100.000003814697,2|2|2,3:2|0:0|0:0,0:0:0:0:
72,237,95881,6,0,P|12:287|-13:278,1,100.000003814697,6|2,3:2|0:0,0:0:0:0:
0,204,96194,1,2,0:0:0:0:
110,342,96350,5,2,3:2:0:0:
237,273,96506,1,2,0:0:0:0:
346,374,96662,1,2,0:0:0:0:
434,340,96819,6,0,B|459:265|402:231|397:249|351:219|375:125,1,225.000008583069,6|8,3:2|0:0,0:0:0:0:
444,98,97287,1,2,3:2:0:0:
260,103,97522,2,0,P|229:7|276:96,1,300.000011444092,10|0,0:0|0:0,0:0:0:0:
268,111,98108,1,8,0:0:0:0:
268,111,98225,2,0,P|250:162|250:187,1,50,0|0,3:2|0:0,0:0:0:0:
171,237,98459,2,0,P|153:288|153:313,1,50,8|0,0:0|0:0,0:0:0:0:
210,352,98694,6,0,P|266:311|246:255,1,100.000003814697,6|2,3:2|0:0,0:0:0:0:
396,165,99006,1,2,0:0:0:0:
424,251,99162,6,0,L|305:229,1,100.000003814697,2|2,3:2|0:0,0:0:0:0:
143,224,99475,1,2,0:0:0:0:
219,103,99631,6,0,P|233:144|216:205,1,100.000003814697,6|2,3:2|0:0,0:0:0:0:
143,224,99944,1,2,0:0:0:0:
18,165,100100,6,0,P|26:207|71:251,1,100.000003814697,2|2,3:2|0:0,0:0:0:0:
143,224,100412,1,2,0:0:0:0:
219,103,100569,6,0,B|144:78|110:135|128:140|98:186|4:162,1,225.000008583069,6|8,3:2|0:0,0:0:0:0:
0,93,101037,1,2,3:2:0:0:
143,224,101272,2,0,P|173:319|126:230,1,300.000011444092,10|0,0:0|0:0,0:0:0:0:
143,224,101975,6,0,L|197:232,1,50,0|0,3:2|0:0,0:0:0:0:
325,257,102209,2,0,L|379:265,1,50,8|0,0:0|0:0,0:0:0:0:
449,284,102444,6,0,P|398:313|384:367,1,100.000003814697,6|2,3:2|0:0,0:0:0:0:
208,289,102756,2,0,P|157:260|143:206,2,100.000003814697,2|2|2,0:0|3:2|0:0,0:0:0:0:
281,348,103225,1,2,0:0:0:0:
321,168,103381,6,0,L|302:272,1,100.000003814697,6|2,3:2|0:0,0:0:0:0:
128,343,103694,1,2,0:0:0:0:
121,250,103850,6,0,P|192:270|217:309,2,100.000003814697,2|2|2,3:2|0:0|0:0,0:0:0:0:
8,350,104319,6,0,B|87:370|117:324|99:319|133:262|208:287,1,225.000008583069,6|8,3:2|0:0,0:0:0:0:
272,247,104787,1,2,3:2:0:0:
58,163,105022,2,0,P|105:73|74:169,1,300.000011444092,10|0,0:0|0:0,0:0:0:0:
66,171,105608,1,8,0:0:0:0:
66,171,105725,2,0,P|93:162|120:159,1,50,0|0,3:2|0:0,0:0:0:0:
180,116,105959,2,0,P|216:113|233:106,1,50,8|0,0:0|0:0,0:0:0:0:
225,0,106194,6,0,B|204:79|250:109|255:91|312:125|287:200,1,225.000008583069,6|8,3:2|0:0,0:0:0:0:
248,268,106662,1,2,3:2:0:0:
248,268,106897,2,0,P|232:352|268:274,2,250,2|6|0,0:0|3:2|0:0,0:0:0:0:
510,100,108069,6,0,B|437:82|405:128|424:135|387:197|308:174,1,225.000008583069,6|8,3:2|0:0,0:0:0:0:
236,187,108537,2,0,P|244:149|268:114,1,50,2|0,3:2|0:0,0:0:0:0:
317,55,108772,2,0,P|315:93|312:59,1,150.000005722046,10|2,0:0|3:2,0:0:0:0:
426,217,109358,5,8,0:0:0:0:
426,217,109475,2,0,P|346:254|339:283,2,100.000003814697,2|2|2,3:2|0:0|0:0,0:0:0:0:
512,317,109944,6,0,L|376:291,1,100.000003814697,6|2,3:2|0:0,0:0:0:0:
185,233,110256,1,2,0:0:0:0:
199,312,110412,6,0,P|250:280|268:240,1,100.000003814697,2|2,3:2|0:0,0:0:0:0:
290,86,110725,1,2,0:0:0:0:
352,147,110881,5,6,3:2:0:0:
212,102,111037,1,2,0:0:0:0:
317,10,111194,1,2,0:0:0:0:
290,86,111350,6,0,L|311:211,2,100.000003814697,2|2|2,3:2|0:0|0:0,0:0:0:0:
204,15,111819,6,0,B|129:7|105:75|124:79|102:130|27:126,1,225.000008583069,6|8,3:2|0:0,0:0:0:0:
13,114,112287,2,0,P|18:93|32:61,1,50,2|0,3:2|0:0,0:0:0:0:
195,96,112522,2,0,P|193:134|190:100,1,150.000005722046,10|2,0:0|3:2,0:0:0:0:
111,44,113108,5,8,0:0:0:0:
111,44,113225,2,0,L|116:103,1,50,0|0,3:2|0:0,0:0:0:0:
127,197,113459,2,0,L|132:256,1,50,8|0,0:0|0:0,0:0:0:0:
151,322,113694,6,0,P|117:290|51:290,1,100.000003814697,6|2,3:2|0:0,0:0:0:0:
16,138,114006,1,2,0:0:0:0:
28,215,114162,6,0,L|141:194,1,100.000003814697,2|2,3:2|0:0,0:0:0:0:
305,170,114475,1,2,0:0:0:0:
246,239,114631,5,6,3:2:0:0:
177,126,114787,1,2,0:0:0:0:
294,88,114944,1,2,0:0:0:0:
237,35,115100,6,0,L|135:7,2,100.000003814697,2|2|2,3:2|0:0|0:0,0:0:0:0:
409,66,115569,5,6,3:2:0:0:
393,359,119553,5,2,0:0:0:0:
393,359,119670,1,8,0:0:0:0:
456,307,120022,1,10,0:0:0:0:
119,359,120490,5,0,0:0:0:0:
119,359,120607,1,8,0:0:0:0:
56,307,120959,1,8,0:0:0:0:
305,359,121194,6,0,B|312:284|244:260|240:279|189:257|193:182,1,225.000008583069,6|8,0:0|0:0,0:0:0:0:
252,132,121662,1,2,0:0:0:0:
252,132,121897,2,0,P|256:107|254:133,1,75.0000028610231,10|0,0:0|0:0,0:0:0:0:
175,267,122131,6,0,B|139:293|139:293|178:274|178:274|176:298|176:298|190:276|190:276|366:282,1,300.000011444092,6|2,0:0|0:0,0:0:0:0:
78,232,122834,1,2,0:0:0:0:
78,232,123069,6,0,P|49:199|46:154,1,75.0000028610231,6|0,3:2|0:0,0:0:0:0:
218,80,123303,2,0,P|247:113|250:158,1,75.0000028610231,10|10,0:0|0:0,0:0:0:0:
157,270,123537,5,2,3:2:0:0:
149,38,123772,1,10,0:0:0:0:
247,228,124006,5,2,3:2:0:0:
57,92,124240,1,10,0:0:0:0:
56,211,124475,6,0,L|137:185,1,75.0000028610231,2|0,3:2|0:0,0:0:0:0:
266,141,124709,2,0,L|349:116,1,75.0000028610231,10|0,0:0|0:0,0:0:0:0:
181,112,124944,5,6,3:2:0:0:
390,181,125178,1,10,0:0:0:0:
406,176,125295,1,10,0:0:0:0:
410,157,125412,1,2,3:2:0:0:
360,81,125647,6,0,P|342:91|342:126,1,50,10|0,0:0|0:0,0:0:0:0:
292,185,125881,2,0,P|330:258|315:323,1,150.000005722046,6|10,3:2|0:0,0:0:0:0:
228,324,126233,5,8,0:0:0:0:
228,324,126350,2,0,B|203:333|197:364|197:364|214:342|229:336|229:336|228:350|240:354|240:354|251:335|251:335|422:357,1,300,6|0,3:2|0:0,0:0:0:0:
486,340,126819,5,6,3:2:0:0:
329,222,127053,1,10,0:0:0:0:
314,184,127170,1,10,0:0:0:0:
353,165,127287,1,2,3:2:0:0:
411,231,127522,6,0,P|420:261|420:300,1,50,10|0,0:0|0:0,0:0:0:0:
318,358,127756,2,0,B|345:326|346:224|288:178|230:215,1,225.000008583069,2|10,3:2|0:0,0:0:0:0:
159,183,128225,1,2,3:2:0:0:
420,89,128459,1,10,0:0:0:0:
273,21,128694,6,0,L|212:44,1,62.5,6|0,3:2|0:0,0:0:0:0:
246,112,128928,2,0,L|306:88,1,62.5,10|10,0:0|0:0,0:0:0:0:
232,199,129162,6,0,L|156:182,1,75.0000028610231,2|0,3:2|0:0,0:0:0:0:
145,270,129396,2,0,L|220:286,1,75.0000028610231,10|0,0:0|0:0,0:0:0:0:
302,251,129631,6,0,B|290:260|290:260|69:207,1,225.000008583069,6|8,3:2|0:0,0:0:0:0:
44,146,130100,2,0,B|8:141|1:170|1:170|20:148|46:151|46:151|95:350,1,300,4|0,3:2|0:0,0:0:0:0:
13,379,130569,5,6,3:2:0:0:
167,287,130803,1,10,0:0:0:0:
191,323,130920,1,10,0:0:0:0:
231,309,131037,1,2,3:2:0:0:
93,342,131272,6,0,P|67:308|64:297,1,50,10|0,0:0|0:0,0:0:0:0:
104,140,131506,2,0,B|129:111|173:119|210:223|100:249|52:207,1,225.000008583069,2|8,3:2|0:0,0:0:0:0:
5,159,131975,5,2,3:2:0:0:
5,159,132209,2,0,P|36:177|58:221,1,75.0000028610231,10|0,0:0|0:0,0:0:0:0:
167,288,132444,6,0,L|186:204,1,75.0000028610231,6|0,3:2|0:0,0:0:0:0:
254,83,132678,2,0,L|294:48,1,50,10|10,0:0|0:0,0:0:0:0:
273,229,132912,6,0,L|237:146,1,75.0000028610231,2|0,3:2|0:0,0:0:0:0:
191,26,133147,2,0,L|142:3,1,50,10|0,0:0|0:0,0:0:0:0:
361,93,133381,5,6,3:2:0:0:
277,233,133733,1,8,0:0:0:0:
277,233,133850,2,0,B|299:233|327:213|327:213|314:247|300:236|300:236|505:292,1,300,6|0,3:2|0:0,0:0:0:0:
486,381,134319,5,6,3:2:0:0:
449,202,134553,1,10,0:0:0:0:
407,205,134670,1,10,0:0:0:0:
392,244,134787,1,2,3:2:0:0:
424,128,135022,5,10,0:0:0:0:
340,340,135256,1,2,3:2:0:0:
188,207,135490,2,0,P|243:185|304:250,2,150.000005722046,10|2|10,0:0|3:2|0:0,0:0:0:0:
112,333,136194,6,0,P|148:300|189:289,1,75.0000028610231,6|0,3:2|0:0,0:0:0:0:
52,229,136428,2,0,P|27:207|18:181,1,50,10|10,0:0|0:0,0:0:0:0:
188,207,136662,6,0,P|233:228|252:252,1,75.0000028610231,2|0,3:2|0:0,0:0:0:0:
88,133,136897,2,0,P|90:104|109:80,1,50,10|0,0:0|0:0,0:0:0:0:
177,24,137131,5,6,3:2:0:0:
177,24,137600,6,0,B|209:40|209:40|214:19|214:19|237:47|237:47|250:33,1,112.500004291535,4|0,0:0|0:0,0:0:0:0:
250,33,138069,6,0,B|221:56|221:56|186:-5|186:-5|168:32|168:32|28:6,1,262.500002503395,6|8,3:2|0:0,0:0:0:0:
0,63,138537,1,2,3:2:0:0:
44,286,138772,1,10,0:0:0:0:
212,151,139006,1,2,3:2:0:0:
140,130,139358,5,8,0:0:0:0:
140,130,139475,1,2,3:2:0:0:
239,329,139709,1,8,0:0:0:0:
349,164,139944,6,0,P|402:185|406:224,1,87.500000834465,6|0,3:2|0:0,0:0:0:0:
418,289,140178,1,2,0:0:0:0:
281,240,140412,2,0,P|299:278|340:286,1,87.500000834465,2|0,3:2|0:0,0:0:0:0:
452,325,140647,2,0,L|418:289,1,50,10|0,0:0|0:0,0:0:0:0:
254,149,140881,5,6,3:2:0:0:
477,107,141233,5,8,0:0:0:0:
477,107,141350,2,0,B|480:127|480:127|456:136|456:136|469:141|469:141|453:197,1,112.500004291535,6|0,3:2|0:0,0:0:0:0:
455,192,141819,6,0,B|424:166|424:166|440:130|440:130|423:141|423:141|334:-12,1,262.500002503395,6|8,3:2|0:0,0:0:0:0:
263,0,142287,1,2,3:2:0:0:
185,221,142522,1,10,0:0:0:0:
34,52,142756,1,2,3:2:0:0:
114,21,143108,5,8,0:0:0:0:
114,21,143225,2,0,P|127:71|131:80,1,50,2|0,3:2|0:0,0:0:0:0:
37,55,143459,1,8,0:0:0:0:
29,269,143694,6,0,B|117:220,1,87.500000834465,6|0,3:2|0:0,0:0:0:0:
185,221,143928,1,2,0:0:0:0:
126,69,144162,2,0,B|150:167,1,87.500000834465,2|0,3:2|0:0,0:0:0:0:
220,247,144397,2,0,L|177:215,1,43.7500004172325,10|0,0:0|0:0,0:0:0:0:
0,109,144631,5,6,3:2:0:0:
92,306,144983,5,8,0:0:0:0:
92,306,145100,2,0,B|79:297|79:297|77:328|77:328|59:318|59:318|5:337|5:337,1,112.500004291535,4|0,3:2|0:0,0:0:0:0:
16,332,145569,6,0,B|41:312|41:312|50:361|50:361|73:338|73:338|238:364|238:364,1,262.500002503395,6|8,3:2|0:0,0:0:0:0:
296,369,146037,1,2,3:2:0:0:
133,195,146272,1,10,0:0:0:0:
378,144,146506,1,2,3:2:0:0:
332,84,146858,5,8,0:0:0:0:
332,84,146975,1,2,3:2:0:0:
510,0,147209,1,8,0:0:0:0:
511,97,147444,6,0,P|491:134|452:154,1,87.500000834465,6|0,3:2|0:0,0:0:0:0:
316,176,147678,1,2,0:0:0:0:
413,0,147912,2,0,P|374:19|353:57,1,87.500000834465,2|0,3:2|0:0,0:0:0:0:
283,205,148147,2,0,L|315:175,1,43.7500004172325,10|0,0:0|0:0,0:0:0:0:
434,79,148381,5,6,3:2:0:0:
421,302,148733,5,8,0:0:0:0:
421,302,148850,2,0,B|440:295|440:295|464:325|464:325|481:306|481:306|522:321,1,112.500004291535,6|0,3:2|0:0,0:0:0:0:
507,316,149319,6,0,B|479:291|479:291|450:357|450:357|430:307|430:307|301:331,1,262.500002503395,6|8,3:2|0:0,0:0:0:0:
266,367,149787,1,2,3:2:0:0:
159,191,150022,1,10,0:0:0:0:
338,81,150256,1,2,3:2:0:0:
256,74,150608,5,8,0:0:0:0:
256,74,150725,2,0,P|269:32|270:9,1,50,2|0,3:2|0:0,0:0:0:0:
341,85,150959,1,8,0:0:0:0:
57,45,151194,5,6,3:2:0:0:
387,256,152131,6,0,P|418:230|452:222,1,75.0000028610231,6|0,3:2|0:0,0:0:0:0:
256,348,152600,6,0,L|252:324,8,25,4|0|0|0|0|0|0|0|6,0:0|0:0|0:0|0:0|0:0|0:0|0:0|0:0|0:0,0:0:0:0:
