osu file format v14

[General]
AudioFilename: audio.mp3
AudioLeadIn: 0
PreviewTime: 51829
Countdown: 0
SampleSet: Soft
StackLeniency: 0.7
Mode: 0
LetterboxInBreaks: 0
WidescreenStoryboard: 1

[Editor]
DistanceSpacing: 1.4
BeatDivisor: 4
GridSize: 4
TimelineZoom: 1.8

[Metadata]
Title:Roller
TitleUnicode:Roller
Artist:Apache 207
ArtistUnicode:Apache 207
Creator:AnimeStyle
Version:bluirre's Hyper
Source:
Tags:german rap hip-hop deutsch 2019 ep platte jamesjan3 bluirre brrm vroom lucry suena scooter vespa hip hop
BeatmapID:3508043
BeatmapSetID:1590679

[Difficulty]
HPDrainRate:5
CircleSize:4
OverallDifficulty:7
ApproachRate:8.5
SliderMultiplier:1.8
SliderTickRate:1

[Events]
//Background and Video events
0,0,"BG.jpg",0,0
Video,0,"vid.mp4"
//Break Periods
2,82966,91809
//Storyboard Layer 0 (Background)
//Storyboard Layer 1 (Fail)
//Storyboard Layer 2 (Pass)
//Storyboard Layer 3 (Foreground)
//Storyboard Layer 4 (Overlay)
//Storyboard Sound Samples

[TimingPoints]
267,468.75,4,2,1,50,1,0
267,-142.857142857143,4,2,1,50,0,0
7767,-125,4,2,1,60,0,0
15267,-111.111111111111,4,2,1,60,0,0
21711,-111.111111111111,4,2,1,60,0,0
21829,-30.8551111873938,4,2,1,60,0,0
22767,-100,4,2,1,50,0,0
37767,-117.647058823529,4,2,1,45,0,0
39290,-117.647058823529,4,2,1,45,0,0
39407,-117.647058823529,4,2,1,45,0,0
39524,-117.647058823529,4,2,1,45,0,0
39642,-117.647058823529,4,2,1,45,0,0
42336,-117.647058823529,4,2,1,45,0,0
42454,-117.647058823529,4,2,1,45,0,0
42571,-117.647058823529,4,2,1,45,0,0
42688,-117.647058823529,4,2,1,45,0,0
43274,-117.647058823529,4,2,1,45,0,0
43392,-117.647058823529,4,2,1,45,0,0
45267,-142.857142857143,4,2,1,35,0,0
49017,-117.647058823529,4,2,1,40,0,0
49485,-133.333333333333,4,2,1,40,0,0
49954,-153.846153846154,4,2,1,40,0,0
50423,-181.818181818182,4,2,1,40,0,0
50892,-222.222222222222,4,2,1,40,0,0
51829,-107.907872806848,4,2,1,50,0,0
52767,-80,4,2,1,60,0,1
55579,-117.647058823529,4,2,1,60,0,1
56048,-53.8961800080149,4,2,1,60,0,1
56517,-80,4,2,1,60,0,1
59329,-117.647058823529,4,2,1,60,0,1
59798,-53.7376417564328,4,2,1,60,0,1
60267,-80,4,2,1,60,0,1
63079,-117.647058823529,4,2,1,60,0,1
63548,-53.85024094626,4,2,1,60,0,1
64017,-80,4,2,1,60,0,1
66360,-66.6666666666667,4,2,1,60,0,1
66829,-117.647058823529,4,2,1,60,0,1
67298,-54.0269256070086,4,2,1,60,0,1
67767,-40.249994963442,4,2,1,50,0,0
68235,-80,4,2,1,50,0,0
70579,-117.647058823529,4,2,1,50,0,0
71048,-54.0026931901113,4,2,1,50,0,0
71517,-53.8843796656267,4,2,1,50,0,0
71985,-80,4,2,1,50,0,0
74329,-117.647058823529,4,2,1,50,0,0
74798,-53.7675212851697,4,2,1,50,0,0
75267,-53.8502409462601,4,2,1,50,0,0
75735,-80,4,2,1,50,0,0
78079,-117.647058823529,4,2,1,50,0,0
78548,-53.7675212851697,4,2,1,50,0,0
79017,-53.7675212851694,4,2,1,50,0,0
79485,-80,4,2,1,50,0,0
80892,-111.111111111111,4,2,1,50,0,0
81829,-89.7063401113566,4,2,1,50,0,0
82298,-111.111111111111,4,2,1,40,0,0
82767,-1000,4,2,1,30,0,0
92484,468.75,4,2,1,50,1,0
92601,468.75,4,2,1,50,1,0
93069,468.75,4,2,1,50,1,0
107600,-100,4,2,1,5,0,0
108069,-100,4,2,1,50,0,0
115569,-142.857142857143,4,2,1,40,0,0
119319,-117.647058823529,4,2,1,40,0,0
120490,-117.647058823529,4,2,1,40,0,0
120608,-117.647058823529,4,2,1,40,0,0
121428,-117.647058823529,4,2,1,40,0,0
121662,-117.647058823529,4,2,1,40,0,0
122131,-106.633570858033,4,2,1,50,0,0
123069,-80,4,2,1,60,0,1
124007,-80,4,2,1,60,0,1
125881,-117.647058823529,4,2,1,60,0,1
126350,-53.3265805986949,4,2,1,60,0,1
126819,-80,4,2,1,60,0,1
127288,-80,4,2,1,60,0,1
129631,-117.647058823529,4,2,1,60,0,1
130100,-53.7438982747355,4,2,1,60,0,1
130569,-80,4,2,1,60,0,1
133381,-117.647058823529,4,2,1,60,0,1
133850,-53.8321543302848,4,2,1,60,0,1
134319,-80,4,2,1,60,0,1
137131,-120.481927710843,4,2,1,60,0,1
137600,-53.7789030803797,4,2,1,60,0,1
138069,-53.7789030806269,4,2,1,50,0,0
138537,-80,4,2,1,50,0,0
140412,-80,4,2,1,50,0,0
140881,-117.647058823529,4,2,1,50,0,0
141350,-53.8417783548177,4,2,1,50,0,0
141819,-53.7808616975149,4,2,1,50,0,0
142287,-80,4,2,1,50,0,0
144631,-117.647058823529,4,2,1,50,0,0
145100,-53.8316675500602,4,2,1,50,0,0
145569,-53.7143642261519,4,2,1,50,0,0
146037,-80,4,2,1,50,0,0
148381,-117.647058823529,4,2,1,50,0,0
148850,-53.7843000356394,4,2,1,50,0,0
149319,-53.8545609973539,4,2,1,50,0,0
149787,-80,4,2,1,50,0,0
151194,-80,4,2,1,50,0,0
152131,-117.647058823529,4,2,1,50,0,0
152600,-46.6612954099313,4,2,1,50,0,0
153537,-80,4,2,1,50,0,0
154944,-111.111111111111,4,2,1,45,0,0
156350,-111.111111111111,4,2,1,40,0,0
156819,-1000,4,2,1,40,0,0
158694,-1000,4,2,1,35,0,0
160100,-1000,4,2,1,30,0,0

[Colours]
Combo1 : 0,0,213
Combo2 : 255,0,128
Combo3 : 0,92,185
Combo4 : 211,211,211

[HitObjects]
62,383,267,6,0,P|18:375|-24:370,2,62.9999980773926,6|2|2,0:0|0:0|0:0,0:0:0:0:
145,312,970,1,2,0:0:0:0:
45,273,1204,2,0,P|48:350|94:393,1,125.999996154785,2|0,0:0|0:0,0:0:0:0:
62,1,2142,6,0,P|18:8|-24:13,2,62.9999980773926,6|2|2,0:0|0:0|0:0,0:0:0:0:
145,72,2845,1,2,0:0:0:0:
227,1,3079,2,0,P|270:8|313:13,2,62.9999980773926,6|2|2,0:0|0:0|0:0,0:0:0:0:
145,72,3782,1,2,0:0:0:0:
62,1,4017,6,0,P|18:8|-24:13,2,62.9999980773926,6|2|2,0:0|0:0|0:0,0:0:0:0:
145,72,4720,1,2,0:0:0:0:
45,111,4954,2,0,P|48:33|94:-9,1,125.999996154785,2|0,0:0|0:0,0:0:0:0:
450,1,5892,6,0,P|493:8|536:13,2,62.9999980773926,6|2|2,0:0|0:0|0:0,0:0:0:0:
367,72,6595,1,2,0:0:0:0:
463,111,6829,2,0,B|458:79|470:53|470:53|445:31|433:0,1,125.999996154785,6|0,0:0|0:0,0:0:0:0:
316,12,7532,1,2,0:0:0:0:
316,12,7649,1,2,0:0:0:0:
316,12,7767,6,0,P|269:4|222:-1,1,72,6|2,0:0|0:0,0:0:0:0:
215,96,8118,2,0,P|262:88|309:83,1,72,2|0,0:0|0:0,0:0:0:0:
367,72,8470,1,2,0:0:0:0:
275,269,8938,2,0,P|277:324|304:359,2,72,2|2|2,0:0|0:0|0:0,0:0:0:0:
423,304,9642,6,0,L|339:292,1,72,6|2,0:0|0:0,0:0:0:0:
284,338,10110,2,0,L|252:259,1,72,2|2,0:0|0:0,0:0:0:0:
183,245,10579,2,0,L|235:178,1,72,6|2,0:0|0:0,0:0:0:0:
223,107,11047,2,0,L|306:118,1,72,2|2,0:0|0:0,0:0:0:0:
150,42,11517,6,0,P|142:89|137:136,1,72,6|2,0:0|0:0,0:0:0:0:
233,178,11868,2,0,P|225:131|220:84,1,72,2|0,0:0|0:0,0:0:0:0:
229,25,12220,1,2,0:0:0:0:
69,61,12688,2,0,P|58:116|74:157,2,72,2|2|2,0:0|0:0|0:0,0:0:0:0:
117,187,13392,6,0,L|201:199,1,72,6|2,0:0|0:0,0:0:0:0:
256,153,13860,2,0,L|288:232,1,72,2|2,0:0|0:0,0:0:0:0:
357,246,14329,2,0,L|305:313,1,72,6|2,0:0|0:0,0:0:0:0:
316,383,14797,2,0,L|233:372,1,72,2|2,0:0|0:0,0:0:0:0:
167,349,15267,6,0,P|165:269|161:189,2,121.499996292114,6|10|10,3:2|0:0|0:0,0:0:0:0:
89,344,16204,1,2,0:0:0:0:
18,236,16438,2,0,P|16:276|12:316,2,80.9999975280763,2|2|10,0:0|3:2|0:0,0:0:0:0:
37,88,17142,6,0,P|39:139|69:168,2,80.9999975280763,6|2|2,0:0|0:0|0:0,0:0:0:0:
117,81,17845,1,10,0:0:0:0:
182,41,18079,2,0,P|222:39|262:36,1,80.9999975280763,6|2,0:0|0:0,0:0:0:0:
327,79,18548,2,0,P|367:80|407:83,1,80.9999975280763,2|10,3:2|0:0,0:0:0:0:
487,95,19017,6,0,P|485:174|481:254,2,121.499996292114,6|10|10,0:0|0:0|0:0,0:0:0:0:
448,22,19954,2,0,P|400:25|353:26,1,80.9999975280763,2|2,0:0|0:0,0:0:0:0:
281,6,20423,1,2,3:2:0:0:
261,133,20657,6,0,B|253:98|302:27|407:71|374:205|286:238|224:124|158:104|116:198,1,364.499988876343,10|0,0:0|0:0,0:0:0:0:
125,241,21829,6,0,B|125:239|125:239|125:241|125:241|128:241|128:241|128:243|128:243|128:241|128:241|131:241|131:241|131:240|131:240|131:241|131:241|133:241|134:241|134:241|134:243|134:243|134:241|134:241|137:241|137:241|137:239|137:239|137:241|137:241|140:241|140:241|140:243|140:243|140:241|140:241|143:240|143:240|143:239|143:239|143:240|143:240|146:240|146:240|146:242|146:242|146:240|146:240|148:240|149:239|149:239|149:237|149:237|149:239|149:239|152:238|152:238|152:240|152:240|152:238|152:238|153:238|155:237|155:237|154:236|154:236|155:237|155:237|158:236|158:236|158:238|158:238|158:236|158:236|161:235|161:235|160:234|160:234|161:235|161:235|162:235|163:234|163:234|164:235|164:235|163:234|163:234|166:232|166:232|165:231|165:231|166:232|166:232|167:232|169:231|169:231|169:232|169:232|169:231|169:231|171:229|171:229|170:228|170:228|171:229|171:229|174:227|174:227|175:229|175:229|174:227|174:227|175:227|176:226|176:226|175:224|175:224|176:226|176:226|178:224|178:224|179:225|179:225|178:224|178:224|179:223|180:222|180:222|179:220|179:220|180:222|180:222|183:219|183:219|184:221|184:221|183:219|183:219|185:217|185:217|183:216|183:216|185:217|185:217|186:216|186:215|186:215|188:216|188:216|186:215|186:215|188:212|188:212|187:211|187:211|188:212|188:212|189:211|190:210|190:210|191:211|191:211|190:210|190:210|192:207|192:207|190:206|190:206|192:207|192:207|193:205|193:205|195:206|195:206|193:205|193:205|194:202|194:202|193:201|193:201|194:202|194:202|196:199|196:199|197:200|197:200|196:199|196:199|196:198|197:196|197:196|195:196|195:196|197:196|197:196|198:194|198:194|200:194|200:194|198:194|198:194|199:191|199:191|197:190|197:190|199:191|199:191|199:188|199:188|201:188|201:188|199:188|199:188|200:185|200:185|198:184|198:184|200:185|200:185|200:183|201:182|201:182|202:182|202:182|201:182|201:182|201:179|201:179|199:179|199:179|201:179|201:179|201:176|201:176|203:176|203:176|201:176|201:176|201:173|201:173|200:173|200:173|201:173|201:173|201:170|201:170|203:170|203:170|201:170|201:170|201:168|201:167|201:167|199:167|199:167|201:167|201:167|201:164|201:164|203:163|203:163|201:164|201:164|200:161|200:161|199:161|199:161|200:161|200:161|200:158|200:158|202:157|202:157|200:158|200:158|199:155|199:155|198:155|198:155|199:155|199:155|199:153|198:152|198:152|200:151|200:151|198:152|198:152|197:149|197:149|196:150|196:150|197:149|197:149|197:148|196:146|196:146|198:146|198:146|196:146|196:146|195:143|195:143|194:144|194:144|195:143|195:143|194:141|194:141|196:140|196:140|194:141|194:141|193:139|193:138|193:138|191:139|191:139|193:138|193:138|191:135|191:135|192:134|192:134|191:135|191:135|190:134|189:133|189:133|188:134|188:134|189:133|189:133|188:130|188:130|189:129|189:129|188:130|188:130|186:128|186:128|184:129|184:129|186:128|186:128|185:127|184:126|184:126|185:125|185:125|184:126|184:126|182:123|182:123|180:125|180:125|182:123|182:123|181:122|180:121|180:121|181:120|181:120|180:121|180:121|177:119|177:119|176:121|176:121|177:119|177:119|175:117|175:117|176:116|176:116|175:117|175:117|174:117|173:116|173:116|172:117|172:117|173:116|173:116|170:114|170:114|171:112|171:112|170:114|170:114|169:113|168:112|168:112|167:114|167:114|168:112|168:112|165:111|165:111|166:109|166:109|165:111|165:111|162:109|162:109|162:111|162:111|162:109|162:109|160:108|160:108|160:107|160:107|160:108|160:108|157:107|157:107|156:109|156:109|157:107|157:107|155:106|154:106|154:106|154:104|154:104|154:106|154:106|151:105|151:105|151:107|151:107|151:105|151:105|148:104|148:104|149:103|149:103|148:104|148:104|145:104|145:104|145:105|145:105|145:104|145:104|142:103|142:103|142:101|142:101|142:103|142:103|141:103|139:103|139:103|139:105|139:105|139:103|139:103|136:103|136:103|136:101|136:101|136:103|136:103|133:102|133:102|133:104|133:104|133:102|133:102|130:102|130:102|130:101|130:101|130:102|130:102|127:103|127:103|127:104|127:104|127:103|127:103|126:103|124:103|124:103|124:101|124:101|124:103|124:103|121:103|121:103|121:105|121:105|121:103|121:103|118:104|118:104|118:102|118:102|118:104|118:104|115:104|115:104|116:106|116:106|115:104|115:104|112:105|112:105|112:104|112:104|112:105|112:105|111:106|109:106|109:106|110:108|110:108|109:106|109:106|107:107|107:107|106:106|106:106|107:107|107:107|104:108|104:108|105:110|105:110|104:108|104:108|101:110|101:110|100:108|100:108|101:110|101:110|98:111|98:111|99:112|99:112|98:111|98:111|97:112|96:112|96:112|95:111|95:111|96:112|96:112|93:114|93:114|94:116|94:116|93:114|93:114|92:115|91:116|91:116|90:114|90:114|91:116|91:116|88:118|88:118|90:119|90:119|88:118|88:118|86:120|86:120|85:118|85:118|86:120|86:120|85:121|84:122|84:122|85:123|85:123|84:122|84:122|82:124|82:124|81:123|81:123|82:124|82:124|81:125|80:126|80:126|81:127|81:127|80:126|80:126|78:128|78:128|76:127|76:127|78:128|78:128|76:131|76:131|77:132|77:132|76:131|76:131|75:132|74:133|74:133|73:132|73:132|74:133|74:133|73:136|73:136|74:137|74:137|73:136|73:136|72:137|71:138|71:138|70:137|70:137|71:138|71:138|70:141|70:141|71:142|71:142|70:141|70:141|68:144|68:144|67:143|67:143|68:144|68:144|68:145|67:146|67:146|69:147|69:147|67:146|67:146|66:149|66:149|65:149|65:149|66:149|66:149|66:151|65:152|65:152|67:153|67:153|65:152|65:152|65:155|65:155|63:155|63:155|65:155|65:155|64:158|64:158|66:158|66:158|64:158|64:158|64:159|63:161|63:161|62:161|62:161|63:161|63:161|63:164|63:164|65:164|65:164|63:164|63:164|63:165|63:167|63:167|61:167|61:167|63:167|63:167|62:170|62:170|64:170|64:170|62:170|62:170|62:173|62:173|61:173|61:173|62:173|62:173|62:174|63:176|63:176|64:176|64:176|63:176|63:176|63:179|63:179|61:179|61:179|63:179|63:179|63:180|63:182|63:182|65:182|65:182|63:182|63:182|64:185|64:185|62:185|62:185|64:185|64:185|64:188|64:188|66:187|66:187|64:188|64:188|65:191|65:191|63:191|63:191|65:191|65:191|66:194|66:194|68:193|68:193|66:194|66:194|66:195|67:196|67:196|65:197|65:197|67:196|67:196|68:199|68:199|70:198|70:198|68:199|68:199|69:202|69:202|68:203|68:203|69:202|69:202|71:205|71:205|72:204|72:204|71:205|71:205|72:207|72:207|71:208|71:208|72:207|72:207|73:208|74:210|74:210|75:209|75:209|74:210|74:210|75:212|75:212|74:213|74:213|75:212|75:212|77:215|77:215|79:214|79:214|77:215|77:215|79:217|79:217|78:218|78:218|79:217|79:217|81:219|81:219|82:218|82:218|81:219|81:219|82:220|83:221|83:221|82:223|82:223|83:221|83:221|85:223|85:223|87:222|87:222|85:223|85:223|88:225|88:225|86:227|86:227|88:225|88:225|90:227|90:227|91:226|91:226|90:227|90:227|91:228|92:229|92:229|91:230|91:230|92:229|92:229|94:230|95:231|95:231|96:229|96:229|95:231|95:231|96:231,1,875.057648179842,6|2,0:0|0:0,0:0:0:0:
427,212,22767,6,0,P|410:280|419:332,1,90,6|2,3:2|0:0,0:0:0:0:
412,320,23118,2,0,P|385:356|309:302,1,135,10|10,0:0|0:0,0:0:0:0:
182,362,23704,2,0,P|243:350|337:318,1,135,0|10,3:2|0:0,0:0:0:0:
333,249,24173,2,0,P|346:187|365:124,1,90,2|10,3:2|0:0,0:0:0:0:
474,152,24642,6,0,P|431:155|390:156,1,45,6|0,3:2|0:0,0:0:0:0:
352,150,24876,1,2,0:0:0:0:
491,59,25110,2,0,P|448:62|407:63,1,45,2|0,3:2|0:0,0:0:0:0:
369,57,25344,1,10,0:0:0:0:
172,77,25579,2,0,P|214:80|255:81,1,45,6|0,3:2|0:0,0:0:0:0:
294,75,25813,1,2,0:0:0:0:
151,2,26047,2,0,P|193:5|234:6,1,45,2|0,3:2|0:0,0:0:0:0:
273,0,26281,1,10,0:0:0:0:
183,176,26517,6,0,P|134:159|59:140,1,90,6|2,3:2|0:0,0:0:0:0:
70,225,26869,1,10,0:0:0:0:
70,225,26986,2,0,P|118:241|193:260,1,90,2|10,3:2|0:0,0:0:0:0:
235,241,27454,1,0,3:2:0:0:
296,291,27688,2,0,P|294:352|291:414,2,90,2|2|10,0:0|3:2|0:0,0:0:0:0:
378,339,28392,6,0,P|374:296|373:255,1,45,6|0,3:2|0:0,0:0:0:0:
380,217,28626,1,2,0:0:0:0:
453,360,28860,2,0,P|449:317|448:276,1,45,2|0,3:2|0:0,0:0:0:0:
455,238,29094,1,10,0:0:0:0:
435,41,29329,2,0,P|431:83|430:124,1,45,6|0,3:2|0:0,0:0:0:0:
437,163,29563,1,2,0:0:0:0:
510,20,29797,2,0,P|506:62|505:103,1,45,2|0,3:2|0:0,0:0:0:0:
512,142,30031,1,10,0:0:0:0:
337,215,30267,6,0,P|353:166|372:91,1,90,6|2,3:2|0:0,0:0:0:0:
288,102,30619,1,10,0:0:0:0:
288,102,30736,2,0,P|271:150|252:225,1,90,2|10,3:2|2:2,0:0:0:0:
235,276,31204,2,0,P|196:254|175:215,2,90,0|2|2,3:2|0:0|3:2,0:0:0:0:
325,247,31907,1,10,0:0:0:0:
291,89,32142,6,0,P|248:92|207:93,1,45,6|0,3:2|0:0,0:0:0:0:
169,87,32376,1,2,0:0:0:0:
14,22,32610,2,0,P|57:25|98:26,1,45,2|0,3:2|0:0,0:0:0:0:
136,20,32844,1,10,0:0:0:0:
285,166,33079,2,0,P|242:163|201:162,1,45,6|0,3:2|0:0,0:0:0:0:
163,168,33313,1,2,0:0:0:0:
8,233,33547,2,0,P|51:230|92:229,1,45,2|0,3:2|0:0,0:0:0:0:
130,235,33781,1,10,0:0:0:0:
194,344,34017,6,0,P|245:352|322:357,1,90,6|2,3:2|0:0,0:0:0:0:
296,277,34369,1,10,0:0:0:0:
296,277,34486,2,0,P|245:269|168:263,1,90,2|10,3:2|0:0,0:0:0:0:
365,331,34954,1,0,3:2:0:0:
294,191,35188,2,0,P|326:196|376:199,1,45,2|10,0:0|0:0,0:0:0:0:
378,127,35423,2,0,P|410:132|460:135,1,45,2|0,3:2|0:0,0:0:0:0:
503,67,35657,6,0,P|457:61|412:53,1,90,10|4,0:0|3:2,0:0:0:0:
232,26,36243,1,10,0:0:0:0:
232,26,36360,2,0,P|215:74|196:149,1,90,2|2,3:2|0:0,0:0:0:0:
179,212,36829,2,0,P|163:120|140:35,1,180,4|0,3:2|3:2,0:0:0:0:
73,371,37767,6,0,P|79:328|83:263,1,76.5000014591217,4|2,3:2|0:0,0:0:0:0:
10,288,38119,1,10,0:0:0:0:
10,288,38236,2,0,P|2:330|-1:394,1,76.5000014591217,2|10,3:2|0:0,0:0:0:0:
159,378,38704,2,0,L|153:313,1,38.2500007295609,2|2,3:2|0:0,0:0:0:0:
228,322,38938,2,0,L|222:257,1,38.2500007295609,2|10,0:0|0:0,0:0:0:0:
305,368,39173,2,0,L|299:303,1,38.2500007295609,2|2,3:2|0:0,0:0:0:0:
374,312,39407,2,0,L|368:247,1,38.2500007295609,10|2,0:0|0:0,0:0:0:0:
363,197,39642,6,0,P|321:189|257:186,1,76.5000014591217,6|2,3:2|0:0,0:0:0:0:
512,164,40110,2,0,P|470:172|406:175,1,76.5000014591217,2|10,3:2|0:0,0:0:0:0:
297,96,40579,2,0,P|339:104|403:107,1,76.5000014591217,6|2,3:2|0:0,0:0:0:0:
148,129,41047,2,0,P|190:121|254:118,1,76.5000014591217,2|10,3:2|0:0,0:0:0:0:
80,92,41517,5,4,3:2:0:0:
11,187,41751,1,2,0:0:0:0:
11,187,41868,1,10,0:0:0:0:
11,187,41985,2,0,L|5:252,1,38.2500007295609,2|2,3:2|0:0,0:0:0:0:
80,243,42219,2,0,L|74:308,1,38.2500007295609,10|2,0:0|0:0,0:0:0:0:
157,197,42454,2,0,L|151:262,1,38.2500007295609,2|2,3:2|0:0,0:0:0:0:
226,253,42688,2,0,L|220:318,1,38.2500007295609,2|10,0:0|0:0,0:0:0:0:
297,220,42923,2,0,L|300:181,1,38.2500007295609,2|2,3:2|0:0,0:0:0:0:
371,144,43157,2,0,L|374:105,1,38.2500007295609,10|2,0:0|0:0,0:0:0:0:
446,41,43392,5,6,3:2:0:0:
464,117,43626,1,2,0:0:0:0:
480,190,43860,2,0,P|472:228|469:266,1,76.5000014591217,2|10,3:2|0:0,0:0:0:0:
469,345,44329,2,0,P|431:352|393:355,1,76.5000014591217,6|2,3:2|0:0,0:0:0:0:
320,378,44798,2,0,P|282:370|244:367,1,76.5000014591217,2|10,3:2|0:0,0:0:0:0:
168,378,45267,5,6,0:0:0:0:
242,353,45501,2,0,L|249:268,2,62.9999980773926,2|2|2,0:0|0:0|0:0,0:0:0:0:
141,284,46204,2,0,P|171:254|189:214,1,62.9999980773926,2|2,0:0|0:0,0:0:0:0:
313,215,46673,2,0,P|282:185|264:145,1,62.9999980773926,2|2,3:2|3:2,0:0:0:0:
101,198,47142,6,0,P|60:186|16:190,2,62.9999980773926,6|2|2,3:2|0:0|0:0,0:0:0:0:
181,237,47845,1,2,3:2:0:0:
136,119,48079,2,0,P|165:88|205:70,2,62.9999980773926,6|2|2,3:2|0:0|0:0,0:0:0:0:
101,198,48782,1,2,3:2:0:0:
254,16,49017,6,0,P|269:54|276:98,1,76.5000014591217,6|2,3:2|0:0,0:0:0:0:
345,119,49485,6,0,P|330:157|323:201,1,67.5000025749208,2|10,3:2|0:0,0:0:0:0:
234,178,49954,6,0,P|249:216|256:260,1,58.4999973220826,2|2,0:0|0:0,0:0:0:0:
356,258,50423,6,0,P|324:283|306:303,1,49.5000015106202,2|10,3:2|0:0,0:0:0:0:
202,310,50892,6,0,P|220:325|237:345,1,40.4999987640381,6|2,3:2|0:0,0:0:0:0:
93,298,51360,5,2,0:0:0:0:
88,189,51595,1,10,0:0:0:0:
30,15,51829,6,0,B|32:15|32:15|32:17|32:17|33:19|33:19|33:21|33:21|35:21|35:21|37:23|37:23|39:23|39:23|39:25|39:25|40:26|40:26|40:28|40:28|42:29|42:29|43:30|43:30|45:30|45:30|45:32|45:32|46:34|46:34|46:36|46:36|48:36|48:36|50:38|50:38|52:38|52:38|52:40|52:40|53:41|53:41|53:44|53:44|55:44|55:44|56:45|56:45|58:45|58:45|58:47|58:47|59:49|59:49|59:51|59:51|61:51|61:51|63:53|63:53|64:51|64:51|66:52|66:52|67:52|67:52|69:53|69:53|70:51|70:51|72:50|72:50|73:48|73:48|75:49|75:49|77:49|77:49|79:50|79:50|80:48|80:48|82:47|82:47|83:45|83:45|85:46|85:46|87:46|87:46|88:47|88:47|89:45|89:45|91:44|91:44|92:42|92:42|94:43|94:43|96:43|96:43|98:44|98:44|99:42|99:42|101:41|101:41|102:39|102:39|104:40|104:40|106:40|106:40|108:41|108:41|109:39|109:39|110:38|110:38|111:36|111:36|113:37|113:37|115:37|115:37|117:38|117:38|118:36|118:36|120:35|120:35|121:33|121:33|123:34|123:34|125:34|125:34|127:35|127:35|128:33|128:33|129:32|129:32|130:30|130:30|132:31|132:31|134:31|134:31|136:32|136:32|137:30|137:30|139:29|139:29|140:27|140:27|142:28|142:28|144:28|144:28|146:29|146:29|147:27|147:27|149:26|149:26|150:24|150:24|151:25|151:25|153:25|153:25|155:26|155:26|156:24|156:24|158:23|158:23|159:21|159:21|161:22|161:22|163:22|163:22|165:23|165:23|166:21|166:21|168:20|168:20|169:18|169:18|171:19|171:19|172:19|172:19|174:20|174:20|175:18|175:18|177:17|177:17|178:15|178:15|180:16|180:16|182:16|182:16|184:17|184:17|185:15|185:15|187:14|187:14|188:13|188:13|189:14|189:14|191:13|191:13|191:15|191:15|193:16|193:16|195:17|195:17|197:17|197:17|197:19|197:19|198:21|198:21|198:23|198:23|200:23|200:23|201:25|201:25|203:25|203:25|203:27|203:27|205:28|205:28|205:30|205:30|207:31|207:31|208:32|208:32|210:32|210:32|209:34|209:34|211:36|211:36|211:38|211:38|213:38|213:38|215:40|215:40|217:40|217:40|217:42|217:42|218:43|218:43|218:45|218:45|220:45|220:45|222:47|222:47|224:47|224:47|224:49|224:49|225:50|225:50|225:52,1,291.915690507713,6|0,0:0|0:0,0:0:0:0:
304,59,52767,6,0,P|239:101|224:162,1,112.5,6|10,3:2|0:0,0:0:0:0:
245,238,53118,1,10,0:0:0:0:
245,238,53235,2,0,P|198:230|151:225,1,56.25,2|0,3:2|0:0,0:0:0:0:
69,300,53470,2,0,P|116:292|163:287,1,56.25,10|0,0:0|0:0,0:0:0:0:
292,368,53704,2,0,P|236:367|190:336,1,112.5,2|10,3:2|0:0,0:0:0:0:
334,205,54173,2,0,P|361:253|357:308,1,112.5,2|10,3:2|0:0,0:0:0:0:
421,166,54642,6,0,P|413:119|408:72,1,56.25,6|0,3:2|0:0,0:0:0:0:
507,15,54877,2,0,P|499:62|494:109,1,56.25,10|10,0:0|0:0,0:0:0:0:
500,153,55110,1,2,3:2:0:0:
407,32,55345,1,10,0:0:0:0:
352,239,55579,2,0,P|290:248|243:205,1,114.750002188683,6|8,3:2|0:0,0:0:0:0:
155,216,56048,6,0,B|157:215|157:215|157:216|158:217|158:217|159:218|160:218|160:218|160:219|160:220|160:220|161:219|162:219|162:219|164:220|164:220|166:219|166:219|167:220|167:220|167:220|168:221|169:221|169:221|170:222|170:223|170:223|171:222|172:222|172:222|174:222|174:222|176:221|176:221|176:221|177:222|177:222|179:222|179:222|179:223|180:224|180:224|181:223|182:222|182:222|183:222|185:222|185:222|185:222|186:221|186:221|187:222|187:222|187:222|189:222|189:222|191:223|191:223|191:223|192:222|192:222|193:221|194:221|194:221|195:220|195:220|195:220|197:221|197:221|198:220|199:220|199:220|200:221|201:221|201:221|201:220|202:219|202:219|202:219|203:218|203:218|204:217|205:216|205:216|206:217|207:217|207:217|208:216|208:216|209:216|210:217|210:217|210:216|211:215|211:215|212:214|213:213|213:213|213:212|213:211|213:211|213:212|214:212|214:212|215:211|216:211|216:211|217:211|218:210|218:210|219:208|219:208|220:207|220:207|220:206|220:205|220:205|221:205|222:205|222:205|222:204|223:203|223:203|224:203|225:203|225:203|225:202|225:201|225:201|225:200|226:199|226:199|226:198|226:197|226:197|227:197|228:197|228:197|229:195|229:195|231:194|231:194|231:193|230:192|230:192|231:191|231:191|231:190|231:189|231:189|233:188|233:188|234:186|234:186|236:186|236:186|235:184|235:184|236:183|236:183|235:180|235:180|237:179|237:179|238:177|238:177|240:177|240:177|239:175|239:175|241:173|241:173|240:171|240:171|241:171|242:170|242:170|243:169|244:168|244:168|245:168|245:168|245:168|245:167|245:166|245:166|246:164|246:164|246:164|246:163|246:163|246:163|247:163|247:163|248:162|249:161|249:161|250:161|251:161|251:161|251:159|251:158|251:158|252:157|252:157|252:156|252:155|252:155|254:154|255:154|255:154|256:153|256:153|257:153|258:153|258:153|258:152|259:151|259:151|260:150|260:150|260:149|260:148|260:148|261:148|263:148|263:148|264:147|264:147|265:147|266:147|266:147|266:146|267:145|267:145|268:145|268:145|269:143|269:143|270:143|271:143|271:143|272:143|272:143|273:143|274:143|274:143|275:142|275:141|275:141|276:141|277:141|277:141|278:140|278:139|278:139|279:139|280:140|280:140|281:139|283:139|283:139|284:140|284:140|284:140|285:139|285:139|285:139|286:138|287:138|287:138|287:137|288:137|288:137|288:137|289:138|289:138|291:138|292:138|292:138|293:138|294:139|294:139|295:138|296:137|296:137|297:137|297:137|298:136|298:136|299:137|299:137|299:137|301:137|302:137|302:137|303:138|303:139|303:139|304:138|305:138|305:138|307:138|307:138|308:137|309:137|309:137|310:137|311:138|311:138|312:139|312:139|313:140|313:140|314:140|314:139|314:139|317:140|317:140|317:139|318:139|318:139|319:139|319:140,1,250.481583536654,6|0,3:2|0:0,0:0:0:0:
363,47,56517,6,0,P|316:55|269:60,1,56.25,6|0,3:2|0:0,0:0:0:0:
139,101,56752,2,0,P|186:108|233:113,1,56.25,10|10,0:0|0:0,0:0:0:0:
263,0,56985,1,2,3:2:0:0:
173,26,57220,1,10,0:0:0:0:
250,218,57454,2,0,P|318:253|394:200,1,168.75,2|8,3:2|0:0,0:0:0:0:
407,214,57922,2,0,P|423:258|442:301,1,56.25,2|0,3:2|0:0,0:0:0:0:
378,384,58157,2,0,P|361:339|342:296,1,56.25,10|0,0:0|0:0,0:0:0:0:
202,291,58392,6,0,P|155:283|108:278,1,56.25,6|0,3:2|0:0,0:0:0:0:
0,384,58627,2,0,P|47:376|94:371,1,56.25,10|10,0:0|0:0,0:0:0:0:
142,377,58860,1,2,3:2:0:0:
54,237,59095,1,10,0:0:0:0:
294,289,59329,2,0,P|281:227|225:198,1,114.750002188683,6|8,3:2|0:0,0:0:0:0:
203,129,59798,6,0,B|203:130|204:131|204:131|203:131|202:132|202:132|202:133|201:134|201:134|200:134|199:135|199:135|200:136|200:136|200:136|200:138|200:138|200:139|201:140|201:140|200:141|199:141|199:141|199:143|199:144|199:144|198:144|197:145|197:145|198:146|198:147|198:147|198:148|198:148|199:149|200:149|200:149|199:150|198:150|198:150|198:152|198:154|198:154|197:155|197:155|197:155|197:156|198:157|198:157|198:158|198:158|199:159|200:160|200:160|199:160|199:161|199:161|199:163|199:163|198:164|198:165|198:165|199:165|200:166|200:166|200:167|200:169|200:169|201:169|202:169|202:169|202:170|201:171|201:171|202:173|202:173|201:174|201:175|201:175|202:176|203:176|203:176|204:177|204:177|205:178|206:178|206:178|206:180|205:181|205:181|206:182|206:182|206:183|206:184|206:184|207:185|208:185|208:185|209:186|209:186|210:186|211:187|211:187|211:188|211:189|211:189|212:190|212:190|212:191|212:192|212:192|213:192|214:192|214:192|215:193|216:194|216:194|217:194|218:194|218:194|218:195|218:196|218:196|218:196|219:197|219:197|219:198|219:199|219:199|220:199|221:198|221:198|223:200|223:200|224:200|225:199|225:199|225:200|226:202|226:202|227:202|227:203|227:203|228:204|228:205|228:205|229:205|230:204|230:204|232:205|232:205|233:205|233:205|234:206|234:206|236:208|236:208|237:210|237:210|239:209|239:209|241:210|241:210|243:209|243:209|243:211|243:211|245:212|245:212|246:214|246:214|248:213|248:213|249:214|249:214|249:214|251:214|251:214|252:215|252:216|252:216|254:217|254:217|254:219|254:219|256:218|256:218|256:218|258:219|258:219|259:219|260:219|260:219|260:220|261:221|261:221|262:222|262:222|263:223|263:224|263:224|264:224|265:224|265:224|265:224|266:225|266:225|267:225|268:225|268:225|269:226|269:227|269:227|270:229|270:229|270:229|270:230|270:230|271:230|272:230|272:230|272:231|273:232|273:232|275:232|275:232|275:232|276:234|276:235|276:235|276:236|276:236|276:237|276:238|276:238|277:239|278:239|278:239|278:240|279:241|279:241|280:241|281:241|281:241|280:242|280:243|280:243|280:244|281:245|281:245|280:246|280:247|280:247|281:247|282:247|282:247|282:249|283:250|283:250|283:250|284:251|284:251|284:252|283:252|283:252|283:254|284:255|284:255|283:256|282:257|282:257|283:257|284:258|284:258|284:259|284:260|284:260|285:261|286:262|286:262|285:263|285:263|285:263|285:265|285:265|284:265|283:266|283:266|284:267|284:268|284:268|284:269|284:269|285:270|286:271|286:271|285:272|284:272|284:272|284:275|284:275|282:276|282:276|283:277|283:277|283:277|283:278|283:279|283:279|283:280|284:281|284:281|283:282|282:282|282:282|281:284|281:284|281:285|280:285|280:285|280:286|280:287|280:287|280:288|280:288|281:289|281:290|281:290|280:291|279:291,1,251.220561113813,4|0,3:2|0:0,0:0:0:0:
179,366,60267,2,0,P|226:358|273:353,1,56.25,6|0,3:2|0:0,0:0:0:0:
356,357,60502,1,10,0:0:0:0:
419,196,60735,2,0,P|372:188|325:183,1,56.25,2|0,3:2|0:0,0:0:0:0:
395,109,60970,1,10,0:0:0:0:
512,226,61204,2,0,P|484:273|434:298,1,112.5,2|0,3:2|0:0,0:0:0:0:
351,313,61555,1,8,0:0:0:0:
351,313,61672,2,0,P|355:340|360:368,1,56.25,2|0,3:2|0:0,0:0:0:0:
414,208,61907,2,0,P|409:180|404:152,1,56.25,10|0,0:0|0:0,0:0:0:0:
327,0,62142,6,0,P|374:8|421:13,1,56.25,6|0,3:2|0:0,0:0:0:0:
512,79,62377,2,0,P|465:86|418:91,1,56.25,10|10,0:0|0:0,0:0:0:0:
344,84,62610,1,2,3:2:0:0:
469,11,62845,1,10,0:0:0:0:
323,158,63079,2,0,P|268:168|221:137,1,114.750002188683,6|8,3:2|0:0,0:0:0:0:
43,115,63548,2,0,B|44:115|45:114|45:114|45:115|46:116|46:116|47:116|48:117|48:117|48:118|49:118|49:118|50:118|50:117|50:117|53:118|53:118|53:117|54:117|54:117|55:118|55:119|55:119|57:119|58:119|58:119|58:120|59:121|59:121|60:120|61:119|61:119|62:119|62:119|63:119|64:118|64:118|65:119|65:120|65:120|67:120|68:120|68:120|69:120|69:121|69:121|70:120|71:119|71:119|72:119|72:119|73:118|74:118|74:118|74:118|75:119|75:119|77:119|77:119|78:119|79:120|79:120|79:119|80:118|80:118|81:118|83:117|83:117|83:116|83:115|83:115|84:116|85:116|85:116|87:116|87:116|88:116|89:116|89:116|90:115|90:114|90:114|91:114|91:114|92:112|92:111|92:111|94:112|95:112|95:112|96:111|96:111|97:111|98:111|98:111|99:110|99:109|99:109|100:108|100:108|100:107|101:106|101:106|102:106|103:106|103:106|104:105|104:105|105:105|106:105|106:105|106:104|106:103|106:103|107:102|108:101|108:101|108:100|108:99|108:99|109:99|110:100|110:100|110:99|111:98|111:98|112:98|113:98|113:98|113:97|112:96|112:96|114:94|114:94|114:93|113:92|113:92|114:92|116:92|116:92|116:91|116:91|117:90|119:90|119:90|118:88|118:87|118:87|119:86|119:86|119:84|119:84|120:83|120:83|122:81|122:81|124:81|124:81|123:80|123:79|123:79|124:77|124:77|123:75|123:75|125:74|125:74|126:72|126:72|128:72|128:72|127:70|127:70|128:69|128:69|128:67|128:66|128:66|129:65|130:65|130:65|131:63|131:63|132:63|132:63|132:61|132:61|133:59|133:59|133:57|133:57|134:57|135:57|135:57|136:55|136:55|137:55|138:55|138:55|137:54|137:53|137:53|138:52|138:51|138:51|139:50|139:49|139:49|140:49|141:48|141:48|143:47|143:47|143:47|144:47|144:47|144:46|144:45|144:45|145:45|146:44|146:44|146:43|146:42|146:42|147:42|148:42|148:42|149:41|150:41|150:41|151:41|152:41|152:41|152:40|153:39|153:39|154:39|155:38|155:38|155:37|155:36|155:36|156:37|157:37|157:37|158:37|159:36|159:36|160:37|161:37|161:37|161:36|161:35|161:35|163:35|164:34|164:34|164:34|165:33|165:33|166:33|166:34|166:34|168:34|169:33|169:33|170:34|171:35|171:35|171:34|172:33|172:33|173:33|173:33|174:32|175:31|175:31|176:32|176:33|176:33|177:32|178:32|178:32|179:33|180:34|180:34|180:33|181:33|181:33|182:33|183:33|183:33|184:32|185:31|185:31|186:32|186:33|186:33|188:33|188:33|189:35|189:35|190:34|191:34|191:34|192:34|193:34|193:34|194:34|195:33|195:33|196:34|196:35|196:35|198:36|198:36|198:36|199:37|199:37|200:37|201:36|201:36|202:37|202:37|204:36|204:36|205:37|205:38,1,250.695266683328,6|0,3:2|0:0,0:0:0:0:
289,37,64017,6,0,P|297:84|302:131,1,56.25,6|0,3:2|0:0,0:0:0:0:
296,175,64250,1,10,0:0:0:0:
512,76,64485,2,0,P|465:84|418:89,1,56.25,2|0,3:2|0:0,0:0:0:0:
374,83,64720,1,10,0:0:0:0:
477,311,64954,2,0,P|469:264|464:217,1,56.25,2|0,3:2|0:0,0:0:0:0:
470,173,65187,1,10,0:0:0:0:
253,261,65423,2,0,P|300:253|347:248,1,56.25,2|0,3:2|0:0,0:0:0:0:
391,254,65656,1,10,0:0:0:0:
140,255,65892,6,0,P|148:302|153:349,1,56.25,6|0,3:2|0:0,0:0:0:0:
203,141,66126,2,0,P|198:188|191:235,1,56.25,10|10,0:0|0:0,0:0:0:0:
48,268,66360,2,0,P|40:221|35:174,1,67.5000025749208,2|0,3:2|0:0,0:0:0:0:
101,159,66594,2,0,P|105:111|112:64,1,67.5000025749208,10|0,0:0|0:0,0:0:0:0:
197,51,66829,2,0,P|259:58|293:112,1,114.750002188683,6|8,3:2|0:0,0:0:0:0:
383,101,67298,6,0,B|382:101|381:102|381:102|381:101|380:100|380:100|379:100|379:100|378:99|378:98|378:98|377:98|375:98|375:98|373:98|373:98|373:98|372:99|372:99|371:98|371:97|371:97|369:97|368:97|368:97|368:96|367:95|367:95|366:96|366:96|366:96|365:96|364:96|364:96|363:97|362:98|362:98|362:97|361:96|361:96|360:96|358:96|358:96|357:95|357:95|357:95|356:95|356:96|356:96|354:96|354:96|354:96|353:97|352:98|352:98|351:97|351:97|351:97|349:97|349:97|348:96|347:96|347:96|346:97|346:98|346:98|344:98|344:98|343:99|342:100|342:100|341:99|340:99|340:99|339:99|339:99|338:99|337:99|337:99|337:99|336:101|336:101|335:101|335:101|335:102|334:103|334:103|333:103|332:103|332:103|330:103|330:103|329:103|328:103|328:103|328:104|327:105|327:105|327:106|326:106|326:106|326:107|326:108|326:108|324:108|323:108|323:108|322:109|322:109|321:109|320:109|320:109|320:110|320:112|320:112|319:112|319:112|319:114|318:115|318:115|318:115|316:116|316:116|315:117|315:117|314:117|313:117|313:117|313:118|313:119|313:119|311:121|311:121|312:122|312:123|312:123|311:123|310:123|310:123|309:124|309:124|308:125|307:125|307:125|307:126|307:127|307:127|307:128|307:128|307:129|307:131|307:131|306:131|305:132|305:132|304:133|304:133|302:134|302:134|303:136|303:136|302:138|302:138|302:140|302:140|300:140|300:140|299:143|299:143|297:143|297:143|298:145|298:145|297:147|297:147|297:148|297:149|297:149|296:150|295:150|295:150|295:151|295:151|293:152|293:152|293:153|293:154|293:154|292:155|292:155|292:156|293:157|293:157|292:158|291:158|291:158|290:160|290:160|288:160|288:160|288:160|288:161|288:162|288:162|287:163|287:164|287:164|287:165|287:166|287:166|286:166|285:166|285:166|284:167|283:167|283:167|282:167|281:167|281:167|281:168|281:170|281:170|280:170|279:171|279:171|279:172|279:173|279:173|279:173|278:172|278:172|277:173|276:174|276:174|275:173|274:173|274:173|273:174|273:175|273:175|272:176|271:176|271:176|271:178|270:179|270:179|269:178|268:178|268:178|267:179|267:179|266:178|265:178|265:178|264:179|264:180|264:180|262:180|262:180|261:181|261:182|261:182|260:182|259:181|259:181|257:181|257:181|256:180|256:180|255:181|254:182|254:182|253:182|252:182|252:182|252:183|251:184|251:184|250:183|249:182|249:182|249:182|248:183|248:183|247:182|246:181|246:181|245:182|245:183|245:183|243:182|242:182|242:182|241:183|240:184|240:184|239:183|239:182|239:182|237:182|237:182|236:180|236:180|235:181|234:181|234:181|233:181|232:181|232:181|231:181|230:182|230:182|230:181|230:180|230:180|228:180|228:180|228:180|227:179|227:178|227:178|226:178|225:179|225:179|223:178|223:178|222:179|221:179|221:179|221:178|221:177,1,249.875416069073,4|0,3:2|0:0,0:0:0:0:
176,68,67767,6,0,B|177:66|177:66|178:67|179:67|179:67|180:66|181:66|181:66|182:67|183:67|183:67|183:66|184:65|184:65|185:65|186:65|186:65|186:64|187:63|187:63|188:63|188:64|188:64|190:64|191:63|191:63|192:64|192:65|192:65|193:64|193:63|193:63|194:63|196:63|196:63|196:62|197:61|197:61|197:62|198:62|198:62|200:62|200:62|201:63|202:63|202:63|203:63|203:62|203:62|204:62|205:62|205:62|206:61|206:60|206:60|207:61|208:62|208:62|209:62|209:62|210:62|211:63|211:63|212:62|214:62|214:62|215:62|215:62|216:61|217:61|217:61|217:61|218:62|218:62|220:63|220:63|221:64|221:64|222:64|223:63|223:63|224:63|226:64|226:64|226:63|227:63|227:63|228:63|228:64|228:64|229:65|229:65|230:66|231:67|231:67|232:66|233:66|233:66|235:66|235:66|236:66|237:66|237:66|237:67|237:68|237:68|240:69|240:69|240:69|240:70|240:70|241:70|242:70|242:70|243:70|244:71|244:71|245:70|245:70|245:70|246:71|246:72|246:72|248:73|248:73|248:74|248:75|248:75|249:75|251:75|251:75|252:75|252:75|253:75|254:75|254:75|254:76|254:77|254:77|256:78|257:79|257:79|257:80|257:81|257:81|258:81|258:81|258:81|259:82|260:82|260:82|261:82|262:82|262:82|262:83|262:84|262:84|263:85|264:86|264:86|264:87|264:88|264:88|265:88|266:88|266:88|267:89|267:89|268:90|269:90|269:90|269:90|269:92|269:92|270:93|270:93|270:94|269:95|269:95|270:95|271:95|271:95|272:97|273:98|273:98|274:98|275:98|275:98|275:99|275:100|275:100|276:102|276:102|275:104|275:104|277:104|277:104|278:105|278:105|279:106|280:106|280:106|280:107|280:108|280:108|281:110|281:110|280:112|280:112|282:113|282:113|283:115|283:115|285:116|285:116|284:117|284:117|285:119|285:119|285:121|285:121|287:122|287:122|288:123|288:123|290:124|290:124|289:126|289:126|290:128|290:128|289:130|289:130|291:130|291:130|292:132|292:132|294:133|294:133|293:135|293:135|294:137|294:137|294:139|294:139|295:139|296:140|296:140|297:141|297:141|298:142|299:142|299:142|299:143|299:144|299:144|300:145|300:145|299:147|299:147|301:148|301:148|302:149|302:150|302:150|303:150|304:150|304:150|304:152|304:152|305:153|305:153|305:154|305:155|305:155|306:155|307:155|307:155|308:156|309:157|309:157|310:157|311:157|311:157|311:158|311:159|311:159|312:160|313:161|313:161|313:162|313:163|313:163|314:163|315:163|315:163|316:164|316:164|317:164|318:164|318:164|318:165|318:166|318:166|319:166|320:167|320:167|320:168|321:169|321:169|322:169|323:169|323:169|323:169|324:170|324:170|325:169|326:169|326:169|327:170|327:171|327:171|329:172|329:172|330:174|330:174|331:174|332:173|332:173|333:174|333:174|334:173|335:173|335:173|335:174|336:175|336:175|338:176|338:176|339:177|339:177|339:177|340:177|341:176|341:176|342:177|342:177|343:176|344:176|344:176|345:177|346:177|346:177|348:178|348:178|348:179|349:179|349:179|350:179|351:178|351:178|353:178|353:178|354:178|355:177|355:177|355:178|356:179|356:179|357:179|357:179|358:179|359:180|359:180|360:179|361:179|361:179|363:179|363:179|364:177|364:177|365:178|365:178|365:178|368:178|368:178|369:179|369:179|369:179|370:179|371:178|371:178|373:178|373:178|373:177|374:176|374:176|375:176|376:177|376:177|377:177|378:176|378:176|379:177|380:178|380:178|380:177|381:176|381:176|383:175|383:175|383:174|384:174|384:174|385:174|385:175|385:175|386:174|387:174|387:174|389:175|389:175|390:173|390:173|392:172|392:172|392:172,1,335.403768677777,6|8,3:2|0:0,0:0:0:0:
468,152,68235,6,0,P|460:105|455:58,1,56.25,2|0,3:2|0:0,0:0:0:0:
512,219,68470,2,0,P|504:266|499:313,1,56.25,10|0,0:0|0:0,0:0:0:0:
447,327,68704,2,0,P|388:347|297:370,1,112.5,2|0,3:2|0:0,0:0:0:0:
324,268,69056,1,8,0:0:0:0:
324,268,69173,2,0,P|383:248|474:225,1,112.5,2|8,3:2|0:0,0:0:0:0:
319,73,69642,6,0,P|272:81|225:86,1,56.25,6|0,3:2|0:0,0:0:0:0:
109,129,69877,2,0,P|156:136|203:141,1,56.25,2|10,0:0|0:0,0:0:0:0:
294,150,70110,2,0,P|247:158|200:163,1,56.25,2|0,3:2|0:0,0:0:0:0:
128,213,70345,2,0,P|175:220|222:225,1,56.25,10|0,0:0|0:0,0:0:0:0:
176,371,70579,2,0,P|117:347|98:287,1,114.750002188683,6|8,3:2|0:0,0:0:0:0:
120,185,71048,6,0,B|120:184|119:183|119:183|120:183|121:182|121:182|121:181|122:180|122:180|123:180|123:179|123:179|123:178|122:177|122:177|123:175|123:175|122:175|122:174|122:174|123:173|124:173|124:173|124:171|124:170|124:170|125:170|126:169|126:169|125:168|124:168|124:168|124:166|124:166|124:166|124:165|123:164|123:164|124:164|125:163|125:163|125:162|125:160|125:160|125:159|126:158|126:158|125:157|124:157|124:157|124:156|124:156|123:155|123:154|123:154|123:153|124:153|124:153|124:151|124:151|124:150|125:149|125:149|124:148|123:148|123:148|122:146|122:146|121:145|121:144|121:144|121:143|121:142|121:142|121:141|121:141|121:140|122:139|122:139|121:139|120:138|120:138|119:137|119:137|118:137|117:136|117:136|117:135|118:134|118:134|117:132|117:132|117:131|117:130|117:130|116:130|115:129|115:129|115:129|114:128|114:128|113:128|112:128|112:128|112:126|112:125|112:125|111:124|111:124|111:123|111:122|111:122|110:122|109:122|109:122|108:121|108:121|107:121|105:120|105:120|105:120|105:118|105:118|104:117|104:117|103:116|103:115|103:115|102:115|101:115|101:115|99:113|99:113|98:114|98:114|98:114|97:113|97:112|97:112|96:111|96:111|95:110|95:109|95:109|94:109|93:109|93:109|92:109|92:109|91:109|89:109|89:109|89:108|88:107|88:107|87:106|87:106|86:104|86:104|85:105|85:105|83:104|83:104|81:104|81:104|80:102|80:102|78:101|78:101|77:99|77:99|75:100|75:100|74:99|74:99|72:100|72:100|71:98|71:98|70:97|70:97|69:96|69:95|69:95|68:95|66:95|66:95|65:94|65:94|63:95|63:95|63:94|63:93|63:93|61:92|61:92|60:90|60:90|60:90|59:90|58:90|58:90|56:89|56:89|56:89|55:89|55:89|55:88|55:87|55:87|54:87|53:86|53:86|53:84|53:83|53:83|52:83|50:83|50:83|50:82|49:81|49:81|48:81|47:81|47:81|47:81|48:80|48:80|47:79|46:78|46:78|47:77|47:76|47:76|46:76|45:75|45:75|44:74|44:74|43:74|42:73|42:73|42:72|42:71|42:71|42:70|42:69|42:69|42:68|42:67|42:67|41:66|40:66|40:66|40:64|40:64|39:64|38:63|38:63|38:62|39:61|39:61|39:59|39:59|40:58|40:58|39:57|38:57|38:57|38:55|38:55|37:54|36:54|36:54|37:52|38:52|38:52|38:51|37:50|37:50|38:49|39:48|39:48|38:47|37:47|37:47|38:45|38:44|38:44|37:43|36:42|36:42|37:42|38:42|38:42|38:41|38:40|38:40|39:39|40:39|40:39|39:38|38:37|38:37|39:36|39:34|39:34|39:33|38:33|38:33|39:32|40:32|40:32|40:31|40:31|41:30|42:29|42:29|42:28|41:27|41:27|42:25|42:25|41:24|41:24|41:24|42:23|43:23,1,249.987541685351,6|0,3:2|0:0,0:0:0:0:
121,26,71517,6,0,B|122:26|123:27|123:27|122:28|122:29|122:29|122:30|123:31|123:31|122:32|122:32|122:32|123:33|123:33|123:33|124:36|124:36|125:36|126:37|126:37|125:37|125:38|125:38|125:40|125:41|125:41|124:42|124:43|124:43|125:43|125:44|125:44|125:45|125:45|126:46|127:47|127:47|126:48|126:48|126:48|126:50|126:51|126:51|125:51|124:52|124:52|125:53|125:54|125:54|125:55|125:55|126:56|127:57|127:57|126:58|125:58|125:58|125:60|125:60|124:60|123:61|123:61|123:62|124:63|124:63|124:64|123:66|123:66|124:66|124:67|124:67|123:68|122:68|122:68|122:70|122:70|121:70|120:71|120:71|120:72|120:73|120:73|120:74|120:74|120:76|120:77|120:77|119:77|118:78|118:78|117:79|117:79|116:79|115:80|115:80|115:81|115:82|115:82|114:83|114:83|114:84|114:85|114:85|113:86|112:86|112:86|111:87|111:87|110:87|109:87|109:87|109:88|109:89|109:89|108:90|107:91|107:91|107:92|107:93|107:93|106:93|106:93|106:93|105:93|104:94|104:94|103:94|102:94|102:94|102:94|102:95|102:95|100:97|100:97|100:98|100:99|100:99|99:99|98:99|98:99|97:99|97:99|95:99|94:99|94:99|94:100|93:101|93:101|92:102|92:102|91:104|91:104|89:103|89:103|87:105|87:105|85:104|85:104|85:105|85:106|85:106|83:107|83:107|82:109|82:109|80:108|80:108|78:109|78:109|76:108|76:108|76:110|76:110|75:111|75:111|74:112|73:113|73:113|72:113|71:113|71:113|69:114|69:114|68:113|68:113|67:115|67:115|65:116|65:116|65:118|65:118|64:118|63:118|63:118|61:119|61:119|60:119|59:118|59:118|59:119|59:120|59:120|58:121|57:121|57:121|57:124|57:124|56:124|54:124|54:124|53:126|53:126|52:125|51:125|51:125|51:126|51:127|51:127|51:128|50:129|50:129|50:130|50:131|50:131|49:131|48:131|48:131|47:132|47:133|47:133|46:133|45:134|45:134|45:135|45:136|45:136|45:137|44:138|44:138|44:139|45:140|45:140|44:140|43:140|43:140|43:141|42:142|42:142|41:142|40:143|40:143|41:144|41:144|41:144|41:146|40:147|40:147|41:148|42:148|42:148|41:149|40:149|40:149|40:151|39:152|39:152|39:153|38:153|38:153|38:154|39:155|39:155|39:156|39:156|40:157|40:158|40:158|39:159|39:159|39:159|38:160|38:161|38:161|38:162|37:163|37:163|38:164|39:164|39:164|39:165|39:166|39:166|39:167|40:168|40:168|40:169|39:169|39:169|39:171|39:171|38:173|38:173|39:174|40:174|40:174|40:175|40:176|40:176|41:177|42:177|42:177|41:178|41:179|41:179|42:181|42:181|41:182|41:183|41:183|42:183|42:184|42:184|43:185|43:185|45:186|45:186|44:187|44:188,1,250.536437438026,6|8,3:2|0:0,0:0:0:0:
125,195,71985,6,0,P|172:187|219:182,1,56.25,2|0,3:2|0:0,0:0:0:0:
229,129,72220,2,0,P|257:133|285:139,1,56.25,10|0,0:0|0:0,0:0:0:0:
366,116,72454,2,0,P|365:60|362:4,1,112.5,2|0,3:2|0:0,0:0:0:0:
448,0,72806,1,8,0:0:0:0:
448,0,72923,2,0,P|452:62|450:156,1,112.5,2|8,3:2|0:0,0:0:0:0:
454,211,73392,6,0,P|407:219|360:224,1,56.25,6|0,3:2|0:0,0:0:0:0:
289,204,73626,2,0,P|242:212|195:217,1,56.25,2|10,0:0|0:0,0:0:0:0:
337,267,73860,2,0,P|341:295|347:323,1,56.25,2|0,3:2|0:0,0:0:0:0:
352,155,74094,2,0,P|344:108|339:61,1,56.25,10|0,0:0|0:0,0:0:0:0:
250,26,74329,2,0,P|188:33|154:87,1,114.750002188683,6|8,3:2|0:0,0:0:0:0:
0,112,74798,6,0,B|0:111|1:110|1:110|2:110|3:111|3:111|4:111|5:110|5:110|6:111|7:111|7:111|7:110|7:109|7:109|9:109|9:109|10:108|11:107|11:107|11:108|12:108|12:108|14:108|15:108|15:108|16:108|17:109|17:109|17:108|18:107|18:107|19:107|19:107|20:107|20:106|20:106|21:106|21:107|21:107|23:107|25:107|25:107|25:108|26:109|26:109|27:108|28:107|28:107|29:107|29:107|30:107|31:106|31:106|32:107|32:108|32:108|34:108|34:108|35:109|35:110|35:110|36:109|37:109|37:109|38:109|40:109|40:109|40:109|41:108|41:108|42:109|42:110|42:110|44:111|44:111|44:112|45:113|45:113|46:112|47:112|47:112|48:113|48:113|50:112|51:112|51:112|51:113|52:114|52:114|53:115|53:115|53:116|54:117|54:117|55:117|56:117|56:117|57:118|57:118|58:118|59:118|59:118|60:119|60:120|60:120|61:121|61:121|61:122|61:123|61:123|62:123|63:123|63:123|64:124|65:125|65:125|66:125|67:125|67:125|67:126|67:127|67:127|67:127|68:128|68:128|68:129|68:130|68:130|68:130|69:130|69:130|71:132|71:132|72:132|73:132|73:132|73:133|73:135|73:135|73:136|74:136|74:136|74:137|73:138|73:138|74:139|75:139|75:139|76:141|76:141|78:141|78:141|77:143|77:143|79:145|79:145|78:147|78:147|80:148|80:148|81:150|81:150|83:151|83:151|82:152|82:152|83:154|83:154|82:156|82:156|84:157|84:157|85:158|85:158|85:158|87:159|87:159|87:160|87:161|87:161|88:163|88:163|87:165|87:165|88:165|89:165|89:165|90:167|90:167|91:167|92:168|92:168|92:169|92:170|92:170|93:171|93:171|93:172|93:173|93:173|94:174|95:174|95:174|95:174|96:175|96:175|97:175|98:176|98:176|98:177|98:178|98:178|100:179|100:179|99:180|99:181|99:181|100:181|101:181|101:181|102:181|103:182|103:182|105:182|105:182|105:182|106:183|106:185|106:185|107:185|107:185|107:186|108:187|108:187|109:187|110:187|110:187|111:187|112:188|112:188|113:188|114:187|114:187|114:188|114:189|114:189|115:189|116:190|116:190|116:191|117:192|117:192|118:191|118:191|118:191|120:191|121:192|121:192|122:191|122:190|122:190|123:191|123:192|123:192|125:192|126:193|126:193|127:193|127:194|127:194|128:194|129:193|129:193|130:193|131:193|131:193|132:193|133:192|133:192|134:193|134:194|134:194|136:194|136:194|136:194|137:195|137:195|138:194|139:193|139:193|140:193|140:193|141:193|142:192|142:192|143:192|143:193|143:193|146:193|146:193|147:194|147:194|148:193|148:192|148:192|149:192|150:192|150:192|151:191|151:190|151:190|152:191|153:191|153:191|155:190|155:190|156:191|157:191|157:191|158:190|158:189|158:189|159:189|159:189|160:188|160:187|160:187|161:187|162:188,1,251.080953562718,4|0,3:2|0:0,0:0:0:0:
146,274,75267,6,0,B|147:274|148:273|148:273|148:274|149:275|149:275|150:275|151:276|151:276|151:277|152:277|152:277|153:277|153:276|153:276|156:277|156:277|156:276|157:276|157:276|158:277|158:278|158:278|160:278|161:278|161:278|161:279|162:280|162:280|163:279|164:278|164:278|165:278|165:278|166:278|167:277|167:277|168:278|168:279|168:279|170:279|171:279|171:279|172:279|172:280|172:280|173:279|174:278|174:278|175:278|175:278|176:277|177:277|177:277|177:277|178:278|178:278|180:278|180:278|181:278|182:279|182:279|182:278|183:277|183:277|184:277|186:276|186:276|186:275|186:274|186:274|187:275|188:275|188:275|190:275|190:275|191:275|192:275|192:275|193:274|193:273|193:273|194:273|194:273|195:271|195:270|195:270|197:271|198:271|198:271|199:270|199:270|200:270|201:270|201:270|202:269|202:268|202:268|203:267|203:267|203:266|204:265|204:265|205:265|206:265|206:265|207:264|207:264|208:264|209:264|209:264|209:263|209:262|209:262|210:261|211:260|211:260|211:259|211:258|211:258|212:258|213:259|213:259|213:258|214:257|214:257|215:257|216:257|216:257|216:256|215:255|215:255|217:253|217:253|217:252|216:251|216:251|217:251|219:251|219:251|219:250|219:250|220:249|222:249|222:249|221:247|221:246|221:246|222:245|222:245|222:243|222:243|223:242|223:242|225:240|225:240|227:240|227:240|226:239|226:238|226:238|227:236|227:236|226:234|226:234|228:233|228:233|229:231|229:231|231:231|231:231|230:229|230:229|231:228|231:228|231:226|231:225|231:225|232:224|233:224|233:224|234:222|234:222|235:222|235:222|235:220|235:220|236:218|236:218|236:216|236:216|237:216|238:216|238:216|239:214|239:214|240:214|241:214|241:214|240:213|240:212|240:212|241:211|241:210|241:210|242:209|242:208|242:208|243:208|244:207|244:207|246:206|246:206|246:206|247:206|247:206|247:205|247:204|247:204|248:204|249:203|249:203|249:202|249:201|249:201|250:201|251:201|251:201|252:200|253:200|253:200|254:200|255:200|255:200|255:199|256:198|256:198|257:198|258:197|258:197|258:196|258:195|258:195|259:196|260:196|260:196|261:196|262:195|262:195|263:196|264:196|264:196|264:195|264:194|264:194|266:194|267:193|267:193|267:193|268:192|268:192|269:192|269:193|269:193|271:193|272:192|272:192|273:193|274:194|274:194|274:193|275:192|275:192|276:192|276:192|277:191|278:190|278:190|279:191|279:192|279:192|280:191|281:191|281:191|282:192|283:193|283:193|283:192|284:192|284:192|285:192|286:192|286:192|287:191|288:190|288:190|289:191|289:192|289:192|291:192|291:192|292:194|292:194|293:193|294:193|294:193|295:193|296:193|296:193|297:193|298:192|298:192|299:193|299:194|299:194|301:195|301:195|301:195|302:196|302:196|303:196|304:195|304:195|305:196|305:196|307:195|307:195|308:196|308:197,1,250.695266683328,6|8,3:2|0:0,0:0:0:0:
393,175,75735,6,0,P|388:202|383:230,1,56.25,2|0,3:2|0:0,0:0:0:0:
291,308,75970,2,0,P|319:312|347:318,1,56.25,10|0,0:0|0:0,0:0:0:0:
477,241,76204,2,0,P|476:185|473:129,1,112.5,2|0,3:2|0:0,0:0:0:0:
422,64,76556,1,8,0:0:0:0:
422,64,76673,2,0,P|360:60|266:62,1,112.5,2|8,3:2|0:0,0:0:0:0:
181,8,77142,6,0,P|189:55|194:102,1,56.25,6|0,3:2|0:0,0:0:0:0:
174,173,77376,1,2,0:0:0:0:
97,92,77610,2,0,P|89:139|84:186,1,56.25,2|0,3:2|0:0,0:0:0:0:
103,226,77844,1,10,0:0:0:0:
237,311,78079,2,0,P|178:335|159:395,1,114.750002188683,6|8,3:2|0:0,0:0:0:0:
75,306,78548,6,0,B|75:305|76:304|76:304|77:304|78:305|78:305|79:305|80:304|80:304|81:305|82:305|82:305|82:304|82:303|82:303|84:303|84:303|85:302|86:301|86:301|86:302|87:302|87:302|89:302|90:302|90:302|91:302|92:303|92:303|92:302|93:301|93:301|94:301|94:301|95:301|95:300|95:300|96:300|96:301|96:301|98:301|100:301|100:301|100:302|101:303|101:303|102:302|103:301|103:301|104:301|104:301|105:301|106:300|106:300|107:301|107:302|107:302|109:302|109:302|110:303|110:304|110:304|111:303|112:303|112:303|113:303|115:303|115:303|115:303|116:302|116:302|117:303|117:304|117:304|119:305|119:305|119:306|120:307|120:307|121:306|122:306|122:306|123:307|123:307|125:306|126:306|126:306|126:307|127:308|127:308|128:309|128:309|128:310|129:311|129:311|130:311|131:311|131:311|132:312|132:312|133:312|134:312|134:312|135:313|135:314|135:314|136:315|136:315|136:316|136:317|136:317|137:317|138:317|138:317|139:318|140:319|140:319|141:319|142:319|142:319|142:320|142:321|142:321|142:321|143:322|143:322|143:323|143:324|143:324|143:324|144:324|144:324|146:326|146:326|147:326|148:326|148:326|148:327|148:329|148:329|148:330|149:330|149:330|149:331|148:332|148:332|149:333|150:333|150:333|151:335|151:335|153:335|153:335|152:337|152:337|154:339|154:339|153:341|153:341|155:342|155:342|156:344|156:344|158:345|158:345|157:346|157:346|158:348|158:348|157:350|157:350|159:351|159:351|160:352|160:352|160:352|162:353|162:353|162:354|162:355|162:355|163:357|163:357|162:359|162:359|163:359|164:359|164:359|165:361|165:361|166:361|167:362|167:362|167:363|167:364|167:364|168:365|168:365|168:366|168:367|168:367|169:368|170:368|170:368|170:368|171:369|171:369|172:369|173:370|173:370|173:371|173:372|173:372|175:373|175:373|174:374|174:375|174:375|175:375|176:375|176:375|177:375|178:376|178:376|180:376|180:376|180:376|181:377|181:379|181:379|182:379|182:379|182:380|183:381|183:381|184:381|185:381|185:381|186:381|187:382|187:382|188:382|189:381|189:381|189:382|189:383|189:383|190:383|191:384|191:384|191:385|192:386|192:386|193:385|193:385|193:385|195:385|196:386|196:386|197:385|197:384|197:384|198:385|198:386|198:386|200:386|201:387|201:387|202:387|202:388|202:388|203:388|204:387|204:387|205:387|206:387|206:387|207:387|208:386|208:386|209:387|209:388|209:388|211:388|211:388|211:388|212:389|212:389|213:388|214:387|214:387|215:387|215:387|216:387|217:386|217:386|218:386|218:387|218:387|221:387|221:387|222:388|222:388|223:387|223:386|223:386|224:386|225:386|225:386|226:385|226:384|226:384|227:385|228:385|228:385|230:384|230:384|231:385|232:385|232:385|233:384|233:383|233:383|234:383|234:383|235:382|235:381|235:381|236:381|237:382,1,251.080953562718,6|0,3:2|0:0,0:0:0:0:
396,305,79017,6,0,B|396:306|395:307|395:307|394:307|393:306|393:306|392:306|391:307|391:307|390:306|389:306|389:306|389:307|389:308|389:308|387:308|387:308|386:309|385:310|385:310|385:309|384:309|384:309|382:309|381:309|381:309|380:309|379:308|379:308|379:309|378:310|378:310|377:310|377:310|376:310|376:311|376:311|375:311|375:310|375:310|373:310|371:310|371:310|371:309|370:308|370:308|369:309|368:310|368:310|367:310|367:310|366:310|365:311|365:311|364:310|364:309|364:309|362:309|362:309|361:308|361:307|361:307|360:308|359:308|359:308|358:308|356:308|356:308|356:308|355:309|355:309|354:308|354:307|354:307|352:306|352:306|352:305|351:304|351:304|350:305|349:305|349:305|348:304|348:304|346:305|345:305|345:305|345:304|344:303|344:303|343:302|343:302|343:301|342:300|342:300|341:300|340:300|340:300|339:299|339:299|338:299|337:299|337:299|336:298|336:297|336:297|335:296|335:296|335:295|335:294|335:294|334:294|333:294|333:294|332:293|331:292|331:292|330:292|329:292|329:292|329:291|329:290|329:290|329:290|328:289|328:289|328:288|328:287|328:287|328:287|327:287|327:287|325:285|325:285|324:285|323:285|323:285|323:284|323:282|323:282|323:281|322:281|322:281|322:280|323:279|323:279|322:278|321:278|321:278|320:276|320:276|318:276|318:276|319:274|319:274|317:272|317:272|318:270|318:270|316:269|316:269|315:267|315:267|313:266|313:266|314:265|314:265|313:263|313:263|314:261|314:261|312:260|312:260|311:259|311:259|311:259|309:258|309:258|309:257|309:256|309:256|308:254|308:254|309:252|309:252|308:252|307:252|307:252|306:250|306:250|305:250|304:249|304:249|304:248|304:247|304:247|303:246|303:246|303:245|303:244|303:244|302:243|301:243|301:243|301:243|300:242|300:242|299:242|298:241|298:241|298:240|298:239|298:239|296:238|296:238|297:237|297:236|297:236|296:236|295:236|295:236|294:236|293:235|293:235|291:235|291:235|291:235|290:234|290:232|290:232|289:232|289:232|289:231|288:230|288:230|287:230|286:230|286:230|285:230|284:229|284:229|283:229|282:230|282:230|282:229|282:228|282:228|281:228|280:227|280:227|280:226|279:225|279:225|278:226|278:226|278:226|276:226|275:225|275:225|274:226|274:227|274:227|273:226|273:225|273:225|271:225|270:224|270:224|269:224|269:223|269:223|268:223|267:224|267:224|266:224|265:224|265:224|264:224|263:225|263:225|262:224|262:223|262:223|260:223|260:223|260:223|259:222|259:222|258:223|257:224|257:224|256:224|256:224|255:224|254:225|254:225|253:225|253:224|253:224|250:224|250:224|249:223|249:223|248:224|248:225|248:225|247:225|246:225|246:225|245:226|245:227|245:227|244:226|243:226|243:226|241:227|241:227|240:226|239:226|239:226|238:227|238:228|238:228|237:228|237:228|236:229|236:230|236:230|235:230|234:229,1,251.080953562719,6|8,3:2|0:0,0:0:0:0:
187,145,79485,6,0,P|214:140|242:135,1,56.25,2|0,3:2|0:0,0:0:0:0:
322,32,79720,2,0,P|349:35|377:41,1,56.25,10|0,0:0|0:0,0:0:0:0:
452,185,79954,2,0,P|451:129|448:73,1,112.5,2|0,3:2|0:0,0:0:0:0:
322,32,80306,1,8,0:0:0:0:
322,32,80423,2,0,P|318:94|320:188,1,112.5,2|8,3:2|0:0,0:0:0:0:
171,26,80892,6,0,P|134:19|98:15,1,40.4999987640381,6|0,3:2|0:0,0:0:0:0:
50,22,81126,1,2,0:0:0:0:
98,127,81360,2,0,P|61:133|25:137,1,40.4999987640381,2|0,0:0|0:0,0:0:0:0:
21,204,81594,1,2,0:0:0:0:
131,287,81829,6,0,B|129:286|129:286|131:284|131:284|130:282|130:282|131:280|131:280|130:279|130:279|130:277|130:277|128:276|128:276|129:274|129:274|129:272|129:272|130:270|130:270|128:269|128:269|128:267|128:267|126:266|126:266|128:264|128:264|127:262|127:262|129:261|129:261|127:260|127:260|127:257|127:257|125:256|125:256|126:254|126:254|126:252|126:252|127:251|127:251|126:249|126:249|126:247|126:247|124:246|124:246|125:244|125:244|125:242|125:242|126:241|126:241|125:239|125:239|124:237|124:237|123:236|123:236|124:234|124:234|124:232|124:232|125:231|125:231|124:229|124:229|123:227|123:227|122:226|122:226|123:224|123:224|123:223|123:223|124:221|124:221|123:220|123:220|123:218|123:218|121:216|121:216|122:215|122:215|122:213|122:213|124:211|124:211|122:210|122:210|122:208|122:208|120:206|120:206|122:205|122:205|122:203|122:203|123:201|123:201|121:200|121:200|121:198|121:198|120:196|120:196|121:195|121:195|121:193|121:193|123:191|123:191|121:190|121:190|121:188|121:188|119:186|119:186|121:185|121:185|121:183|121:183|122:181|122:181|121:180|121:180|121:177|121:177|119:176|119:176|120:175|120:175|120:173|120:173|122:171|122:171|120:170|120:170|120:168|120:168|119:166|119:166|120:165|120:165|120:163|120:163|122:161|122:161|120:160|120:160|120:158|120:158|119:156|119:156|120:155|120:155|120:153|120:153|122:151|122:151|120:150|120:150|120:148|120:148|119:146|119:146|120:145|120:145|120:143|120:143|122:141|122:141|121:140|121:140|121:138|121:138|119:136|119:136|121:135|121:135|121:133|121:133|122:131|122:131|121:130|121:130|121:127|121:127|119:126|119:126|120:126,2,200.654720803022,6|2|2,3:2|0:0|3:2,0:0:0:0:
41,0,92484,5,8,0:0:0:0:
55,9,92601,2,0,P|64:71|38:111,2,60,2|2|2,0:0|0:0|0:0,0:0:0:0:
0,98,93069,6,0,P|61:110|155:142,1,135,6|8,3:2|0:0,0:0:0:0:
223,171,93537,2,0,P|158:213|149:255,1,90,2|10,3:2|0:0,0:0:0:0:
233,250,94006,2,0,P|171:262|78:294,1,135,0|8,3:2|0:0,0:0:0:0:
37,326,94475,2,0,P|28:264|54:224,2,60,2|2|2,3:2|0:0|0:0,0:0:0:0:
161,348,94944,6,0,P|207:335|253:326,1,60,6|2,3:2|0:0,0:0:0:0:
218,332,95256,1,2,0:0:0:0:
273,271,95412,6,0,P|320:271|367:274,1,60,2|2,3:2|0:0,0:0:0:0:
332,271,95724,1,2,0:0:0:0:
433,219,95881,6,0,P|387:206|341:197,1,60,6|2,3:2|0:0,0:0:0:0:
376,203,96193,1,2,0:0:0:0:
321,142,96349,6,0,P|274:142|227:145,1,60,2|2,3:2|0:0,0:0:0:0:
262,142,96661,1,2,0:0:0:0:
191,69,96819,6,0,P|178:130|147:224,1,135,6|8,3:2|0:0,0:0:0:0:
77,230,97287,2,0,P|35:165|-7:156,1,90,2|10,3:2|0:0,0:0:0:0:
0,246,97756,2,0,P|12:307|44:401,1,135,0|8,3:2|0:0,0:0:0:0:
111,360,98225,2,0,P|98:298|79:235,1,90,0|8,3:2|0:0,0:0:0:0:
166,143,98694,6,0,P|212:130|258:121,1,60,6|2,3:2|0:0,0:0:0:0:
223,127,99006,1,2,0:0:0:0:
188,224,99162,6,0,P|234:211|280:202,1,60,2|2,3:2|0:0,0:0:0:0:
245,208,99474,1,2,0:0:0:0:
360,292,99631,6,0,P|313:279|267:270,1,60,6|2,3:2|0:0,0:0:0:0:
302,276,99943,1,2,0:0:0:0:
338,373,100099,6,0,P|291:360|245:351,1,60,2|2,3:2|0:0,0:0:0:0:
280,357,100411,1,2,0:0:0:0:
171,278,100569,6,0,P|185:212|205:147,1,135,6|8,3:2|0:0,0:0:0:0:
250,62,101037,2,0,P|172:58|143:26,1,90,2|10,3:2|0:0,0:0:0:0:
313,14,101506,2,0,P|374:26|468:58,1,135,2|8,3:2|0:0,0:0:0:0:
427,125,101975,2,0,P|365:112|302:93,1,90,0|8,3:2|0:0,0:0:0:0:
181,67,102444,6,0,P|168:113|159:159,1,60,6|2,3:2|0:0,0:0:0:0:
165,124,102756,1,2,0:0:0:0:
262,89,102912,6,0,P|249:135|240:181,1,60,2|2,3:2|0:0,0:0:0:0:
246,146,103224,1,2,0:0:0:0:
293,214,103381,6,0,P|306:260|315:306,1,60,6|2,3:2|0:0,0:0:0:0:
309,271,103693,1,2,0:0:0:0:
212,236,103849,6,0,P|225:282|234:328,1,60,2|2,3:2|0:0,0:0:0:0:
228,293,104161,1,2,0:0:0:0:
230,381,104319,6,0,P|294:360|360:346,1,135,6|8,3:2|0:0,0:0:0:0:
408,284,104787,2,0,P|449:300|492:293,1,90,2|10,3:2|0:0,0:0:0:0:
455,215,105256,2,0,P|434:156|415:58,1,135,0|8,3:2|0:0,0:0:0:0:
353,3,105725,2,0,P|344:65|331:129,1,90,0|8,3:2|0:0,0:0:0:0:
168,89,106194,6,0,P|176:26|189:-37,1,90,6|0,3:2|0:0,0:0:0:0:
269,0,106545,1,8,0:0:0:0:
269,0,106662,2,0,P|260:62|247:126,1,90,2|2,3:2|0:0,0:0:0:0:
165,173,107131,6,0,B|135:122|188:57|281:85|298:156|265:267|151:260,1,315,6|0,3:2|0:0,0:0:0:0:
64,235,108069,6,0,P|125:247|219:279,1,135,6|8,3:2|0:0,0:0:0:0:
292,315,108537,2,0,P|227:357|218:399,1,90,2|10,3:2|0:0,0:0:0:0:
297,328,109006,2,0,P|359:316|452:284,1,135,2|8,3:2|0:0,0:0:0:0:
484,232,109475,2,0,P|458:216|429:211,2,60,2|2|2,3:2|0:0|0:0,0:0:0:0:
489,117,109944,6,0,P|476:71|467:25,1,60,6|2,3:2|0:0,0:0:0:0:
473,60,110256,1,2,0:0:0:0:
412,138,110412,6,0,P|399:92|390:46,1,60,2|2,3:2|0:0,0:0:0:0:
396,81,110724,1,2,0:0:0:0:
323,30,110881,6,0,P|310:76|301:122,1,60,6|2,3:2|0:0,0:0:0:0:
307,87,111193,1,2,0:0:0:0:
246,9,111349,6,0,P|233:55|224:101,1,60,2|2,3:2|0:0,0:0:0:0:
230,66,111661,1,2,0:0:0:0:
313,183,111819,6,0,P|252:170|158:139,1,135,6|8,3:2|0:0,0:0:0:0:
122,80,112287,2,0,P|80:145|38:154,1,90,2|10,3:2|0:0,0:0:0:0:
23,92,112756,2,0,P|35:153|67:247,1,135,2|8,3:2|0:0,0:0:0:0:
84,297,113225,2,0,P|146:310|209:329,1,90,0|8,3:2|0:0,0:0:0:0:
232,261,113694,6,0,P|278:248|324:239,1,60,6|2,3:2|0:0,0:0:0:0:
289,245,114006,1,2,0:0:0:0:
423,283,114162,6,0,P|377:296|331:305,1,60,2|2,3:2|0:0,0:0:0:0:
366,299,114474,1,2,0:0:0:0:
307,384,114631,6,0,P|294:338|285:292,1,60,6|2,3:2|0:0,0:0:0:0:
291,327,114943,1,2,0:0:0:0:
348,154,115099,6,0,P|361:200|370:246,1,60,2|2,3:2|0:0,0:0:0:0:
364,211,115411,1,2,0:0:0:0:
426,124,115569,6,0,P|399:82|372:77,1,62.9999980773926,6|2,3:2|0:0,0:0:0:0:
335,23,116037,2,0,P|286:25|267:45,1,62.9999980773926,2|2,0:0|0:0,0:0:0:0:
201,30,116506,1,2,0:0:0:0:
86,260,117209,5,2,0:0:0:0:
86,260,117444,2,0,P|112:301|139:306,1,62.9999980773926,6|2,0:0|0:0,0:0:0:0:
177,361,117912,2,0,P|225:358|244:338,1,62.9999980773926,2|2,0:0|0:0,0:0:0:0:
311,354,118381,2,0,P|333:310|324:284,1,62.9999980773926,6|2,0:0|0:0,0:0:0:0:
382,235,118850,2,0,P|355:193|328:188,1,62.9999980773926,2|2,0:0|0:0,0:0:0:0:
171,278,119319,6,0,P|185:212|199:172,1,76.5000014591217,6|2,0:0|0:0,0:0:0:0:
195,181,119670,1,8,0:0:0:0:
195,181,119787,2,0,P|129:177|105:150,2,76.5000014591217,2|10|2,0:0|0:0|0:0,0:0:0:0:
261,72,120490,1,0,0:0:0:0:
261,72,120608,2,0,P|342:89|392:106,1,114.750002188683,8|8,0:0|0:0,0:0:0:0:
340,252,121194,6,0,P|332:198|317:160,1,76.5000014591217,6|0,0:0|0:0,0:0:0:0:
424,255,121662,2,0,P|432:201|447:163,1,76.5000014591217,2|10,0:0|0:0,0:0:0:0:
468,47,122131,6,0,B|466:46|466:46|466:45|467:44|467:44|466:43|466:43|466:42|466:41|466:41|466:40|465:40|465:40|463:38|463:38|461:38|461:38|461:37|462:36|462:36|461:35|460:34|460:34|461:33|461:32|461:32|460:32|459:32|459:32|457:30|457:30|456:30|455:30|455:30|456:29|456:28|456:28|454:27|454:27|454:25|454:24|454:24|453:24|452:24|452:24|451:24|450:23|450:23|449:23|448:23|448:23|448:22|448:21|448:21|446:20|446:20|446:19|446:18|446:18|445:18|444:18|444:18|442:17|442:17|440:18|440:18|440:17|440:16|440:16|439:15|438:14|438:14|438:14|437:13|437:13|436:13|435:13|435:13|433:12|433:12|433:13|432:13|432:13|431:12|431:11|431:11|429:11|429:11|428:9|428:9|427:9|426:10|426:10|425:9|424:9|424:9|423:9|422:10|422:10|422:9|421:8|421:8|419:8|419:8|419:7|418:6|418:6|417:7|417:7|417:7|414:7|414:7|413:8|413:8|412:7|411:7|411:7|410:7|409:7|409:7|408:6|408:5|408:5|407:6|406:6|406:6|404:6|404:6|404:7|403:8|403:8|402:7|402:7|402:7|399:7|399:7|398:6|398:6|397:6|396:7|396:7|395:7|394:7|394:7|394:8|393:9|393:9|392:9|391:8|391:8|389:8|389:8|389:8|388:7|388:7|387:8|387:9|387:9|385:10|385:10|384:12|384:12|383:11|382:11|382:11|381:11|380:12|380:12|379:11|378:11|378:11|378:12|377:13|377:13|375:14|375:14|375:15|375:16|375:16|374:15|373:15|373:15|371:16|371:16|369:16|369:16|369:17|368:18|368:18|367:18|367:19|367:19|366:20|366:21|366:21|365:21|364:20|364:20|363:22|363:22|362:22|361:22|361:22|361:23|361:24|361:24|359:25|359:25|359:27|359:27|358:27|357:27|357:27|356:28|355:29|355:29|354:29|353:29|353:29|353:30|354:31|354:31|352:32|352:32|352:33|353:34|353:34|352:35|351:35|351:35|349:36|349:36|347:37|347:37|348:38|348:39|348:39|347:40|346:41|346:41|347:42|347:43|347:43|346:43|345:43|345:43|344:45|344:45|343:45|342:46|342:46|343:47|343:48|343:48|342:50|342:50|343:52|343:52|342:52|341:52|341:52|341:54|341:55|341:55|340:55|339:56|339:56|339:56|340:57|340:57|339:59|339:59|340:60|341:61|341:61|340:62|339:62|339:62|339:64|339:64|337:65|337:65|338:66|338:67|338:67|338:68|338:70|338:70|339:70|339:71|339:71|339:72|338:72|338:72|338:74|338:74|337:75|336:76|336:76|337:76|338:77|338:77|338:79|338:79|339:80|339:80|339:81|339:81|338:82|338:82|338:83|338:85|338:85|338:85|337:86|337:86|338:87|339:87|339:87|339:88|340:90|340:90|341:90|341:90|340:91,1,253.203571939974,6|2,0:0|0:0,0:0:0:0:
56,135,123069,6,0,P|124:170|185:152,1,112.5,6|10,3:2|0:0,0:0:0:0:
248,141,123420,1,10,0:0:0:0:
248,141,123537,2,0,P|240:188|235:235,1,56.25,2|0,3:2|0:0,0:0:0:0:
233,335,123772,2,0,P|225:288|220:241,1,56.25,10|0,0:0|0:0,0:0:0:0:
157,166,124006,2,0,P|101:167|55:198,1,112.5,2|10,3:2|0:0,0:0:0:0:
102,360,124475,2,0,P|129:311|125:255,1,112.5,2|10,3:2|0:0,0:0:0:0:
91,370,124944,6,0,P|138:378|185:383,1,56.25,6|0,3:2|0:0,0:0:0:0:
282,341,125179,2,0,P|235:348|188:353,1,56.25,10|10,0:0|0:0,0:0:0:0:
207,265,125412,1,2,3:2:0:0:
358,332,125647,1,10,0:0:0:0:
354,171,125881,2,0,P|414:156|435:211,1,114.750002188683,6|8,3:2|0:0,0:0:0:0:
327,170,126350,6,0,B|326:168|326:168|327:168|328:167|328:167|329:166|329:166|330:165|331:165|331:165|331:164|330:163|330:163|332:161|332:161|332:160|331:159|331:159|332:159|333:159|333:159|334:158|335:157|335:157|336:157|337:157|337:157|336:156|336:155|336:155|338:153|338:153|338:152|337:151|337:151|338:151|339:151|339:151|341:150|341:150|343:150|343:150|343:148|343:147|343:147|344:147|345:146|345:146|345:145|345:144|345:144|346:144|347:144|347:144|349:143|349:143|350:143|350:143|350:143|351:142|351:141|351:141|353:140|353:140|353:139|353:138|353:138|354:138|355:139|355:139|356:138|357:137|357:137|358:138|359:138|359:138|359:137|360:136|360:136|362:135|362:135|362:134|362:133|362:133|363:134|364:134|364:134|366:134|366:134|368:134|368:134|369:133|369:133|369:133|370:132|371:132|371:132|372:131|372:130|372:130|373:131|374:131|374:131|376:131|376:131|377:131|377:132|377:132|378:131|378:130|378:130|381:130|381:130|382:128|382:128|383:129|384:130|384:130|385:130|386:130|386:130|387:130|387:131|387:131|388:130|389:129|389:129|391:129|391:129|391:129|392:128|392:128|393:129|393:130|393:130|396:130|396:130|397:131|397:131|398:131|399:130|399:130|400:130|401:130|401:130|402:130|403:129|403:129|403:130|404:131|404:131|406:131|406:131|406:132|407:133|407:133|407:133|408:132|408:132|410:133|410:133|412:132|412:132|413:133|413:134|413:134|414:134|415:135|415:135|416:136|416:136|416:136|417:136|418:136|418:136|420:137|420:137|421:136|422:136|422:136|422:137|422:138|422:138|424:139|424:139|424:141|424:141|425:141|427:141|427:141|428:141|428:142|428:142|429:142|430:141|430:141|431:142|431:143|431:143|432:145|432:145|432:146|432:147|432:147|433:147|434:147|434:147|436:148|436:148|438:148|438:148|438:149|438:150|438:150|439:151|440:152|440:152|440:153|439:154|439:154|440:154|441:154|441:154|443:155|443:155|444:156|445:156|445:156|445:157|444:158|444:158|446:159|446:159|445:161|445:161|446:162|447:162|447:162|448:163|449:164|449:164|449:164|450:164|450:164|450:165|450:166|450:166|451:168|451:168|450:169|450:170|450:170|451:170|452:171|452:171|453:173|453:173|454:174|454:174|454:175|454:175|454:175|454:177|454:178|454:178|454:179|453:179|453:179|454:180|455:180|455:180|456:182|456:182|456:183|457:183|457:183|457:184|456:185|456:185|456:187|456:187|455:189|455:189|456:189|457:190|457:190|457:191|457:193|457:193|458:193|459:194|459:194|458:194|457:195|457:195|457:197|457:197|457:198|456:199|456:199|457:199|457:200|457:200|457:202|457:202|458:204|458:204|457:205|457:205|457:205|457:206|457:208|457:208|456:208|455:209|455:209|455:209|456:210|456:210|456:211|455:213|455:213|457:214|457:214|455:214,1,253.157062827211,6|0,3:2|0:0,0:0:0:0:
371,256,126819,6,0,P|324:264|277:269,1,56.25,6|0,3:2|0:0,0:0:0:0:
197,195,127054,2,0,P|244:202|291:207,1,56.25,10|10,0:0|0:0,0:0:0:0:
286,337,127287,2,0,P|239:345|192:350,1,56.25,2|0,3:2|0:0,0:0:0:0:
88,344,127522,2,0,P|135:351|182:356,1,56.25,10|0,0:0|0:0,0:0:0:0:
200,178,127756,2,0,P|132:143|56:196,1,168.75,2|10,3:2|0:0,0:0:0:0:
60,272,128224,2,0,P|106:266|152:257,1,56.25,2|0,3:2|0:0,0:0:0:0:
264,231,128459,2,0,P|292:227|320:224,1,56.25,10|0,0:0|0:0,0:0:0:0:
381,311,128694,6,0,P|334:303|287:298,1,56.25,6|0,3:2|0:0,0:0:0:0:
186,382,128929,2,0,P|233:374|280:369,1,56.25,10|10,0:0|0:0,0:0:0:0:
351,384,129162,1,2,3:2:0:0:
173,308,129397,1,10,0:0:0:0:
285,233,129631,2,0,P|227:199|177:218,1,114.750002188683,6|8,3:2|0:0,0:0:0:0:
278,114,130100,6,0,B|276:114|276:114|276:113|276:112|276:112|274:111|274:111|274:110|274:109|274:109|273:109|272:110|272:110|270:109|270:109|268:109|268:109|267:108|267:107|267:107|266:107|265:106|265:106|265:105|264:104|264:104|263:105|262:105|262:105|261:104|261:104|260:105|259:105|259:105|258:104|258:103|258:103|256:103|256:103|255:101|255:101|254:102|253:102|253:102|252:102|251:102|251:102|250:102|249:103|249:103|249:102|248:101|248:101|246:101|246:101|245:100|245:99|245:99|244:100|243:100|243:100|241:100|241:100|240:102|240:102|239:101|238:100|238:100|237:100|236:100|236:100|235:99|234:99|234:99|234:99|233:100|233:100|231:100|231:100|230:101|230:102|230:102|229:101|228:101|228:101|226:101|226:101|224:100|224:100|224:101|223:102|223:102|222:102|221:102|221:102|220:103|220:104|220:104|219:103|218:103|218:103|216:103|216:103|215:103|214:102|214:102|214:103|213:104|213:104|212:105|212:105|211:107|211:107|210:107|209:106|209:106|208:107|207:107|207:107|206:107|205:106|205:106|205:107|204:108|204:108|203:109|203:109|202:110|202:111|202:111|201:111|200:111|200:111|198:112|198:112|196:112|196:112|196:113|196:114|196:114|195:115|194:115|194:115|194:116|194:117|194:117|193:117|192:117|192:117|191:118|191:118|190:118|188:118|188:118|188:119|188:121|188:121|187:122|187:122|187:124|187:124|186:124|185:124|185:124|184:125|183:126|183:126|182:126|182:126|182:126|182:127|182:128|182:128|181:130|181:130|181:131|181:132|181:132|180:132|179:132|179:132|178:134|178:134|176:134|176:134|176:135|177:136|177:136|176:137|176:138|176:138|176:139|177:140|177:140|176:141|175:141|175:141|174:143|174:143|173:143|172:144|172:144|172:145|173:146|173:146|172:148|172:148|173:149|173:149|172:150|171:150|171:150|171:151|171:152|171:152|170:153|169:153|169:153|170:154|170:155|170:155|170:157|170:157|170:158|171:159|171:159|170:160|169:161|169:161|169:162|169:162|168:164|168:164|168:164|169:165|169:165|169:166|169:167|169:167|170:168|170:169|170:169|170:169|169:170|169:170|169:172|169:172|169:173|168:174|168:174|169:175|169:176|169:176|170:177|170:177|171:178|171:178|171:179|170:180|170:180|170:181|171:182|171:182|169:184|169:184|170:184|171:185|171:185|172:187|172:187|173:188|174:188|174:188|173:190|173:191|173:191|173:192|173:192|173:194|173:194|174:194|174:194|174:194|175:195|175:196|175:196|177:197|177:197|177:198|177:199|177:199|178:201|178:201|177:202|177:203|177:203|178:203|179:203|179:203|180:204|180:205|180:205|181:205|182:205|182:205|182:206|182:207|182:207|183:209|183:209|183:210|183:211|183:211|185:211|185:211|186:213|186:213|187:213|188:213|188:213|188:214|188:215,1,251.191315634995,4|0,3:2|0:0,0:0:0:0:
143,288,130569,6,0,P|96:296|49:301,1,56.25,6|0,3:2|0:0,0:0:0:0:
55,230,130804,1,10,0:0:0:0:
13,113,131037,2,0,P|41:116|68:118,1,56.25,2|0,3:2|0:0,0:0:0:0:
47,32,131272,1,10,0:0:0:0:
137,17,131506,2,0,P|184:44|209:94,1,112.5,2|0,3:2|0:0,0:0:0:0:
217,172,131857,1,8,0:0:0:0:
217,172,131974,2,0,P|244:168|272:162,1,56.25,2|0,3:2|0:0,0:0:0:0:
372,142,132209,2,0,P|399:146|427:151,1,56.25,10|0,0:0|0:0,0:0:0:0:
412,232,132444,6,0,P|365:224|318:219,1,56.25,6|0,3:2|0:0,0:0:0:0:
356,65,132679,2,0,P|403:58|450:53,1,56.25,10|10,0:0|0:0,0:0:0:0:
493,93,132912,1,2,3:2:0:0:
372,142,133147,1,10,0:0:0:0:
185,211,133381,2,0,P|187:152|244:108,1,114.750002188683,6|8,3:2|0:0,0:0:0:0:
315,157,133850,6,0,B|313:156|313:156|314:155|314:154|314:154|313:152|313:152|314:151|314:151|314:151|313:150|312:150|312:150|311:148|311:148|309:147|309:147|310:146|310:145|310:145|309:144|309:143|309:143|309:142|309:141|309:141|308:141|307:141|307:141|306:139|306:139|305:139|304:139|304:139|304:138|305:137|305:137|303:135|303:135|303:133|303:133|302:133|301:133|301:133|300:132|300:131|300:131|299:131|298:131|298:131|298:130|298:129|298:129|296:128|296:128|296:127|296:126|296:126|295:126|294:126|294:126|292:125|292:125|290:125|290:125|290:124|290:123|290:123|289:122|288:121|288:121|288:120|288:119|288:119|287:120|286:120|286:120|284:119|284:119|283:119|282:119|282:119|282:118|282:117|282:117|280:117|280:117|279:115|279:115|278:115|277:115|277:115|276:115|275:114|275:114|274:115|273:115|273:115|273:114|272:114|272:114|271:113|271:113|270:112|269:111|269:111|268:112|267:112|267:112|266:112|266:112|264:113|264:113|263:112|263:111|263:111|261:111|260:111|260:111|260:110|259:109|259:109|258:110|258:110|258:110|256:110|256:110|255:111|254:111|254:111|253:111|252:110|252:110|251:110|251:110|249:108|249:108|249:109|248:110|248:110|247:110|246:110|246:110|245:111|244:112|244:112|244:111|243:110|243:110|241:110|241:110|240:110|239:109|239:109|238:110|237:111|237:111|236:111|236:111|235:113|235:113|234:113|233:112|233:112|232:112|231:113|231:113|230:112|229:112|229:112|229:113|228:113|228:113|226:114|226:114|226:115|225:116|225:116|224:116|223:116|223:116|222:116|222:116|220:115|220:115|219:116|219:117|219:117|218:118|217:118|217:118|217:120|217:120|216:120|215:120|215:120|213:121|213:121|212:121|211:120|211:120|211:122|210:123|210:123|210:123|209:124|209:124|209:125|209:126|209:126|208:126|207:126|207:126|205:127|205:127|204:127|203:127|203:127|203:129|203:129|201:130|201:130|201:131|201:132|201:132|200:132|199:133|199:133|199:133|199:133|197:134|196:134|196:134|196:135|196:136|196:136|195:138|195:138|195:139|195:140|195:140|194:140|193:140|193:140|192:142|192:142|191:142|190:143|190:143|190:144|191:145|191:145|190:146|190:146|190:147|190:148|190:148|189:149|188:149|188:149|188:151|188:151|187:151|186:152|186:152|186:153|186:154|186:154|186:156|186:156|186:157|187:158|187:158|186:158|185:159|185:159|185:159|184:160|184:160|183:161|183:161|183:161|183:162|184:163|184:163|183:165|183:165|184:166|184:167|184:167|183:168|183:168|183:168|182:170|182:170|182:171|181:172|181:172|181:172|182:173|182:173|182:174|182:175|182:175|183:176|183:177|183:177|183:178|182:179|182:179|182:180|182:180|181:181|181:181|181:181|181:182|182:182|182:182|182:185|182:185|183:186|184:186|184:186|183:187|183:188,1,250.779495692398,6|0,3:2|0:0,0:0:0:0:
106,370,134319,6,0,P|114:323|119:276,1,56.25,6|0,3:2|0:0,0:0:0:0:
113,232,134552,1,10,0:0:0:0:
306,352,134787,2,0,P|269:321|231:293,1,56.25,2|0,3:2|0:0,0:0:0:0:
189,277,135022,1,10,0:0:0:0:
387,175,135256,2,0,P|342:191|299:210,1,56.25,2|0,3:2|0:0,0:0:0:0:
263,238,135489,1,10,0:0:0:0:
271,11,135724,2,0,P|263:58|258:105,1,56.25,2|0,3:2|0:0,0:0:0:0:
264,150,135959,1,10,0:0:0:0:
73,261,136194,6,0,P|81:214|86:167,1,56.25,6|0,3:2|0:0,0:0:0:0:
136,375,136428,2,0,P|131:328|124:281,1,56.25,10|10,0:0|0:0,0:0:0:0:
225,335,136662,2,0,P|222:308|218:280,1,56.25,2|0,3:2|0:0,0:0:0:0:
162,221,136896,2,0,P|167:194|171:166,1,56.25,10|0,0:0|0:0,0:0:0:0:
90,93,137131,2,0,P|94:68|92:96,1,112.05000162426,6|8,3:2|0:0,0:0:0:0:
32,21,137600,6,0,B|32:19|32:19|34:19|34:19|35:17|35:17|37:17|37:17|37:16|37:15|37:15|38:14|39:14|39:14|39:13|39:11|39:11|40:11|41:11|41:11|42:10|42:10|43:10|44:10|44:10|45:9|45:8|45:8|46:7|46:7|46:5|46:5|47:5|48:5|48:5|50:4|50:4|52:4|52:4|52:3|52:2|52:2|54:1|54:1|55:-1|55:-1|56:-1|57:-1|57:-1|58:-2|58:-2|60:-1|60:-1|61:-2|61:-3|61:-3|63:-4|63:-4|63:-5|63:-6|63:-6|64:-6|65:-6|65:-6|66:-6|68:-7|68:-7|68:-6|69:-6|69:-6|70:-7|70:-8|70:-8|72:-9|72:-9|72:-10|73:-10|73:-10|74:-10|74:-10|74:-10|76:-10|76:-10|77:-10|78:-9|78:-9|79:-10|79:-11|79:-11|81:-12|81:-12|82:-13|82:-14|82:-14|84:-13|85:-13|85:-13|86:-13|86:-13|88:-12|88:-12|88:-13|89:-14|89:-14|91:-14|91:-14|91:-15|92:-16|92:-16|93:-15|93:-15|93:-15|96:-15|96:-15|97:-14|97:-14|98:-15|99:-16|99:-16|101:-16|101:-16|101:-17|102:-17|102:-17|103:-17|104:-16|104:-16|106:-16|106:-16|106:-15|107:-15|107:-15|108:-15|109:-16|109:-16|111:-16|111:-16|111:-17|112:-18|112:-18|113:-17|114:-16|114:-16|116:-16|116:-16|116:-15|117:-14|117:-14|118:-15|119:-16|119:-16|120:-16|121:-16|121:-16|122:-16|122:-17|122:-17|123:-16|124:-15|124:-15|126:-15|126:-15|126:-14|127:-13|127:-13|128:-14|129:-14|129:-14|130:-14|130:-14|131:-15|132:-15|132:-15|133:-14|133:-13|133:-13|135:-13|135:-13|136:-12|137:-11|137:-11|138:-12|138:-12|138:-12|140:-11|140:-11|142:-12|142:-12|143:-11|143:-10|143:-10|145:-10|145:-10|145:-8|145:-8|146:-9|147:-9|147:-9|150:-8|150:-8|152:-9|152:-9|152:-8|152:-7|152:-7|154:-6|154:-6|155:-4|155:-4|156:-4|157:-5|157:-5|159:-4|159:-4|160:-4|161:-4|161:-4|161:-3|161:-2|161:-2|162:-1|163:-1|163:-1|163:0|164:1|164:1|164:1|165:1|165:1|167:2|167:2|168:2|169:1|169:1|169:2|169:3|169:3|171:4|171:4|171:6|171:7|171:7|172:7|173:7|173:7|175:8|175:8|176:8|177:8|177:8|177:9|178:10|178:10|179:11|179:11|179:13|179:13|181:13|181:13|182:15|182:15|183:15|184:15|184:15|184:16|184:17|184:17|186:18|186:18|185:20|185:20|186:21|187:21|187:21|189:22|189:22|190:22|191:23|191:23|191:24|191:25|191:25|192:26|192:26|192:27|191:28|191:28|192:29|193:29|193:29|195:30|195:30|196:31|197:31|197:31|196:32|196:33|196:33|197:35|197:35|197:36|197:37|197:37|198:37|199:37|199:37|199:38|199:39|199:39|200:39|201:40|201:40|201:41|200:41,1,251.027814658224,4|0,0:0|0:0,0:0:0:0:
186,150,138069,6,0,B|186:152|186:152|184:152|184:152|183:154|183:154|181:154|181:154|181:155|181:156|181:156|180:157|179:157|179:157|179:158|179:160|179:160|178:160|177:160|177:160|176:161|176:161|175:161|174:161|174:161|173:162|173:163|173:163|172:164|172:164|172:166|172:166|171:166|170:166|170:166|168:167|168:167|166:167|166:167|166:168|166:169|166:169|164:170|164:170|163:172|163:172|162:172|161:172|161:172|160:173|160:173|158:172|158:172|157:173|157:174|157:174|155:175|155:175|155:176|155:177|155:177|154:177|153:177|153:177|152:177|150:178|150:178|150:177|149:177|149:177|148:178|148:179|148:179|146:180|146:180|146:181|145:181|145:181|144:181|144:181|144:181|142:181|142:181|141:181|140:180|140:180|139:181|139:182|139:182|137:183|137:183|136:184|136:185|136:185|134:184|133:184|133:184|132:184|132:184|130:183|130:183|130:184|129:185|129:185|127:185|127:185|127:186|126:187|126:187|125:186|125:186|125:186|122:186|122:186|121:185|121:185|120:186|119:187|119:187|117:187|117:187|117:188|116:188|116:188|115:188|114:187|114:187|112:187|112:187|112:186|111:186|111:186|110:186|109:187|109:187|107:187|107:187|107:188|106:189|106:189|105:188|104:187|104:187|102:187|102:187|102:186|101:185|101:185|100:186|99:187|99:187|98:187|97:187|97:187|96:187|96:188|96:188|95:187|94:186|94:186|92:186|92:186|92:185|91:184|91:184|90:185|89:185|89:185|88:185|88:185|87:186|86:186|86:186|85:185|85:184|85:184|83:184|83:184|82:183|81:182|81:182|80:183|80:183|80:183|78:182|78:182|76:183|76:183|75:182|75:181|75:181|73:181|73:181|73:179|73:179|72:180|71:180|71:180|68:179|68:179|66:180|66:180|66:179|66:178|66:178|64:177|64:177|63:175|63:175|62:175|61:176|61:176|59:175|59:175|58:175|57:175|57:175|57:174|57:173|57:173|56:172|55:172|55:172|55:171|54:170|54:170|54:170|53:170|53:170|51:169|51:169|50:169|49:170|49:170|49:169|49:168|49:168|47:167|47:167|47:165|47:164|47:164|46:164|45:164|45:164|43:163|43:163|42:163|41:163|41:163|41:162|40:161|40:161|39:160|39:160|39:158|39:158|37:158|37:158|36:156|36:156|35:156|34:156|34:156|34:155|34:154|34:154|32:153|32:153|33:151|33:151|32:150|31:150|31:150|29:149|29:149|28:149|27:148|27:148|27:147|27:146|27:146|26:145|26:145|26:144|27:143|27:143|26:142|25:142|25:142|23:141|23:141|22:140|21:140|21:140|22:139|22:138|22:138|21:136|21:136|21:135|21:134|21:134|20:134|19:134|19:134|19:133|19:132|19:132|18:132|17:131|17:131|17:130|18:130,1,251.02781465707,6|8,3:2|0:0,0:0:0:0:
32,22,138537,6,0,P|79:14|126:9,1,56.25,2|0,3:2|0:0,0:0:0:0:
200,41,138772,2,0,P|247:49|294:54,1,56.25,10|0,0:0|0:0,0:0:0:0:
332,74,139006,2,0,P|336:136|334:230,1,112.5,2|0,3:2|0:0,0:0:0:0:
244,249,139358,1,8,0:0:0:0:
244,249,139475,2,0,P|239:186|241:92,1,112.5,2|8,3:2|0:0,0:0:0:0:
145,141,139944,6,0,P|98:149|51:154,1,56.25,6|0,3:2|0:0,0:0:0:0:
157,216,140178,2,0,P|129:220|101:225,1,56.25,2|10,0:0|0:0,0:0:0:0:
12,300,140412,2,0,P|59:308|106:313,1,56.25,2|0,3:2|0:0,0:0:0:0:
0,375,140646,2,0,P|27:379|55:384,1,56.25,10|0,0:0|0:0,0:0:0:0:
204,280,140881,2,0,P|214:302|205:276,1,114.750002188683,6|8,3:2|0:0,0:0:0:0:
251,384,141350,6,0,B|252:382|252:382|254:383|254:383|256:383|256:383|258:384|258:384|258:383|259:382|259:382|260:382|261:381|261:381|261:380|262:379|262:379|263:380|263:380|263:380|265:380|265:380|266:380|267:380|267:380|268:380|268:379|268:379|270:378|270:378|271:376|271:376|272:376|273:376|273:376|274:376|274:376|276:376|277:376|277:376|277:375|277:374|277:374|279:373|279:373|279:372|279:371|279:371|280:372|281:372|281:372|283:371|283:371|284:371|285:371|285:371|285:370|286:369|286:369|287:368|287:368|288:367|288:366|288:366|289:366|290:366|290:366|291:366|291:365|291:365|292:365|293:365|293:365|294:364|294:363|294:363|295:362|295:362|295:361|295:360|295:360|296:360|297:360|297:360|298:359|299:358|299:358|300:358|301:358|301:358|301:357|301:356|301:356|302:355|302:355|302:354|302:353|302:353|303:353|305:353|305:353|306:351|306:351|308:351|308:351|308:350|308:349|308:349|309:347|309:347|309:346|309:345|309:345|310:345|311:345|311:345|312:343|312:343|313:343|314:343|314:343|314:342|313:341|313:341|315:339|315:339|314:338|314:337|314:337|315:337|316:336|316:336|317:335|317:335|318:334|319:334|319:334|319:333|319:332|319:332|319:331|319:330|319:330|319:329|319:328|319:328|320:328|321:328|321:328|321:326|321:326|322:325|323:325|323:325|323:324|323:323|323:323|323:322|323:322|323:321|322:320|322:320|323:319|324:318|324:318|325:316|325:316|326:316|327:315|327:315|326:314|326:313|326:313|326:311|326:311|325:310|325:310|326:309|327:309|327:309|327:307|327:307|329:306|329:306|329:305|328:305|328:305|328:302|328:302|327:300|327:300|328:299|329:299|329:299|329:297|329:297|330:296|331:295|331:295|330:295|329:294|329:294|329:292|329:292|329:291|328:290|328:290|329:289|330:289|330:289|330:288|330:287|330:287|330:286|331:285|331:285|330:284|330:284|330:284|329:282|329:282|329:281|328:280|328:280|329:280|329:279|329:279|329:278|329:278|330:277|331:276|331:276|330:275|329:274|329:274|329:272|329:272|328:271|327:270|327:270|327:270|328:269|328:269|328:267|328:267|329:265|329:265|328:265|327:264|327:264|327:262|327:262|325:261|325:261|326:261|326:260|326:260|325:257|325:257|326:255|326:255|325:255|324:254|324:254|324:252|324:252|322:252|322:252|322:251|323:250|323:250|322:248|322:248|322:247|323:246|323:246|322:245|321:245|321:245|320:244|320:243|320:243|319:243|318:242|318:242|318:241|319:241|319:241|318:239|318:239|318:238|318:237|318:237|317:236|316:236|316:236|316:235|316:235|314:234|313:234|313:234|313:233|313:231|313:231|312:230|312:230|313:229|313:228|313:228|312:228|311:228|311:228|309:226|309:226|308:226|307:226|307:226|308:224,1,250.734669758102,6|0,3:2|0:0,0:0:0:0:
199,187,141819,6,0,B|198:189|198:189|196:188|196:188|194:188|194:188|192:187|192:187|192:188|191:189|191:189|190:189|189:189|189:189|189:190|188:191|188:191|187:191|186:190|186:190|185:191|185:191|184:191|183:190|183:190|182:191|182:192|182:192|180:193|180:193|179:195|179:195|178:194|177:194|177:194|175:195|175:195|174:195|173:194|173:194|173:195|173:196|173:196|171:197|171:197|171:198|170:199|170:199|169:199|168:199|168:199|167:200|167:200|165:199|165:199|165:199|164:200|164:201|164:201|162:202|162:202|162:203|162:204|162:204|161:204|160:204|160:204|159:205|158:205|158:205|157:205|156:205|156:205|156:206|156:207|156:207|154:209|154:209|154:210|154:211|154:211|153:210|152:210|152:210|151:211|151:211|150:211|149:211|149:211|149:213|149:214|149:214|147:215|147:215|147:216|147:217|147:217|146:218|145:218|145:218|144:219|144:219|142:219|142:219|142:220|142:221|142:221|141:223|141:223|141:225|141:225|140:225|139:225|139:225|138:227|138:227|136:227|136:227|136:228|136:229|136:229|135:231|135:231|135:232|135:233|135:233|134:233|133:234|133:234|132:235|132:235|131:236|130:236|130:236|130:237|131:238|131:238|130:239|130:240|130:240|130:241|130:242|130:242|129:242|129:242|129:242|128:244|128:244|127:245|126:245|126:245|126:246|127:247|127:247|126:248|126:248|126:249|127:250|127:250|126:251|125:252|125:252|124:254|124:254|123:254|122:255|122:255|123:256|123:257|123:257|123:258|123:258|124:260|124:260|123:261|122:261|122:261|122:263|122:263|120:264|120:264|120:265|121:265|121:265|121:268|121:268|122:270|122:270|121:270|120:271|120:271|120:273|120:273|118:274|118:274|119:275|120:276|120:276|119:278|119:278|120:279|121:280|121:280|120:280|119:281|119:281|119:282|119:283|119:283|119:284|118:285|118:285|119:285|119:286|119:286|119:288|119:288|120:289|121:289|121:289|120:290|119:291|119:291|120:292|120:292|119:293|118:294|118:294|119:295|120:296|120:296|120:298|120:298|121:299|122:299|122:299|121:300|121:301|121:301|121:303|121:303|120:305|120:305|121:305|122:306|122:306|122:308|122:308|124:309|124:309|123:309|123:310|123:310|123:313|123:313|123:315|123:315|123:315|124:315|124:315|125:317|125:317|127:318|127:318|126:319|126:320|126:320|127:322|127:322|126:323|126:324|126:324|127:324|128:325|128:325|129:326|129:327|129:327|130:327|131:328|131:328|131:328|130:329|130:329|131:331|131:331|131:332|131:333|131:333|132:333|133:334|133:334|133:335|133:335|134:335|135:336|135:336|135:337|135:338|135:338|136:339|136:340|136:340|136:341|136:342|136:342|137:342|138:343|138:343|140:344|140:344|140:344|141:344|141:344|141:345|141:346,1,251.018672607247,6|8,3:2|0:0,0:0:0:0:
251,384,142287,6,0,P|298:376|345:371,1,56.25,2|0,3:2|0:0,0:0:0:0:
371,316,142522,2,0,P|399:320|427:326,1,56.25,10|0,0:0|0:0,0:0:0:0:
480,241,142756,2,0,P|481:185|484:129,1,112.5,2|0,3:2|0:0,0:0:0:0:
398,125,143108,1,8,0:0:0:0:
398,125,143225,2,0,P|397:181|393:237,1,112.5,2|8,3:2|0:0,0:0:0:0:
512,323,143694,6,0,P|465:331|418:336,1,56.25,6|0,3:2|0:0,0:0:0:0:
395,383,143928,2,0,P|348:375|301:370,1,56.25,2|10,0:0|0:0,0:0:0:0:
186,384,144162,2,0,P|233:376|280:371,1,56.25,2|0,3:2|0:0,0:0:0:0:
284,299,144396,2,0,P|311:292|339:288,1,56.25,10|0,0:0|0:0,0:0:0:0:
508,356,144631,2,0,P|473:377|499:346,1,114.750002188683,6|8,3:2|0:0,0:0:0:0:
489,365,145100,6,0,B|489:363|489:363|491:363|491:363|493:361|493:361|495:361|495:361|495:360|495:359|495:359|496:358|496:358|496:357|496:356|496:356|497:356|498:356|498:356|499:354|499:354|500:354|501:353|501:353|501:352|501:351|501:351|502:350|502:350|502:348|502:348|504:347|504:347|505:346|505:346|506:346|507:345|507:345|507:344|507:343|507:343|508:342|508:342|507:340|507:340|508:339|509:339|509:339|510:337|510:337|512:337|512:337|512:336|511:335|511:335|512:333|512:333|511:331|511:331|512:330|513:330|513:330|514:328|514:328|515:328|516:327|516:327|516:326|515:325|515:325|516:323|516:323|515:322|515:322|515:322|516:321|517:321|517:321|517:319|517:319|518:318|519:318|519:318|519:317|518:316|518:316|519:314|519:314|518:313|517:312|517:312|518:311|519:311|519:311|519:310|520:308|520:308|521:308|521:307|521:307|521:307|520:306|520:306|520:304|520:304|520:303|519:302|519:302|520:302|521:301|521:301|521:300|521:299|521:299|522:298|522:298|522:298|522:297|521:296|521:296|521:294|521:294|520:293|520:292|520:292|520:292|521:291|521:291|521:290|521:290|522:289|523:288|523:288|522:287|521:286|521:286|521:284|521:284|520:283|519:282|519:282|520:281|521:280|521:280|520:279|520:279|522:277|522:277|520:276|520:276|520:274|520:274|519:273|518:273|518:273|519:272|519:271|519:271|519:269|519:269|520:267|520:267|519:267|518:266|518:266|518:264|518:264|516:263|516:263|516:263|517:262|517:262|516:260|516:260|517:258|517:258|516:257|515:257|515:257|515:255|515:255|514:254|513:254|513:254|513:253|513:252|513:252|513:250|513:250|513:249|513:248|513:248|512:248|511:247|511:247|511:246|511:246|509:245|509:245|509:245|509:244|509:243|509:243|508:241|508:241|508:240|509:239|509:239|508:239|507:239|507:239|506:237|505:236|505:236|504:236|503:236|503:236|504:235|504:234|504:234|503:233|503:233|503:232|503:231|503:231|502:230|501:230|501:230|500:230|500:229|500:229|499:229|498:228|498:228|498:227|498:226|498:226|497:225|497:225|497:224|497:223|497:223|496:223|495:223|495:223|494:222|494:222|493:221|492:221|492:221|491:220|491:219|491:219|490:218|490:218|490:216|489:215|489:215|488:215|487:215|487:215|486:214|486:214|484:214|484:214|484:212|484:212|482:211|482:211|482:210|482:209|482:209|481:209|480:209|480:209|478:208|478:208|476:208|476:208|476:207|476:206|476:206|474:205|474:205|474:203|474:203|473:204|472:204|472:204|470:203|470:203|468:203|468:203|468:202|468:202|465:200|465:200|465:199|465:198|465:198|464:199|463:199|463:199|461:198|461:198|460:199|459:199|459:199|459:197,1,250.781763400325,4|0,3:2|0:0,0:0:0:0:
335,182,145569,6,0,B|337:181|337:181|338:183|338:183|339:184|339:184|340:187|340:187|341:186|342:186|342:186|343:187|343:187|344:186|345:186|345:186|346:187|346:188|346:188|348:189|348:189|349:190|349:191|349:191|351:191|352:190|352:190|353:191|353:191|355:190|355:190|356:192|356:192|358:192|358:192|358:193|359:194|359:194|360:194|360:193|360:193|362:194|362:194|364:193|364:193|365:194|365:194|365:194|367:195|367:195|368:197|368:197|369:196|369:195|369:195|372:196|372:196|374:195|374:195|375:195|375:196|375:196|377:197|377:197|378:197|379:198|379:198|379:198|380:197|380:197|382:197|382:197|383:196|384:196|384:196|384:196|385:197|385:197|387:197|388:197|388:197|389:198|389:199|389:199|390:198|390:197|390:197|392:197|392:197|393:196|394:195|394:195|394:196|395:197|395:197|396:197|397:197|397:197|398:197|399:198|399:198|400:197|400:196|400:196|402:196|402:196|403:195|403:194|403:194|404:195|405:196|405:196|406:195|406:195|408:196|409:196|409:196|409:196|410:195|410:195|412:194|412:194|413:193|413:192|413:192|414:193|416:193|416:193|417:193|417:193|419:194|419:194|420:192|420:192|422:191|422:191|422:190|422:189|422:189|423:190|424:190|424:190|426:190|426:190|428:190|428:190|429:189|429:188|429:188|431:188|431:188|431:186|431:186|432:186|433:187|433:187|435:185|435:185|437:186|437:186|438:185|438:184|438:184|440:183|440:183|440:182|440:181|440:181|441:181|442:181|442:181|444:180|444:180|445:180|446:180|446:180|446:179|446:178|446:178|448:177|448:177|448:176|448:175|448:175|449:175|450:175|450:175|452:174|452:174|453:174|454:174|454:174|454:173|454:172|454:172|455:172|456:171|456:171|456:170|456:169|456:169|457:169|458:169|458:169|459:167|459:167|460:167|461:167|461:167|461:166|461:165|461:165|462:164|462:164|462:163|462:162|462:162|464:162|465:162|465:162|466:160|466:160|467:160|468:159|468:159|468:158|468:157|468:157|469:156|469:156|469:154|469:154|471:154|471:154|472:152|472:152|473:152|474:151|474:151|474:150|474:149|474:149|474:148|474:148|474:146|474:146|475:145|476:145|476:145|477:143|477:143|479:143|479:143|478:142|478:141|478:141|479:139|479:139|478:137|478:137|479:137|480:136|480:136|481:134|481:134|482:134|483:133|483:133|483:133|482:131|482:131|483:130|483:130|482:129|482:128|482:128|483:127|484:127|484:127|484:125|484:125|485:124|486:124|486:124|486:123|485:122|485:122|486:120|486:120|485:119|485:118|485:118|485:118|486:117|486:117|487:116|487:115|487:115|488:114|488:114|488:114|487:112|487:112|487:111|488:109|488:109|486:108|486:108|488:108,1,251.329429464073,6|8,3:2|0:0,0:0:0:0:
402,49,146037,6,0,P|397:76|392:104,1,56.25,2|0,3:2|0:0,0:0:0:0:
241,57,146272,2,0,P|269:61|297:67,1,56.25,10|0,0:0|0:0,0:0:0:0:
257,193,146506,2,0,P|201:194|145:197,1,112.5,2|0,3:2|0:0,0:0:0:0:
46,101,146858,1,8,0:0:0:0:
46,101,146975,2,0,P|108:105|202:103,1,112.5,2|8,3:2|0:0,0:0:0:0:
241,57,147444,6,0,P|249:104|254:151,1,56.25,6|0,3:2|0:0,0:0:0:0:
257,193,147678,1,2,0:0:0:0:
128,333,147912,2,0,P|136:286|141:239,1,56.25,2|0,3:2|0:0,0:0:0:0:
144,197,148146,1,10,0:0:0:0:
269,266,148381,2,0,P|247:231|279:256,1,114.750002188683,6|8,3:2|0:0,0:0:0:0:
424,224,148850,6,0,B|422:224|422:224|422:222|422:222|421:220|421:220|420:218|420:218|419:218|418:218|418:218|418:218|417:217|417:217|416:217|415:217|415:217|415:216|415:215|415:215|413:214|413:214|413:213|413:212|413:212|412:212|411:212|411:212|409:211|409:211|407:211|407:211|407:210|407:209|407:209|405:208|405:208|405:207|405:206|405:206|403:206|403:206|403:206|401:205|401:205|400:205|399:206|399:206|399:205|398:204|398:204|396:203|396:203|396:202|396:201|396:201|395:201|394:201|394:201|392:200|392:200|391:201|390:201|390:201|390:200|389:199|389:199|388:199|387:198|387:198|387:197|387:196|387:196|386:197|385:197|385:197|383:197|383:197|382:197|381:198|381:198|380:197|380:196|380:196|379:195|379:195|378:194|377:193|377:193|376:194|375:194|375:194|373:194|373:194|372:194|371:195|371:195|371:194|370:193|370:193|368:193|368:193|367:191|367:191|366:192|365:192|365:192|363:192|363:192|362:193|362:193|362:192|361:192|361:192|358:191|358:191|357:190|357:190|356:190|355:191|355:191|353:191|353:191|352:192|352:192|352:192|351:192|350:191|350:191|348:191|348:191|348:190|347:190|347:190|346:190|345:191|345:191|344:191|343:191|343:191|343:192|342:193|342:193|341:192|340:191|340:191|338:192|338:192|338:191|337:190|337:190|336:191|335:192|335:192|334:192|334:192|333:193|333:194|333:194|332:193|330:193|330:193|329:193|329:193|328:193|327:192|327:192|326:193|325:194|325:194|324:194|324:194|323:196|323:196|322:196|321:195|321:195|319:196|319:196|317:195|317:195|317:195|317:196|317:196|314:197|314:197|313:199|313:199|312:199|311:198|311:198|309:199|309:199|308:198|308:198|307:199|307:200|307:200|305:201|305:201|305:202|304:203|304:203|303:203|302:203|302:203|301:203|300:204|300:204|299:203|298:203|298:203|298:204|298:205|298:205|296:206|296:206|296:207|296:208|296:208|295:208|294:208|294:208|293:208|293:208|291:208|290:208|290:208|290:209|290:211|290:211|288:212|288:212|288:213|288:214|288:214|286:214|285:214|285:214|284:215|284:215|282:215|282:215|282:217|282:217|280:218|280:218|281:220|281:220|280:220|279:220|279:220|277:222|277:222|275:222|275:222|275:223|275:224|275:224|273:225|273:225|274:228|274:228|273:228|272:228|272:228|270:229|270:229|269:229|268:230|268:230|268:231|268:232|268:232|268:233|267:234|267:234|267:235|267:236|267:236|267:236|266:236|266:236|264:237|264:237|263:238|262:238|262:238|263:239|263:240|263:240|262:241|262:241|262:242|263:243|263:243|261:244|260:244|260:244|260:245|260:246|260:246|258:247|257:247|257:247|258:248|258:249|258:249|257:251|257:251|258:252|258:253|258:253|256:253,1,251.002625413709,6|0,3:2|0:0,0:0:0:0:
345,331,149319,6,0,B|347:331|347:331|347:333|347:333|349:335|349:335|349:337|349:337|350:337|351:337|351:337|352:338|352:338|353:338|354:338|354:338|354:339|354:340|354:340|356:341|356:341|356:342|357:343|357:343|358:343|359:343|359:343|360:344|360:344|362:344|362:344|362:346|362:346|364:347|364:347|364:348|365:349|365:349|366:349|367:349|367:349|368:350|368:350|370:349|370:349|371:350|371:351|371:351|373:352|373:352|373:354|373:354|374:353|375:353|375:353|377:354|377:354|379:353|379:353|380:354|380:355|380:355|382:356|382:356|382:357|383:358|383:358|384:358|385:357|385:357|387:358|387:358|388:357|388:357|388:357|389:358|389:359|389:359|391:359|391:359|392:360|392:361|392:361|393:361|394:360|394:360|396:360|396:360|397:360|398:359|398:359|399:360|399:361|399:361|400:361|401:362|401:362|402:362|403:363|403:363|403:363|404:362|404:362|406:362|406:362|407:362|408:361|408:361|408:362|409:363|409:363|411:363|411:363|412:364|412:364|412:364|413:364|414:363|414:363|416:363|416:363|417:362|418:362|418:362|418:362|419:363|419:363|420:363|421:363|421:363|422:364|423:364|423:364|423:364|424:363|424:363|426:363|426:363|427:362|428:361|428:361|428:362|429:362|429:362|431:362|431:362|433:363|433:363|434:362|434:362|436:362|436:362|437:360|437:360|438:360|439:361|439:361|441:361|441:361|443:362|443:362|443:361|444:360|444:360|446:359|446:359|446:358|447:358|447:358|448:358|449:359|449:359|450:358|450:358|451:358|452:359|452:359|453:358|453:357|453:357|455:356|455:356|456:354|456:354|457:355|458:355|458:355|460:354|460:354|461:355|462:355|462:355|462:354|463:353|463:353|464:352|465:352|465:352|465:351|465:350|465:350|466:350|467:351|467:351|469:350|469:350|470:350|471:350|471:350|471:349|471:348|471:348|472:348|473:347|473:347|473:346|473:345|473:345|474:345|476:345|476:345|477:344|477:344|478:344|479:345|479:345|479:344|480:343|480:343|481:342|481:342|481:341|481:339|481:339|482:339|483:339|483:339|485:338|485:338|486:338|487:338|487:338|488:337|488:336|488:336|489:335|489:335|489:333|489:333|491:333|491:333|492:331|492:331|493:331|494:331|494:331|494:330|494:329|494:329|495:327|495:327|495:325|495:325|496:325|497:325|497:325|499:324|499:324|501:323|501:323|500:323|500:322|500:322|502:319|502:319|501:317|501:317|502:317|503:317|503:317|504:315|504:315|505:315|506:315|506:315|506:314|506:313|506:313|507:311|507:311|507:310|506:309|506:309|507:309|508:308|508:308|509:307|509:307|510:306|511:306|511:306|511:305|510:304|510:304|511:303|511:303|511:302|510:301|510:301|512:300,1,250.675156662171,6|8,3:2|0:0,0:0:0:0:
511,192,149787,6,0,P|506:164|500:137,1,56.25,2|0,3:2|0:0,0:0:0:0:
416,122,150022,2,0,P|422:94|425:67,1,56.25,10|0,0:0|0:0,0:0:0:0:
326,49,150256,2,0,P|270:50|214:53,1,112.5,2|0,3:2|0:0,0:0:0:0:
202,140,150608,1,8,0:0:0:0:
202,140,150725,2,0,P|140:136|46:138,1,112.5,2|8,3:2|0:0,0:0:0:0:
0,0,151194,6,0,P|37:7|73:11,1,56.25,6|0,3:2|0:0,0:0:0:0:
141,18,151428,1,2,0:0:0:0:
61,141,151662,6,0,P|24:147|-12:151,1,56.25,2|0,0:0|0:0,0:0:0:0:
0,224,151896,1,2,0:0:0:0:
52,317,152131,6,0,P|56:292|54:320,1,114.750002188683,6|8,3:2|0:0,0:0:0:0:
70,309,152600,6,0,B|70:307|70:307|72:307|72:307|73:305|73:305|75:305|75:305|75:303|75:303|77:301|77:301|76:299|76:299|79:299|79:299|80:298|80:298|82:297|82:297|82:295|82:295|83:294|83:294|83:292|83:292|85:292|85:292|86:290|86:290|88:290|88:290|88:288|88:288|90:286|90:286|90:284|90:284|92:284|92:284|93:283|93:283|95:282|95:282|95:280|95:280|96:279|96:279|96:277|96:277|98:277|98:277|99:275|99:275|101:275|101:275|101:273|101:273|103:271|103:271|105:270|105:270|106:272|106:272|107:272|107:272|108:274|108:274|110:273|110:273|112:274|112:274|114:273|114:273|115:275|115:275|117:275|117:275|118:277|118:277|120:276|120:276|122:277|122:277|124:276|124:276|125:278|125:278|127:278|127:278|128:280|128:280|129:279|129:279|131:280|131:280|133:279|133:279|134:281|134:281|136:281|136:281|137:283|137:283|139:282|139:282|141:283|141:283|143:282|143:282|144:284|144:284|146:284|146:284|147:286|147:286|149:285|149:285|150:286|150:286|152:285|152:285|153:287|153:287|155:287|155:287|156:289|156:289|158:288|158:288|160:289|160:289|162:288|162:288|163:290|163:290|165:290|165:290|166:292|166:292|168:291|168:291|169:292|169:292|171:291|171:291|172:293|172:293|174:293|174:293|175:295|175:295|177:294|177:294|179:295|179:295|181:294|181:294|182:296|182:296|184:296|184:296|185:298|185:298|187:297|187:297|189:298|189:298|190:297|190:297|191:299|191:299|193:299|193:299|194:301|194:301|196:300|196:300|198:301|198:301|200:300|200:300|201:302|201:302|203:302|203:302|204:304|204:304|206:303|206:303|208:304|208:304|210:303|210:303|211:305|211:305|212:305|212:305|213:307|213:307|215:306|215:306|217:307|217:307|219:306|219:306|220:308|220:308|222:308|222:308|223:310|223:310|225:309|225:309|227:310|227:310|228:309|228:309|229:310|229:310|231:311|231:311|233:311|233:311|233:308|233:308|235:307|235:307|235:305|235:305|237:305|237:305|238:303|238:303|240:303|240:303|240:301|240:301|241:299|241:299|241:297|241:297|243:297|243:297|245:296|245:296|247:296|247:296|247:293|247:293|249:291|249:291|248:290|248:290|250:290|250:290|251:288|251:288|253:288|253:288|253:286|253:286|255:284|255:284|254:283|254:283|256:283|256:283|258:281|258:281|260:281|260:281|260:279|260:279|262:277|262:277|262:274|262:274|264:274,1,289.319021492843,4|0,0:0|0:0,0:0:0:0:
204,217,153069,5,6,0:0:0:0:
