osu file format v14

[General]
AudioFilename: audio.mp3
AudioLeadIn: 0
PreviewTime: 2029
Countdown: 0
SampleSet: Normal
StackLeniency: 0.7
Mode: 1
LetterboxInBreaks: 0
WidescreenStoryboard: 0

[Editor]
DistanceSpacing: 1
BeatDivisor: 4
GridSize: 32
TimelineZoom: 2.7

[Metadata]
Title:Overmomochi
TitleUnicode:オーバーモモチ
Artist:Aoyane
ArtistUnicode:あおやね
Creator:hz404
Version:Inner Oni
Source:
Tags:年の瀬合作2023 ~七色のニコニコ動画流星群~ toshi no se gassaku 2023 nanairo no niconico douga ryuuseigun オーバーライド Override 吉田夜世 yoshida yasei スロウスタート slow start 百地たまて momochi tamate anime 音mad 音窓 otomad japanese novelty
BeatmapID:4435838
BeatmapSetID:2112776

[Difficulty]
HPDrainRate:8
CircleSize:5
OverallDifficulty:7
ApproachRate:10
SliderMultiplier:1.4
SliderTickRate:1

[Events]
//Background and Video events
0,0,"bg.jpg",0,0
//Break Periods
//Storyboard Layer 0 (Background)
//Storyboard Layer 1 (Fail)
//Storyboard Layer 2 (Pass)
//Storyboard Layer 3 (Foreground)
//Storyboard Layer 4 (Overlay)
//Storyboard Sound Samples

[TimingPoints]
44,294.117647058824,4,1,0,60,1,0
2029,-100,4,1,0,80,0,0
10558,-100,4,1,0,90,0,0
10622,-100,4,1,0,90,0,0
10695,-99.3830812135553,4,1,0,90,0,0
10769,-98.7654320987654,4,1,0,90,0,0
10842,-98.1636060100167,4,1,0,90,0,0
10916,-97.5609756097561,4,1,0,90,0,0
10989,-96.9736950606086,4,1,0,90,0,0
11063,-96.3855421686747,4,1,0,90,0,0
11136,-95.8122861332899,4,1,0,90,0,0
11210,-95.2380952380952,4,1,0,90,0,0
11284,-94.6707454516181,4,1,0,90,0,0
11357,-94.1176470588235,4,1,0,90,0,0
11431,-93.5635293181637,4,1,0,90,0,0
11504,-93.0232558139535,4,1,0,90,0,0
11578,-92.4819125511167,4,1,0,90,0,0
11651,-91.9540229885057,4,1,0,90,0,0
11725,-91.4250174920314,4,1,0,90,0,0
11798,-90.9090909090909,4,1,0,90,0,0
11808,-90.9090909090909,4,1,0,90,0,1
20622,-90.9090909090909,4,1,0,90,0,1
20695,-91.9468334636435,4,1,0,90,0,1
20769,-93.0232558139535,4,1,0,90,0,1
20842,-94.1101152368758,4,1,0,90,0,1
20916,-95.2380952380952,4,1,0,90,0,1
20989,-96.3776430093427,4,1,0,90,0,1
21063,-97.5609756097561,4,1,0,90,0,1
21136,-98.7571380584481,4,1,0,90,0,1
21210,-100,4,1,0,90,0,1
21220,-100,4,1,0,90,0,0
21294,-100,4,1,0,80,0,0
30558,-100,4,1,0,60,0,0
30622,-100,4,1,0,60,0,0
30769,-101.00963849905,4,1,0,60,0,0
31063,-103.09133817791,4,1,0,60,0,0
31357,-105.260646546582,4,1,0,60,0,0
31504,-106.379900660655,4,1,0,60,0,0
31651,-107.523213023664,4,1,0,60,0,0
31798,-108.695652173913,4,1,0,60,0,0
31945,-109.885183432542,4,1,0,60,0,0
32239,-112.35325574881,4,1,0,60,0,0
32534,-114.94372655273,4,1,0,60,0,0
32681,-116.279682681918,4,1,0,60,0,0
32828,-117.647058823529,4,1,0,60,0,0

[HitObjects]
256,192,44,5,8,0:0:0:0:
256,192,485,1,0,0:0:0:0:
256,192,632,1,8,0:0:0:0:
256,192,1073,1,0,0:0:0:0:
256,192,1220,1,8,0:0:0:0:
256,192,1514,1,8,0:0:0:0:
256,192,1808,1,0,0:0:0:0:
256,128,2102,1,12,0:0:0:0:
256,128,2396,1,4,0:0:0:0:
256,192,2544,1,0,0:0:0:0:
256,192,2617,1,0,0:0:0:0:
256,192,2691,1,8,0:0:0:0:
256,192,2838,1,0,0:0:0:0:
256,192,2985,1,8,0:0:0:0:
256,192,3058,1,8,0:0:0:0:
256,192,3132,1,0,0:0:0:0:
256,192,3205,1,8,0:0:0:0:
256,192,3279,1,0,0:0:0:0:
256,192,3426,1,0,0:0:0:0:
256,192,3573,1,8,0:0:0:0:
256,192,3720,1,0,0:0:0:0:
256,192,3794,1,0,0:0:0:0:
256,192,3867,1,8,0:0:0:0:
256,192,4014,1,8,0:0:0:0:
256,192,4161,1,0,0:0:0:0:
256,192,4235,1,0,0:0:0:0:
256,192,4308,1,0,0:0:0:0:
256,192,4382,1,0,0:0:0:0:
256,192,4455,1,8,0:0:0:0:
256,192,4602,1,8,0:0:0:0:
256,192,4749,1,0,0:0:0:0:
256,192,4896,1,8,0:0:0:0:
256,192,4970,1,8,0:0:0:0:
256,192,5044,1,0,0:0:0:0:
256,192,5191,1,8,0:0:0:0:
256,192,5338,1,0,0:0:0:0:
256,192,5411,1,8,0:0:0:0:
256,192,5485,1,0,0:0:0:0:
256,192,5558,1,0,0:0:0:0:
256,192,5632,1,8,0:0:0:0:
256,192,5779,1,8,0:0:0:0:
256,192,5926,1,0,0:0:0:0:
256,192,6073,1,0,0:0:0:0:
256,192,6146,1,0,0:0:0:0:
256,192,6220,1,8,0:0:0:0:
256,192,6367,1,0,0:0:0:0:
256,192,6514,1,8,0:0:0:0:
256,192,6588,1,8,0:0:0:0:
256,192,6661,1,8,0:0:0:0:
256,192,6808,1,0,0:0:0:0:
256,192,7102,1,8,0:0:0:0:
256,192,7249,1,0,0:0:0:0:
256,192,7323,1,0,0:0:0:0:
256,192,7396,1,8,0:0:0:0:
256,192,7544,1,8,0:0:0:0:
256,192,7691,1,0,0:0:0:0:
256,192,7764,1,8,0:0:0:0:
256,192,7838,1,0,0:0:0:0:
256,192,7911,1,0,0:0:0:0:
256,192,7985,1,8,0:0:0:0:
256,192,8132,1,8,0:0:0:0:
256,192,8279,1,0,0:0:0:0:
256,192,8426,1,8,0:0:0:0:
256,192,8499,1,8,0:0:0:0:
256,192,8573,1,0,0:0:0:0:
256,192,8720,1,8,0:0:0:0:
256,192,8867,1,0,0:0:0:0:
256,192,8941,1,0,0:0:0:0:
256,192,9014,1,8,0:0:0:0:
256,192,9088,1,0,0:0:0:0:
256,192,9161,1,8,0:0:0:0:
256,192,9308,1,8,0:0:0:0:
256,192,9455,1,0,0:0:0:0:
256,192,9602,1,0,0:0:0:0:
256,192,9676,1,0,0:0:0:0:
256,192,9749,1,8,0:0:0:0:
256,192,9896,1,0,0:0:0:0:
256,192,10044,1,8,0:0:0:0:
256,192,10117,1,8,0:0:0:0:
256,192,10191,1,0,0:0:0:0:
256,192,10264,1,0,0:0:0:0:
256,192,10338,1,8,0:0:0:0:
256,192,10485,1,0,0:0:0:0:
256,192,10632,1,8,0:0:0:0:
256,192,10705,1,8,0:0:0:0:
256,192,10779,1,8,0:0:0:0:
256,192,10852,1,0,0:0:0:0:
256,192,10926,1,8,0:0:0:0:
256,192,10999,1,8,0:0:0:0:
256,192,11073,1,0,0:0:0:0:
256,192,11146,1,0,0:0:0:0:
256,192,11220,1,8,0:0:0:0:
256,192,11294,1,8,0:0:0:0:
256,192,11367,1,8,0:0:0:0:
256,192,11441,1,8,0:0:0:0:
256,192,11514,1,0,0:0:0:0:
256,192,11588,1,8,0:0:0:0:
256,192,11661,1,0,0:0:0:0:
256,128,11808,1,12,0:0:0:0:
256,192,11955,1,0,0:0:0:0:
256,192,12029,1,8,0:0:0:0:
256,192,12102,1,0,0:0:0:0:
256,192,12176,1,0,0:0:0:0:
256,192,12249,1,8,0:0:0:0:
256,192,12323,1,8,0:0:0:0:
256,192,12396,1,0,0:0:0:0:
256,192,12470,1,0,0:0:0:0:
256,192,12544,1,8,0:0:0:0:
256,192,12617,1,0,0:0:0:0:
256,192,12691,1,8,0:0:0:0:
256,192,12764,1,8,0:0:0:0:
256,192,12838,1,0,0:0:0:0:
256,192,12911,1,8,0:0:0:0:
256,192,12985,1,0,0:0:0:0:
256,192,13058,1,0,0:0:0:0:
256,192,13132,1,0,0:0:0:0:
256,192,13205,1,0,0:0:0:0:
256,192,13279,1,8,0:0:0:0:
256,192,13352,1,8,0:0:0:0:
256,192,13426,1,0,0:0:0:0:
256,192,13499,1,0,0:0:0:0:
256,192,13573,1,8,0:0:0:0:
256,192,13646,1,0,0:0:0:0:
256,192,13720,1,8,0:0:0:0:
256,192,13794,1,0,0:0:0:0:
256,192,13867,1,8,0:0:0:0:
256,192,13941,1,8,0:0:0:0:
256,192,14014,1,0,0:0:0:0:
256,192,14088,1,0,0:0:0:0:
256,192,14161,1,8,0:0:0:0:
256,192,14235,1,8,0:0:0:0:
256,192,14308,1,8,0:0:0:0:
256,192,14382,1,8,0:0:0:0:
256,192,14455,1,0,0:0:0:0:
256,192,14529,1,0,0:0:0:0:
256,192,14602,1,8,0:0:0:0:
256,192,14676,1,8,0:0:0:0:
256,192,14749,1,0,0:0:0:0:
256,192,14823,1,0,0:0:0:0:
256,192,14896,1,8,0:0:0:0:
256,192,14970,1,0,0:0:0:0:
256,192,15044,1,8,0:0:0:0:
256,192,15117,1,8,0:0:0:0:
256,192,15191,1,0,0:0:0:0:
256,192,15264,1,0,0:0:0:0:
256,192,15338,1,8,0:0:0:0:
256,192,15411,1,0,0:0:0:0:
256,192,15485,1,8,0:0:0:0:
256,192,15558,1,8,0:0:0:0:
256,192,15632,1,0,0:0:0:0:
256,192,15705,1,0,0:0:0:0:
256,192,15779,1,8,0:0:0:0:
256,192,15852,1,0,0:0:0:0:
256,192,15926,1,0,0:0:0:0:
256,192,15999,1,0,0:0:0:0:
256,192,16073,1,8,0:0:0:0:
256,192,16146,1,0,0:0:0:0:
256,192,16220,1,8,0:0:0:0:
256,192,16294,1,8,0:0:0:0:
256,192,16367,1,0,0:0:0:0:
256,128,16514,1,12,0:0:0:0:
256,192,16661,1,0,0:0:0:0:
256,192,16735,1,0,0:0:0:0:
256,192,16808,1,8,0:0:0:0:
256,192,16882,1,0,0:0:0:0:
256,192,16955,1,8,0:0:0:0:
256,192,17029,1,8,0:0:0:0:
256,192,17102,1,0,0:0:0:0:
256,192,17176,1,8,0:0:0:0:
256,192,17249,1,0,0:0:0:0:
256,192,17323,1,0,0:0:0:0:
256,192,17396,1,8,0:0:0:0:
256,192,17470,1,0,0:0:0:0:
256,192,17544,1,8,0:0:0:0:
256,192,17617,1,8,0:0:0:0:
256,192,17691,1,0,0:0:0:0:
256,192,17764,1,0,0:0:0:0:
256,192,17838,1,0,0:0:0:0:
256,192,17911,1,0,0:0:0:0:
256,192,17985,1,8,0:0:0:0:
256,192,18058,1,8,0:0:0:0:
256,192,18132,1,0,0:0:0:0:
256,192,18205,1,0,0:0:0:0:
256,192,18279,1,8,0:0:0:0:
256,192,18352,1,0,0:0:0:0:
256,192,18426,1,8,0:0:0:0:
256,192,18499,1,0,0:0:0:0:
256,192,18573,1,8,0:0:0:0:
256,192,18646,1,8,0:0:0:0:
256,192,18720,1,0,0:0:0:0:
256,192,18794,1,0,0:0:0:0:
256,192,18867,1,8,0:0:0:0:
256,192,18941,1,8,0:0:0:0:
256,192,19014,1,0,0:0:0:0:
256,192,19088,1,8,0:0:0:0:
256,192,19161,1,0,0:0:0:0:
256,192,19235,1,0,0:0:0:0:
256,192,19308,1,8,0:0:0:0:
256,192,19382,1,0,0:0:0:0:
256,192,19455,1,8,0:0:0:0:
256,192,19529,1,8,0:0:0:0:
256,192,19602,1,0,0:0:0:0:
256,192,19676,1,0,0:0:0:0:
256,192,19749,1,8,0:0:0:0:
256,192,19823,1,8,0:0:0:0:
256,192,19896,1,0,0:0:0:0:
256,192,19970,1,8,0:0:0:0:
256,192,20044,1,0,0:0:0:0:
256,192,20117,1,0,0:0:0:0:
256,192,20191,1,8,0:0:0:0:
256,192,20264,1,0,0:0:0:0:
256,192,20338,1,8,0:0:0:0:
256,192,20411,1,8,0:0:0:0:
256,192,20485,1,0,0:0:0:0:
256,192,20558,1,8,0:0:0:0:
256,192,20632,1,0,0:0:0:0:
256,192,20705,1,0,0:0:0:0:
256,192,20779,1,8,0:0:0:0:
256,192,20852,1,8,0:0:0:0:
256,192,20926,1,0,0:0:0:0:
256,192,20999,1,0,0:0:0:0:
256,192,21073,1,8,0:0:0:0:
256,128,21220,1,4,0:0:0:0:
256,192,21367,1,0,0:0:0:0:
256,192,21514,1,8,0:0:0:0:
256,192,21661,1,0,0:0:0:0:
256,192,21735,1,8,0:0:0:0:
256,192,21808,1,0,0:0:0:0:
256,192,21955,1,0,0:0:0:0:
256,192,22102,1,8,0:0:0:0:
256,192,22249,1,0,0:0:0:0:
256,192,22323,1,0,0:0:0:0:
256,192,22396,1,8,0:0:0:0:
256,192,22544,1,0,0:0:0:0:
256,192,22691,1,8,0:0:0:0:
256,192,22838,1,0,0:0:0:0:
256,192,22985,1,8,0:0:0:0:
256,192,23058,1,8,0:0:0:0:
256,192,23132,1,0,0:0:0:0:
256,192,23205,1,0,0:0:0:0:
256,192,23279,1,8,0:0:0:0:
256,192,23426,1,8,0:0:0:0:
256,192,23573,1,0,0:0:0:0:
256,192,23720,1,0,0:0:0:0:
256,192,23867,1,8,0:0:0:0:
256,192,24014,1,0,0:0:0:0:
256,192,24088,1,8,0:0:0:0:
256,192,24161,1,0,0:0:0:0:
256,192,24308,1,0,0:0:0:0:
256,192,24455,1,8,0:0:0:0:
256,192,24602,1,0,0:0:0:0:
256,192,24676,1,0,0:0:0:0:
256,192,24749,1,8,0:0:0:0:
256,192,24896,1,0,0:0:0:0:
256,192,25044,1,8,0:0:0:0:
256,192,25191,1,0,0:0:0:0:
256,192,25338,1,8,0:0:0:0:
256,192,25411,1,8,0:0:0:0:
256,192,25485,1,0,0:0:0:0:
256,192,25558,1,8,0:0:0:0:
256,192,25632,1,0,0:0:0:0:
256,192,25779,1,8,0:0:0:0:
256,128,25926,1,4,0:0:0:0:
256,192,26073,1,0,0:0:0:0:
256,192,26220,1,8,0:0:0:0:
256,192,26367,1,0,0:0:0:0:
256,192,26441,1,8,0:0:0:0:
256,192,26514,1,0,0:0:0:0:
256,192,26661,1,0,0:0:0:0:
256,192,26808,1,8,0:0:0:0:
256,192,26955,1,0,0:0:0:0:
256,192,27029,1,0,0:0:0:0:
256,192,27102,1,8,0:0:0:0:
256,192,27249,1,0,0:0:0:0:
256,192,27396,1,8,0:0:0:0:
256,192,27544,1,0,0:0:0:0:
256,192,27691,1,8,0:0:0:0:
256,192,27764,1,8,0:0:0:0:
256,192,27838,1,0,0:0:0:0:
256,192,27911,1,0,0:0:0:0:
256,192,27985,1,8,0:0:0:0:
256,192,28132,1,8,0:0:0:0:
256,192,28205,1,0,0:0:0:0:
256,192,28279,1,0,0:0:0:0:
256,192,28426,1,0,0:0:0:0:
256,192,28573,1,8,0:0:0:0:
256,192,28720,1,0,0:0:0:0:
256,192,28794,1,8,0:0:0:0:
256,192,28867,1,0,0:0:0:0:
256,192,29014,1,0,0:0:0:0:
256,192,29161,1,8,0:0:0:0:
256,192,29308,1,0,0:0:0:0:
256,192,29382,1,0,0:0:0:0:
256,192,29455,1,8,0:0:0:0:
256,192,29602,1,0,0:0:0:0:
256,192,29749,1,8,0:0:0:0:
256,192,29896,1,0,0:0:0:0:
256,192,30044,1,8,0:0:0:0:
256,192,30117,1,8,0:0:0:0:
256,192,30191,1,0,0:0:0:0:
256,192,30264,1,8,0:0:0:0:
256,192,30338,1,0,0:0:0:0:
256,192,30485,1,8,0:0:0:0:
256,192,30632,1,0,0:0:0:0:
256,192,30779,1,8,0:0:0:0:
256,192,31073,1,8,0:0:0:0:
256,192,31367,1,8,0:0:0:0:
256,192,31514,1,0,0:0:0:0:
256,192,31661,1,8,0:0:0:0:
256,192,31955,1,8,0:0:0:0:
256,192,32249,1,8,0:0:0:0:
256,192,32544,1,8,0:0:0:0:
256,192,32691,1,0,0:0:0:0:
256,192,32838,1,8,0:0:0:0:
