osu file format v14

[General]
AudioFilename: audio2.mp3
AudioLeadIn: 0
PreviewTime: 48099
Countdown: 0
SampleSet: Soft
StackLeniency: 0.4
Mode: 0
LetterboxInBreaks: 0
WidescreenStoryboard: 0

[Editor]
Bookmarks: 35453
DistanceSpacing: 1.7
BeatDivisor: 8
GridSize: 4
TimelineZoom: 1.2

[Metadata]
Title:I call your name again
TitleUnicode:I call your name again
Artist:Aoyama Nanami(Nakatsu Mariko)
ArtistUnicode:青山七海(中津真莉子)
Creator:Net0
Version:Yakusoku
Source:さくら荘のペットな彼女
Tags:sakurasou no pet na kanojo kansai dialect shina mashiro christmas anime edit version opening episode 14 trynna bariton
BeatmapID:1482419
BeatmapSetID:700182

[Difficulty]
HPDrainRate:6
CircleSize:4.5
OverallDifficulty:8
ApproachRate:8.5
SliderMultiplier:3.59999990463257
SliderTickRate:1

[Events]
//Background and Video events
0,0,"sakura.jpg",0,0
//Break Periods
//Storyboard Layer 0 (Background)
//Storyboard Layer 1 (Fail)
//Storyboard Layer 2 (Pass)
//Storyboard Layer 3 (Foreground)
//Storyboard Sound Samples

[TimingPoints]
755,722.89156626506,4,2,1,60,1,0
755,-200,4,2,1,60,0,0
11598,-200,4,2,2,60,0,0
12321,-200,4,2,1,50,0,0
23254,-200,4,2,1,5,0,0
23887,-200,4,2,1,50,0,0
34821,-200,4,2,1,5,0,0
35453,-142.857142857143,4,2,1,65,0,0
36176,-142.857142857143,4,2,2,70,0,0
36357,-142.857142857143,4,2,1,65,0,0
37622,-142.857142857143,4,2,2,65,0,0
37983,-142.857142857143,4,2,1,65,0,0
39068,-142.857142857143,4,2,2,70,0,0
39248,-142.857142857143,4,2,1,65,0,0
40514,-142.857142857143,4,2,2,65,0,0
40875,-142.857142857143,4,2,1,65,0,0
41959,-142.857142857143,4,2,2,65,0,0
42321,-142.857142857143,4,2,1,65,0,0
43405,-142.857142857143,4,2,2,65,0,0
43767,-142.857142857143,4,2,1,65,0,0
46297,-142.857142857143,4,2,1,70,0,0
48827,-133.333333333333,4,2,1,60,0,0
49098,-133.333333333333,4,2,1,5,0,0
49188,-100,4,2,2,65,0,0
49459,-100,4,2,1,5,0,0
49550,-80,4,2,3,70,0,0
49821,-80,4,2,1,5,0,0
49911,-66.6666666666667,4,2,4,75,0,1
50182,-66.6666666666667,4,2,1,5,0,1
50273,-100,4,2,1,70,0,1
50634,-100,4,2,2,70,0,1
51357,-100,4,2,3,70,0,1
51718,-100,4,2,1,70,0,1
52080,-100,4,2,2,70,0,1
52441,-100,4,2,1,70,0,1
53526,-133.333333333333,4,2,2,70,0,1
54248,-100,4,2,2,70,0,1
54610,-100,4,2,1,70,0,1
54881,-100,4,2,1,5,0,1
54971,-100,4,2,1,60,0,1
55242,-100,4,2,1,5,0,1
55333,-100,4,2,1,60,0,1
55604,-100,4,2,1,5,0,1
55694,-100,4,2,3,70,0,1
55965,-100,4,2,1,5,0,1
56056,-100,4,2,1,70,0,1
56417,-100,4,2,2,70,0,1
57140,-100,4,2,3,70,0,1
57501,-100,4,2,1,70,0,1
57863,-100,4,2,2,70,0,1
58224,-100,4,2,1,70,0,1
58586,-100,4,2,3,70,0,1
58947,-100,4,2,1,70,0,1
59309,-133.333333333333,4,2,2,65,0,1
60032,-100,4,2,2,70,0,1
60393,-125,4,2,1,60,0,1
60664,-125,4,2,1,5,0,1
60754,-90.9090909090909,4,2,2,65,0,1
61026,-90.9090909090909,4,2,1,5,0,1
61116,-71.4285714285714,4,2,3,70,0,1
61387,-71.4285714285714,4,2,1,5,0,1
61477,-58.8235294117647,4,2,4,75,0,1
61748,-58.8235294117647,4,2,1,5,0,1
61839,-100,4,2,1,70,0,1
62200,-100,4,2,2,70,0,1
62923,-100,4,2,3,70,0,1
63285,-100,4,2,1,70,0,1
63646,-100,4,2,2,70,0,1
64008,-200,4,2,1,70,0,1
64279,-200,4,2,1,5,0,1
64369,-100,4,2,1,60,0,1
66538,-100,4,2,2,70,0,1
66809,-100,4,2,1,5,0,1
66899,-100,4,2,1,70,0,1
67170,-100,4,2,1,5,0,1
67261,-100,4,2,1,70,0,1
69429,-100,4,2,2,70,0,1
69700,-100,4,2,1,5,0,1
69791,-100,4,2,1,70,0,1
70062,-100,4,2,1,5,0,1
70152,-200,4,2,1,70,0,1
70875,-100,4,2,1,70,0,1
72321,-100,4,2,2,70,0,1
72592,-100,4,2,1,5,0,1
72682,-100,4,2,1,70,0,1
72953,-100,4,2,1,5,0,1
73044,-100,4,2,1,70,0,1
73767,-100,4,2,3,70,0,1
74128,-100,4,2,1,70,0,1
74489,-100,4,2,2,70,0,1
75212,-90.9090909090909,4,2,3,70,0,1
75845,-90.9090909090909,4,2,1,5,0,1
75935,-200,4,2,1,60,0,0
76116,-200,4,2,2,50,0,0
76297,-200,4,2,1,47,0,0
76477,-200,4,2,2,44,0,0
76658,-200,4,2,1,41,0,0
76839,-200,4,2,2,38,0,0
77020,-200,4,2,1,35,0,0
77200,-200,4,2,2,32,0,0
77381,-200,4,2,1,29,0,0
77562,-200,4,2,2,26,0,0
77742,-200,4,2,1,23,0,0
77923,-200,4,2,2,20,0,0
78104,-200,4,2,1,17,0,0
78285,-200,4,2,2,14,0,0
78465,-200,4,2,1,11,0,0
78646,-200,4,2,2,8,0,0
78827,-200,4,2,1,5,0,0

[Colours]
Combo1 : 255,0,0
Combo2 : 255,171,145
Combo3 : 255,61,4
Combo4 : 138,41,61
Combo5 : 238,107,113
Combo6 : 128,0,0

[HitObjects]
462,340,755,6,0,L|471:245,1,89.9999976158143,2|0,1:2|0:0,0:0:0:0:
377,124,1477,2,0,L|386:219,1,89.9999976158143,2|0,0:0|0:0,0:0:0:0:
325,282,2200,2,0,L|230:291,1,89.9999976158143,2|0,0:0|0:0,0:0:0:0:
325,282,2923,1,2,0:0:0:0:
385,213,3285,1,0,1:2:0:0:
370,361,3646,2,0,L|465:352,1,89.9999976158143,2|0,1:2|0:0,0:0:0:0:
385,213,4369,1,2,0:0:0:0:
381,194,5092,1,0,0:0:0:0:
135,124,5815,1,2,2:3:0:0:
50,340,6538,6,0,L|41:245,1,89.9999976158143,2|0,1:2|0:0,0:0:0:0:
135,124,7260,2,0,L|126:219,1,89.9999976158143,2|0,0:0|0:0,0:0:0:0:
187,282,7983,2,0,L|282:291,1,89.9999976158143,2|0,0:0|0:0,0:0:0:0:
187,282,8706,1,2,0:0:0:0:
127,213,9068,1,0,1:2:0:0:
142,361,9429,2,0,L|47:352,1,89.9999976158143,2|0,1:2|0:0,0:0:0:0:
127,213,10152,1,2,0:0:0:0:
131,194,10875,1,0,0:0:0:0:
377,124,11598,1,2,2:0:0:0:
50,44,12321,70,0,L|41:139,1,89.9999976158143,2|0,0:0|0:0,0:0:0:0:
146,192,13044,2,0,L|155:281,1,89.9999976158143
357,281,13767,2,0,L|366:192,1,89.9999976158143,2|0,0:0|0:0,0:0:0:0:
469,133,14489,2,0,L|462:44,1,89.9999976158143
133,125,15212,6,0,L|44:132,1,89.9999976158143,2|0,0:0|0:0,0:0:0:0:
379,125,15935,2,0,L|468:132,1,89.9999976158143
149,280,16658,2,0,L|60:287,1,89.9999976158143,2|0,0:0|0:0,0:0:0:0:
363,280,17381,1,2,2:3:0:0:
453,287,17742,1,2,0:0:0:0:
379,125,18104,70,0,B|291:115|291:115|299:206,1,179.999995231629,2|0,1:2|0:0,0:0:0:0:
302,230,19550,1,2,0:0:0:0:
305,255,20273,1,0,0:0:0:0:
204,104,20995,5,2,0:0:0:0:
201,79,21718,1,0,0:0:0:0:
308,280,22441,1,2,0:0:0:0:
149,280,23164,2,0,L|126:279,1,22.4999994039536,2|0,2:3|0:0,0:0:0:0:
458,45,23887,70,0,L|369:68,1,89.9999976158143,2|0,0:0|0:0,0:0:0:0:
240,153,24610,2,0,L|326:176,1,89.9999976158143
140,68,25333,2,0,L|54:45,1,89.9999976158143,2|0,0:0|0:0,0:0:0:0:
86,191,26056,2,0,L|109:277,1,89.9999976158143
370,283,26779,6,0,L|284:307,1,89.9999976158143,2|0,0:0|0:0,0:0:0:0:
371,68,27501,2,0,L|457:44,1,89.9999976158143
457,306,28224,2,0,L|370:282,1,89.9999976158143,2|0,0:0|0:0,0:0:0:0:
140,68,28947,1,2,2:3:0:0:
163,154,29309,1,2,0:0:0:0:
186,240,29670,70,0,L|210:327,1,89.9999976158143,2|0,0:0|0:0,0:0:0:0:
163,154,30393,1,0,0:0:0:0:
156,129,31116,1,2,0:0:0:0:
349,230,31839,1,0,0:0:0:0:
162,325,32200,1,2,0:0:0:0:
356,255,32562,5,2,0:2:0:0:
149,104,33285,1,0,0:0:0:0:
142,79,34008,1,2,1:2:0:0:
54,291,34369,1,2,0:0:0:0:
363,280,34730,2,0,L|386:281,1,22.4999994039536,2|0,0:3|0:0,0:0:0:0:
80,36,35453,6,0,P|88:80|72:168,1,125.999992816925,2|0,1:2|0:0,0:0:0:0:
32,228,35995,1,0,0:0:0:0:
79,296,36176,2,0,P|123:288|211:304,1,125.999992816925,8|0,0:0|0:0,0:0:0:0:
281,323,36718,1,0,0:0:0:0:
360,346,36899,2,0,P|351:278|308:244,1,125.999992816925,2|0,0:0|0:0,0:0:0:0:
192,104,37441,1,0,0:0:0:0:
195,117,37622,2,0,L|206:180,1,62.9999964084627,10|0,0:0|0:0,0:0:0:0:
440,113,37983,1,0,1:2:0:0:
440,113,38345,6,0,P|392:100|318:132,1,125.999992816925,2|0,1:2|0:0,0:0:0:0:
277,181,38887,1,0,0:0:0:0:
242,243,39068,2,0,P|192:250|122:211,1,125.999992816925,8|0,0:0|0:0,0:0:0:0:
50,171,39610,1,0,0:0:0:0:
18,87,39791,2,0,P|80:85|127:126,1,125.999992816925,2|0,0:0|0:0,0:0:0:0:
469,298,40514,2,0,P|460:327|447:358,1,62.9999964084627,10|0,0:0|0:0,0:0:0:0:
361,294,40875,2,0,P|344:320|323:345,1,62.9999964084627,0|0,1:0|0:0,0:0:0:0:
323,126,41236,70,0,P|381:148|415:199,1,125.999992816925,2|0,1:2|0:0,0:0:0:0:
308,244,41779,1,0,0:0:0:0:
206,158,41959,1,8,0:0:0:0:
206,158,42321,2,0,P|228:136|255:117,1,62.9999964084627,0|0,1:0|0:0,0:0:0:0:
250,275,42682,2,0,P|194:320|140:345,1,125.999992816925,2|0,0:0|0:0,0:0:0:0:
22,198,43224,1,0,0:0:0:0:
35,201,43405,2,0,L|98:212,1,62.9999964084627,10|0,0:0|0:0,0:0:0:0:
254,118,43767,1,0,1:0:0:0:
254,118,44128,6,0,P|208:96|130:115,1,125.999992816925,2|0,1:2|0:0,0:0:0:0:
256,192,44670,12,0,46297,0:0:0:0:
471,139,47020,70,0,B|441:193|382:186|382:186|456:213|454:275|454:275|406:280|374:331,1,314.999982042313,2|0,0:3|0:0,0:0:0:0:
461,370,48104,1,0,1:0:0:0:
471,139,48465,5,0,1:0:0:0:
475,112,48827,70,0,P|459:64|417:37,1,101.250001180172,2|0,0:0|0:0,0:0:0:0:
382,185,49188,6,0,P|445:170|475:112,1,134.999996423721,2|0,0:0|0:0,0:0:0:0:
351,53,49550,6,0,P|325:128|383:185,1,168.749995529652,2|0,0:0|0:0,0:0:0:0:
399,111,49911,6,0,B|259:144|259:144|264:173|290:206,1,202.500002360344,2|0,0:0|0:0,0:0:0:0:
302,223,50273,1,0,0:0:0:0:
180,140,50453,1,0,0:0:0:0:
182,278,50634,2,0,P|119:263|185:216,1,179.999995231628,10|0,0:0|0:0,0:0:0:0:
302,223,51176,1,0,0:0:0:0:
181,352,51357,38,0,P|130:353|95:336,1,89.9999976158142,2|0,0:0|0:0,0:0:0:0:
274,318,51718,1,0,0:0:0:0:
274,318,52080,2,0,P|325:317|360:334,1,89.9999976158142,8|0,0:0|0:0,0:0:0:0:
181,352,52441,1,0,0:0:0:0:
180,140,52803,2,0,P|215:113|236:73,1,89.9999976158142,2|0,0:0|0:0,0:0:0:0:
113,151,53164,1,2,1:2:0:0:
89,215,53345,1,0,0:0:0:0:
35,31,53526,6,0,B|174:41|174:41|174:73|133:89,1,202.500002360344,2|0,0:0|0:0,0:0:0:0:
89,215,54248,2,0,L|81:308,1,89.9999976158143,8|0,0:0|0:0,0:0:0:0:
181,352,54610,6,0,P|241:322|318:313,1,134.999996423721,2|0,0:0|0:0,0:0:0:0:
334,319,54971,2,0,P|400:310|452:267,1,134.999996423721,2|0,0:0|0:0,0:0:0:0:
470,245,55333,2,0,P|465:191|399:201,1,134.999996423721,2|0,0:0|0:0,0:0:0:0:
355,209,55694,6,0,P|397:161|391:93,1,134.999996423721,2|0,0:0|0:0,0:0:0:0:
371,66,56056,1,0,0:0:0:0:
247,124,56236,1,0,0:0:0:0:
500,118,56417,2,0,B|409:132|409:132|321:132,1,179.999995231629,10|0,0:0|0:0,0:0:0:0:
267,28,56959,1,0,0:0:0:0:
241,220,57140,38,0,P|257:266|284:297,1,89.9999976158143,2|0,0:0|0:0,0:0:0:0:
399,200,57501,1,0,0:0:0:0:
399,200,57863,2,0,P|441:185|476:157,1,89.9999976158143,8|0,0:0|0:0,0:0:0:0:
316,177,58224,2,0,P|274:190|240:219,1,89.9999976158143
283,296,58586,2,0,P|330:305|371:297,1,89.9999976158143,2|0,0:0|0:0,0:0:0:0:
134,321,58947,2,0,P|170:352|209:366,1,89.9999976158143,2|0,1:2|0:0,0:0:0:0:
52,130,59309,6,0,B|8:187|47:267|47:267|63:237|84:223,1,202.500002360344,2|0,0:0|0:0,0:0:0:0:
317,177,60032,2,0,L|309:84,1,89.9999976158143,8|0,0:0|0:0,0:0:0:0:
150,39,60393,70,0,P|196:75|207:125,1,107.999997138977,2|0,0:0|0:0,0:0:0:0:
154,158,60754,6,0,P|232:182|252:253,1,148.500000597954,2|0,0:0|0:0,0:0:0:0:
200,276,61116,6,0,P|286:260|337:339,1,188.999989225388,2|0,0:0|0:0,0:0:0:0:
256,336,61477,6,0,B|412:336|412:336|408:294|390:263,1,229.499998297691,2|0,0:0|0:0,0:0:0:0:
376,242,61839,1,0,0:0:0:0:
479,374,62020,1,0,0:0:0:0:
485,265,62200,2,0,B|427:211|362:204|362:204|364:223|376:242,1,179.999995231629,10|0,0:0|0:0,0:0:0:0:
337,335,62742,1,0,0:0:0:0:
485,265,62923,54,0,P|491:217|489:175,1,89.9999976158143,2|0,0:0|0:0,0:0:0:0:
351,49,63285,2,0,P|344:96|346:138,1,89.9999976158143,2|0,0:0|0:0,0:0:0:0:
253,239,63646,2,0,P|254:194|248:149,1,89.9999976158143,8|0,0:0|0:0,0:0:0:0:
77,83,64008,6,0,P|75:49|78:16,1,67.4999982118607,2|0,1:2|0:0,0:0:0:0:
77,83,64369,6,0,P|47:120|28:157,1,89.9999976158143,6|0,0:0|0:0,0:0:0:0:
183,199,64730,1,0,0:0:0:0:
248,149,64911,1,0,0:0:0:0:
153,37,65092,2,0,P|113:56|77:83,1,89.9999976158143,6|0,0:0|0:0,0:0:0:0:
183,199,65453,1,0,0:0:0:0:
253,239,65634,1,0,0:0:0:0:
243,30,65815,38,0,P|198:29|154:37,1,89.9999976158143,4|0,0:0|0:0,0:0:0:0:
394,192,66176,2,0,P|438:193|483:185,1,89.9999976158143,4|0,0:0|0:0,0:0:0:0:
383,68,66538,22,0,B|345:105|294:123|294:123|317:125|335:141,1,134.999996423721,2|0,0:0|0:0,0:0:0:0:
361,169,66899,2,0,P|311:127|245:132,1,134.999996423721,2|0,1:2|0:0,0:0:0:0:
237,185,67261,6,0,P|236:230|244:275,1,89.9999976158143,6|0,1:2|0:0,0:0:0:0:
60,83,67622,2,0,P|76:125|99:163,1,89.9999976158143
122,343,67983,2,0,P|88:314|49:293,1,89.9999976158143,10|0,0:0|0:0,0:0:0:0:
317,365,68345,2,0,B|379:302|379:302|428:305|466:326,2,179.999995231629
217,352,69248,1,0,0:0:0:0:
381,190,69429,2,0,P|348:246|379:302,1,134.999996423721,2|0,0:0|0:0,0:0:0:0:
483,238,69791,2,0,P|445:185|381:190,1,134.999996423721,2|0,1:2|0:0,0:0:0:0:
252,133,70152,54,0,P|337:118|390:47,1,179.999995231629,6|0,1:2|0:0,0:0:0:0:
153,37,71236,1,0,3:0:0:0:
153,37,71598,6,0,P|152:82|160:126,1,89.9999976158143,2|0,0:0|0:0,0:0:0:0:
7,367,71959,2,0,P|8:323|0:278,1,89.9999976158143,2|0,1:3|0:0,0:0:0:0:
37,138,72321,2,0,B|74:176|92:227|92:227|94:204|110:186,1,134.999996423721,2|0,0:0|0:0,0:0:0:0:
138,160,72682,2,0,P|96:210|101:276,1,134.999996423721,2|0,1:2|0:0,0:0:0:0:
154,284,73044,6,0,P|199:285|244:277,1,89.9999976158143,6|0,1:2|0:0,0:0:0:0:
353,182,73405,2,0,P|311:167|273:144,1,89.9999976158143
496,155,73767,2,0,P|467:121|446:82,1,89.9999976158143,2|0,0:0|0:0,0:0:0:0:
453,276,74128,2,0,P|453:321|447:366,1,89.9999976158143,2|0,1:3|0:0,0:0:0:0:
90,85,74489,1,6,0:0:0:0:
90,85,75212,6,0,P|85:126|126:49,1,346.500001395226,2|0,0:0|0:0,0:0:0:0:
155,113,75935,1,4,2:1:0:0:
256,192,76116,12,0,78827,0:0:0:0:
