osu file format v14

[General]
AudioFilename: audio2.mp3
AudioLeadIn: 0
PreviewTime: 48099
Countdown: 0
SampleSet: Soft
StackLeniency: 0.4
Mode: 0
LetterboxInBreaks: 0
WidescreenStoryboard: 0

[Editor]
Bookmarks: 35453
DistanceSpacing: 1
BeatDivisor: 4
GridSize: 32
TimelineZoom: 1

[Metadata]
Title:I call your name again
TitleUnicode:I call your name again
Artist:Aoyama Nanami(Nakatsu Mariko)
ArtistUnicode:青山七海(中津真莉子)
Creator:Net0
Version:Trynna's Normal
Source:さくら荘のペットな彼女
Tags:sakurasou no pet na kanojo kansai dialect shina mashiro christmas anime edit version opening episode 14 trynna bariton
BeatmapID:1482418
BeatmapSetID:700182

[Difficulty]
HPDrainRate:2
CircleSize:3.5
OverallDifficulty:4
ApproachRate:4
SliderMultiplier:1.09999990463257
SliderTickRate:1

[Events]
//Background and Video events
0,0,"sakura.jpg",0,0
//Break Periods
//Storyboard Layer 0 (Background)
//Storyboard Layer 1 (Fail)
//Storyboard Layer 2 (Pass)
//Storyboard Layer 3 (Foreground)
//Storyboard Sound Samples

[TimingPoints]
755,722.89156626506,4,2,1,65,1,0
11598,-100,4,2,2,65,0,0
12321,-100,4,2,1,60,0,0
35453,-100,4,2,1,65,0,0
49911,-100,4,2,1,75,0,1
75935,-100,4,2,1,65,0,0

[Colours]
Combo1 : 255,0,0
Combo2 : 255,171,145
Combo3 : 255,61,4
Combo4 : 138,41,61
Combo5 : 238,107,113
Combo6 : 128,0,0

[HitObjects]
67,104,755,6,0,P|129:56|199:91,1,164.999985694885,2|0,1:2|0:0,0:0:0:0:
228,140,2200,2,0,B|216:188|216:188|228:272,1,109.999990463257,2|2,0:0|0:0,0:0:0:0:
240,300,3285,1,0,1:2:0:0:
284,332,3646,2,0,L|400:328,2,109.999990463257,2|2|0,1:2|0:0|0:0,0:0:0:0:
452,192,6538,6,0,B|452:136|452:136|432:88|432:88|432:28,1,164.999985694885,2|0,1:2|0:0,0:0:0:0:
384,4,7983,2,0,P|335:30|280:32,1,109.999990463257,2|2,0:0|0:0,0:0:0:0:
232,12,9068,1,0,1:2:0:0:
184,36,9429,2,0,L|184:152,2,109.999990463257,2|2|0,1:2|0:0|0:0,0:0:0:0:
88,92,11598,1,2,2:0:0:0:
40,192,12321,6,0,P|56:240|104:272,1,109.999990463257,2|0,0:0|0:0,0:0:0:0:
188,344,13767,2,0,L|244:344,1,54.9999952316285,2|0,0:0|0:0,0:0:0:0:
296,344,14489,1,0,0:0:0:0:
384,276,15212,2,0,B|397:233|397:233|384:160,1,109.999990463257,2|0,0:0|0:0,0:0:0:0:
392,116,16297,1,0,0:0:0:0:
372,64,16658,2,0,P|316:84|264:60,1,109.999990463257,2|2,0:0|2:3,0:0:0:0:
168,28,18104,6,0,L|168:140,1,109.999990463257,2|0,1:2|0:0,0:0:0:0:
112,232,19550,2,0,P|88:216|60:212,1,54.9999952316285,2|0,0:0|0:0,0:0:0:0:
8,216,20273,1,0,0:0:0:0:
32,324,20995,2,0,L|148:324,1,109.999990463257,2|0,0:0|0:0,0:0:0:0:
248,356,22441,1,2,0:0:0:0:
220,248,23164,1,2,2:3:0:0:
324,216,23887,6,0,P|368:204|432:220,1,109.999990463257,2|0,0:0|0:0,0:0:0:0:
504,136,25333,2,0,L|504:76,1,54.9999952316285,2|0,0:0|0:0,0:0:0:0:
504,24,26056,1,0,0:0:0:0:
396,48,26779,2,0,B|372:60|340:56|339:38|308:36|284:48,1,109.999990463257,2|0,0:0|0:0,0:0:0:0:
180,24,28224,2,0,P|152:68|152:128,1,109.999990463257,2|2,0:0|2:3,0:0:0:0:
132,176,29309,1,2,0:0:0:0:
148,228,29670,6,0,L|260:224,1,109.999990463257,2|0,0:0|0:0,0:0:0:0:
308,324,31116,2,0,L|252:320,1,54.9999952316285,2|0,0:0|0:0,0:0:0:0:
200,316,31839,1,0,0:0:0:0:
92,340,32562,2,0,P|36:316|20:256,1,109.999990463257,2|0,0:2|0:0,0:0:0:0:
16,220,33646,1,0,0:0:0:0:
40,172,34008,2,0,L|40:56,1,109.999990463257,2|2,1:2|0:3,0:0:0:0:
144,96,35453,6,0,B|173:84|196:90|196:100|220:108|256:96,1,109.999990463257,2|8,1:2|0:0,0:0:0:0:
300,76,36538,2,0,L|360:76,1,54.9999952316285,0|2,0:0|0:0,0:0:0:0:
432,152,37622,1,10,0:0:0:0:
404,200,37983,1,0,1:2:0:0:
428,248,38345,2,0,L|428:304,1,54.9999952316285,2|0,1:2|0:0,0:0:0:0:
384,336,39068,2,0,P|334:315|283:333,1,109.999990463257,8|2,0:0|0:0,0:0:0:0:
176,360,40514,2,0,L|176:300,1,54.9999952316285,10|0,0:0|1:0,0:0:0:0:
148,260,41236,6,0,P|132:208|148:148,1,109.999990463257,2|8,1:2|0:0,0:0:0:0:
172,108,42321,1,0,1:0:0:0:
224,92,42682,2,0,L|336:92,1,109.999990463257,2|10,0:0|0:0,0:0:0:0:
384,72,43767,1,0,1:0:0:0:
432,96,44128,2,0,B|448:136|448:136|432:212,1,109.999990463257,2|0,1:2|0:0,0:0:0:0:
452,312,45574,2,0,P|426:303|398:302,1,54.9999952316285,0|0,0:0|0:0,0:0:0:0:
355,339,46297,2,0,P|329:347|301:348,1,54.9999952316285,0|0,0:0|0:0,0:0:0:0:
252,320,47020,6,0,L|140:320,1,109.999990463257,2|0,0:3|0:0,0:0:0:0:
100,284,48104,2,0,L|108:224,1,54.9999952316285,0|0,1:0|1:0,0:0:0:0:
256,68,49911,6,0,P|308:52|362:55,1,109.999990463257,2|10,0:0|0:0,0:0:0:0:
416,76,50995,1,0,0:0:0:0:
448,120,51357,2,0,L|448:176,1,54.9999952316285,2|0,0:0|0:0,0:0:0:0:
412,216,52080,2,0,L|356:212,1,54.9999952316285,8|0,0:0|0:0,0:0:0:0:
312,244,52803,6,0,B|280:232|255:236|255:250|232:256|202:244,1,109.999990463257,2|2,0:0|0:0,0:0:0:0:
108,192,54248,1,8,0:0:0:0:
84,144,54610,2,0,L|84:88,1,54.9999952316285,2|2,0:0|0:0,0:0:0:0:
116,44,55333,1,2,0:0:0:0:
168,56,55694,6,0,L|296:52,1,109.999990463257,2|10,0:0|0:0,0:0:0:0:
332,52,56779,1,0,0:0:0:0:
368,92,57140,2,0,P|368:116|360:148,1,54.9999952316285,2|0,0:0|0:0,0:0:0:0:
396,188,57863,2,0,P|383:208|361:232,1,54.9999952316285,8|0,0:0|0:0,0:0:0:0:
320,264,58586,6,0,B|294:258|268:264|268:284|240:292|212:284,1,109.999990463257,2|2,0:0|0:0,0:0:0:0:
112,320,60032,1,8,0:0:0:0:
80,276,60393,2,0,L|80:212,1,54.9999952316285,2|2,0:0|0:0,0:0:0:0:
56,172,61116,1,2,0:0:0:0:
79,124,61477,6,0,P|130:103|182:118,1,109.999990463257,2|10,0:0|0:0,0:0:0:0:
232,92,62562,1,0,0:0:0:0:
280,116,62923,2,0,L|344:112,1,54.9999952316285,2|2,0:0|0:0,0:0:0:0:
368,156,63646,2,0,L|432:160,1,54.9999952316285,8|2,0:0|1:2,0:0:0:0:
472,132,64369,5,6,0:0:0:0:
492,240,65092,1,6,0:0:0:0:
416,320,65815,2,0,L|356:316,1,54.9999952316285,4|4,0:0|0:0,0:0:0:0:
316,284,66538,2,0,P|286:282|261:287,1,54.9999952316285,2|2,0:0|1:2,0:0:0:0:
212,308,67261,6,0,L|212:184,1,109.999990463257,6|10,1:2|0:0,0:0:0:0:
188,148,68345,1,0,0:0:0:0:
144,116,68706,2,0,P|90:110|46:140,1,109.999990463257,0|2,0:0|0:0,0:0:0:0:
24,192,69791,1,2,1:2:0:0:
28,248,70152,6,0,L|28:364,1,109.999990463257,6|0,1:2|0:0,0:0:0:0:
136,376,71598,1,2,0:0:0:0:
208,292,72321,2,0,P|235:284|280:284,1,54.9999952316285,2|2,0:0|1:2,0:0:0:0:
312,312,73044,6,0,L|320:192,1,109.999990463257,6|2,1:2|0:0,0:0:0:0:
364,172,74128,1,2,1:3:0:0:
416,188,74489,1,6,0:0:0:0:
256,192,75935,12,0,78827,0:0:0:0:
