osu file format v14

[General]
AudioFilename: audio2.mp3
AudioLeadIn: 0
PreviewTime: 48099
Countdown: 0
SampleSet: Soft
StackLeniency: 0.4
Mode: 0
LetterboxInBreaks: 0
WidescreenStoryboard: 0

[Editor]
Bookmarks: 12321,35453,49911,58586
DistanceSpacing: 0.3
BeatDivisor: 4
GridSize: 4
TimelineZoom: 1.9

[Metadata]
Title:I call your name again
TitleUnicode:I call your name again
Artist:Aoyama Nanami(Nakatsu Mariko)
ArtistUnicode:青山七海(中津真莉子)
Creator:Net0
Version:Collab Hard
Source:さくら荘のペットな彼女
Tags:sakurasou no pet na kanojo kansai dialect shina mashiro christmas anime edit version opening episode 14 trynna bariton
BeatmapID:1482417
BeatmapSetID:700182

[Difficulty]
HPDrainRate:4
CircleSize:4
OverallDifficulty:6
ApproachRate:6.5
SliderMultiplier:1.59999990463257
SliderTickRate:1

[Events]
//Background and Video events
0,0,"sakura.jpg",0,0
//Break Periods
//Storyboard Layer 0 (Background)
//Storyboard Layer 1 (Fail)
//Storyboard Layer 2 (Pass)
//Storyboard Layer 3 (Foreground)
//Storyboard Sound Samples

[TimingPoints]
755,722.89156626506,4,2,1,60,1,0
755,-100,4,2,1,60,0,0
11598,-100,4,2,2,60,0,0
12321,-100,4,2,1,60,0,0
35453,-83.3333333333333,4,2,1,60,0,0
47923,-83.3333333333333,4,2,1,5,0,0
48104,-83.3333333333333,4,2,1,60,0,0
49911,-66.6666666666667,4,2,2,65,0,1
50092,-66.6666666666667,4,2,1,65,0,1
55694,-66.6666666666667,4,2,2,65,0,1
55875,-66.6666666666667,4,2,1,65,0,1
61477,-66.6666666666667,4,2,2,65,0,1
61658,-66.6666666666667,4,2,1,65,0,1
74489,-66.6666666666667,4,2,1,60,0,0
75212,-100,4,2,1,60,0,0
75754,-100,4,2,1,5,0,0
75935,-66.6666666666667,4,2,1,60,0,0
76116,-66.6666666666667,4,2,1,60,0,0

[Colours]
Combo1 : 255,0,0
Combo2 : 255,171,145
Combo3 : 255,61,4
Combo4 : 138,41,61
Combo5 : 238,107,113
Combo6 : 128,0,0

[HitObjects]
493,94,755,6,0,L|479:260,1,159.999990463257,2|2,1:2|0:0,0:0:0:0:
406,326,1839,1,0,0:0:0:0:
302,313,2200,2,0,L|135:299,1,159.999990463257,2|2,0:0|0:0,0:0:0:0:
58,238,3285,1,0,1:2:0:0:
154,199,3646,2,0,L|320:212,1,159.999990463257,2|2,1:2|0:0,0:0:0:0:
357,241,5092,1,0,0:0:0:0:
106,219,5815,1,2,2:3:0:0:
250,12,6538,6,0,L|263:178,1,159.999990463257,2|2,1:2|0:0,0:0:0:0:
184,240,7622,1,0,0:0:0:0:
263,171,7983,2,0,L|429:157,1,159.999990463257,2|2,0:0|0:0,0:0:0:0:
481,244,9068,1,0,1:2:0:0:
440,339,9429,2,0,L|273:352,1,159.999990463257,2|2,1:2|0:0,0:0:0:0:
228,358,10875,1,0,0:0:0:0:
96,192,11598,1,2,2:0:0:0:
96,192,12321,6,0,B|176:160|176:220|252:188,1,159.999990463257,2|0,0:0|0:0,0:0:0:0:
339,131,13405,1,0,0:0:0:0:
411,199,13767,2,0,P|437:125|403:55,1,159.999990463257,2|0,0:0|0:0,0:0:0:0:
339,131,14851,1,0,0:0:0:0:
268,56,15212,6,0,P|229:45|191:53,1,79.9999952316285,2|0,0:0|0:0,0:0:0:0:
68,128,15935,2,0,P|106:138|144:130,1,79.9999952316285,0|0,0:0|0:0,0:0:0:0:
191,52,16658,2,0,P|168:136|212:192,1,159.999990463257,2|2,0:0|2:3,0:0:0:0:
296,136,17742,1,2,0:0:0:0:
388,188,18104,70,0,P|406:151|405:112,1,79.9999952316285,2|0,1:2|0:0,0:0:0:0:
308,232,18827,2,0,B|268:292|308:352|308:352|332:308,2,159.999990463257,0|2|0,0:0|0:0|0:0,0:0:0:0:
267,64,20995,6,0,B|187:32|187:92|111:60,1,159.999990463257,2|0,0:0|0:0,0:0:0:0:
112,61,22441,2,0,P|140:129|100:201,1,159.999990463257,2|2,0:0|2:3,0:0:0:0:
128,320,23887,70,0,B|176:332|208:304|208:304|248:296|284:332,1,159.999990463257,2|0,0:0|0:0,0:0:0:0:
368,376,24971,1,0,0:0:0:0:
452,316,25333,2,0,P|468:280|464:240,1,79.9999952316285,2|0,0:0|0:0,0:0:0:0:
360,180,26056,2,0,P|359:219|378:254,1,79.9999952316285,0|0,0:0|0:0,0:0:0:0:
436,136,26779,6,0,L|276:152,1,159.999990463257,2|0,0:0|0:0,0:0:0:0:
180,116,27863,1,0,0:0:0:0:
100,179,28224,2,0,P|91:217|103:256,1,79.9999952316285,2|0,0:0|0:0,0:0:0:0:
180,116,28947,2,0,P|189:78|178:40,1,79.9999952316285,2|2,2:3|0:0,0:0:0:0:
100,179,29670,69,2,0:0:0:0:
192,228,30032,1,0,0:0:0:0:
284,180,30393,2,0,B|360:208|360:152|440:180,2,159.999990463257,0|2|0,0:0|0:0|0:0,0:0:0:0:
316,80,32200,1,2,0:0:0:0:
439,179,32562,6,0,P|471:251|423:323,1,159.999990463257,2|0,0:2|0:0,0:0:0:0:
360,200,33646,1,0,0:0:0:0:
360,200,34008,2,0,P|360:148|452:96,1,159.999990463257,2|2,1:2|0:3,0:0:0:0:
19,94,35453,6,0,L|27:191,1,95.9999913482669,2|0,1:2|0:0,0:0:0:0:
123,110,36176,2,0,L|219:118,1,95.9999913482669,8|0,0:0|0:0,0:0:0:0:
360,200,36899,2,0,L|264:192,1,95.9999913482669,2|0,0:0|0:0,0:0:0:0:
432,82,37622,2,0,L|428:130,1,47.9999956741335,10|0,0:0|0:0,0:0:0:0:
428,129,37983,1,0,1:2:0:0:
309,291,38345,6,0,B|262:299|262:299|211:290,1,95.9999913482669,2|0,1:2|0:0,0:0:0:0:
99,180,39068,2,0,B|129:216|129:216|147:265,1,95.9999913482669,8|0,0:0|0:0,0:0:0:0:
100,378,39791,1,2,0:0:0:0:
100,378,40514,1,10,0:0:0:0:
145,262,40875,1,0,1:0:0:0:
189,145,41236,6,0,P|206:101|236:64,2,95.9999913482669,2|0|8,1:2|0:0|0:0,0:0:0:0:
313,197,42321,1,0,1:0:0:0:
142,31,42682,2,0,P|122:74|117:121,1,95.9999913482669,2|0,0:0|0:0,0:0:0:0:
236,64,43405,2,0,L|284:60,1,47.9999956741335,10|0,0:0|0:0,0:0:0:0:
283,60,43766,1,0,1:0:0:0:
41,22,44128,6,0,P|32:69|40:116,1,95.9999913482669,2|0,1:2|0:0,0:0:0:0:
256,192,44670,12,0,46297,0:0:0:0:
0,252,47020,6,0,B|28:306|90:324|90:324|112:266|73:206,1,239.999994850159,2|0,0:3|0:0,0:0:0:0:
6,168,48104,5,0,1:0:0:0:
6,168,48465,1,0,1:0:0:0:
0,66,48827,5,2,0:0:0:0:
89,108,49188,1,2,0:0:0:0:
0,31,49550,1,2,0:0:0:0:
116,84,49911,6,0,P|168:104|228:80,1,119.999997425079,2|0,0:0|0:0,0:0:0:0:
288,36,50453,1,0,0:0:0:0:
288,36,50634,2,0,L|408:44,1,119.999997425079,10|0,0:0|0:0,0:0:0:0:
403,61,51176,1,0,0:0:0:0:
395,77,51357,6,0,P|379:133|399:189,1,119.999997425079,2|0,0:0|0:0,0:0:0:0:
312,348,52080,2,0,P|328:292|308:236,1,119.999997425079,8|0,0:0|0:0,0:0:0:0:
152,112,52803,6,0,L|276:120,1,119.999997425079,2|2,0:0|1:2,0:0:0:0:
344,92,53345,1,0,0:0:0:0:
344,92,53526,2,0,B|404:80|404:80|464:100,1,119.999997425079,2|0,0:0|0:0,0:0:0:0:
400,244,54248,1,8,0:0:0:0:
256,180,54610,5,2,0:0:0:0:
420,256,54971,1,2,0:0:0:0:
288,336,55333,1,2,0:0:0:0:
440,268,55694,6,0,P|464:212|440:152,1,119.999997425079,2|0,0:0|0:0,0:0:0:0:
380,120,56236,1,0,0:0:0:0:
380,120,56417,2,0,L|256:96,1,119.999997425079,10|0,0:0|0:0,0:0:0:0:
244,92,56959,1,0,0:0:0:0:
228,88,57140,6,0,P|239:147|203:201,1,119.999997425079,2|0,0:0|0:0,0:0:0:0:
56,332,57863,2,0,P|68:273|123:237,1,119.999997425079,8|0,0:0|0:0,0:0:0:0:
246,340,58586,6,0,P|187:344|136:313,1,119.999997425079,2|2,0:0|1:2,0:0:0:0:
113,239,59128,1,0,0:0:0:0:
113,239,59309,2,0,L|113:120,1,119.999997425079,2|0,0:0|0:0,0:0:0:0:
270,136,60032,1,8,0:0:0:0:
113,119,60394,5,2,0:0:0:0:
293,135,60755,1,2,0:0:0:0:
219,5,61117,1,2,0:0:0:0:
316,135,61478,6,0,P|340:191|316:251,1,119.999997425079,6|0,0:0|0:0,0:0:0:0:
322,324,62020,1,0,0:0:0:0:
322,324,62201,2,0,L|435:268,1,119.999997425079,10|0,0:0|0:0,0:0:0:0:
446,261,62743,1,0,0:0:0:0:
460,253,62924,2,0,P|464:312|513:355,2,119.999997425079,2|2|8,0:0|0:0|0:0,0:0:0:0:
316,135,64008,1,2,1:2:0:0:
247,265,64369,6,0,P|215:265|166:253,1,59.9999987125397,6|0,0:0|0:0,0:0:0:0:
113,239,64730,1,0,0:0:0:0:
69,110,65092,2,0,P|85:137|99:185,1,59.9999987125397,6|0,0:0|0:0,0:0:0:0:
113,239,65453,1,0,0:0:0:0:
24,342,65815,2,0,P|39:314|74:278,1,59.9999987125397,4|0,0:0|0:0,0:0:0:0:
113,239,66176,2,0,P|134:215|177:190,1,59.9999987125397,4|0,0:0|0:0,0:0:0:0:
225,162,66538,1,2,0:0:0:0:
69,110,66899,1,2,1:2:0:0:
57,292,67261,6,0,P|118:316|165:294,1,119.999997425079,6|0,1:2|0:0,0:0:0:0:
354,267,67983,2,0,P|293:243|246:265,1,119.999997425079,10|0,0:0|0:0,0:0:0:0:
436,296,68706,2,0,L|446:177,1,119.999997425079,0|0,0:0|0:0,0:0:0:0:
466,21,69429,1,2,0:0:0:0:
321,80,69791,1,2,1:2:0:0:
166,59,70152,6,0,B|108:39|50:68|50:68|74:125|143:142,1,239.999994850159,6|0,1:2|0:0,0:0:0:0:
291,246,71236,1,0,3:0:0:0:
309,220,71417,1,0,0:0:0:0:
325,192,71598,2,0,P|341:136|321:80,1,119.999997425079,2|2,0:0|1:3,0:0:0:0:
216,195,72321,1,2,0:0:0:0:
110,309,72682,1,2,1:2:0:0:
341,311,73044,6,0,B|427:311|427:311|397:271,1,119.999997425079,6|0,1:2|0:0,0:0:0:0:
134,189,73767,2,0,P|80:152|106:221,1,179.999996137619,2|0,0:0|0:0,0:0:0:0:
163,252,74489,1,6,0:0:0:0:
163,252,75212,6,0,L|153:375,1,119.999992847443,2|0,0:0|0:0,0:0:0:0:
153,371,75935,1,4,2:1:0:0:
256,192,76116,12,0,78827,0:0:0:0:
