osu file format v14

[General]
AudioFilename: audio.mp3
AudioLeadIn: 0
PreviewTime: 47834
Countdown: 0
SampleSet: Soft
StackLeniency: 0.7
Mode: 0
LetterboxInBreaks: 0
WidescreenStoryboard: 0

[Editor]
DistanceSpacing: 1
BeatDivisor: 4
GridSize: 4
TimelineZoom: 2.6

[Metadata]
Title:Platinum
TitleUnicode:プラチナ
Artist:Aoyama Mio starring Yuuki Aoi
ArtistUnicode:青山美生 starring 悠木 碧
Creator:pyrowar56
Version:Insane
Source:カードキャプターさくら
Tags:madoka magica opening madomagi kami nomi zo shiru sekai character cover album cardcaptor sakura
BeatmapID:1743200
BeatmapSetID:832034

[Difficulty]
HPDrainRate:7
CircleSize:4
OverallDifficulty:7
ApproachRate:9
SliderMultiplier:1.8
SliderTickRate:2

[Events]
//Background and Video events
0,0,"madomagibg.jpg",0,0
//Break Periods
//Storyboard Layer 0 (Background)
//Storyboard Layer 1 (Fail)
//Storyboard Layer 2 (Pass)
//Storyboard Layer 3 (Foreground)
//Storyboard Sound Samples

[TimingPoints]
2560,365.853658536585,4,2,2,60,1,0
4023,-142.857142857143,4,2,2,30,0,0
14816,-142.857142857143,4,2,1,30,0,0
15730,-100,4,2,3,40,0,0
36218,-100,4,2,3,50,0,0
44999,-100,4,2,1,50,0,0
47925,-100,4,2,1,60,0,1
57529,-100,4,2,5,50,0,1
57712,-100,4,2,1,60,0,1
59084,-100,4,2,1,40,0,1
59633,-100,4,2,1,60,0,1
77194,-100,4,2,1,40,0,1
77559,-100,4,2,1,60,0,0
83047,-142.857142857143,4,2,1,30,0,0
83413,-100,4,2,1,60,0,0
85974,394.736842105263,4,2,1,50,1,0
86763,422.535211267606,4,2,1,50,1,0
90143,-100,4,2,2,30,0,0

[Colours]
Combo1 : 167,248,179
Combo2 : 254,175,247
Combo3 : 205,200,249

[HitObjects]
500,156,4023,5,4,0:0:0:0:
491,246,4206,1,0,0:0:0:0:
408,272,4389,1,0,0:0:0:0:
342,214,4572,2,0,P|281:225|240:271,1,125.999996154785,2|0,0:0|0:0,0:0:0:0:
159,331,5120,2,0,L|96:324,1,62.9999980773926
9,236,5486,6,0,L|134:222,1,125.999996154785,2|0,0:0|0:0,0:0:0:0:
207,165,6035,1,0,0:0:0:0:
207,165,6218,2,0,P|216:134|222:104,1,62.9999980773926
120,3,6584,2,0,P|110:33|104:63,1,62.9999980773926
221,104,6950,6,0,P|281:115|333:82,1,125.999996154785,2|0,0:0|0:0,0:0:0:0:
379,178,7499,2,0,L|385:240,1,62.9999980773926,2|0,0:0|0:0,0:0:0:0:
489,159,7864,2,0,L|463:296,1,125.999996154785
362,359,8413,6,0,P|331:352|299:349,1,62.9999980773926,2|0,0:0|0:0,0:0:0:0:
154,277,8779,2,0,P|185:273|216:267,1,62.9999980773926
335,216,9145,2,0,P|358:158|341:98,1,125.999996154785,2|0,0:0|0:0,0:0:0:0:
23,26,9877,6,0,P|85:31|148:39,1,125.999996154785,2|0,0:0|0:0,0:0:0:0:
282,155,10425,2,0,P|219:149|156:141,1,125.999996154785,2|0,0:0|0:0,0:0:0:0:
63,198,10974,1,0,0:0:0:0:
63,198,11157,6,0,L|74:323,1,125.999996154785,2|0,0:0|0:0,0:0:0:0:
156,232,11706,2,0,L|161:169,1,62.9999980773926
22,129,12072,2,0,L|27:191,1,62.9999980773926
74,323,12438,1,0,0:0:0:0:
296,267,12803,6,0,L|354:255,2,41.9999987182618,2|0|0,0:0|0:0|0:0,0:0:0:0:
207,197,13169,2,0,L|165:188,2,41.9999987182618
286,129,13535,2,0,L|328:120,2,41.9999987182618
237,46,13901,2,0,L|195:37,2,41.9999987182618
339,22,14267,6,0,P|394:52|456:45,1,125.999996154785,2|0,0:0|0:0,0:0:0:0:
498,157,14816,1,4,0:3:0:0:
498,157,15181,2,0,L|487:232,1,62.9999980773926,2|2,0:0|0:0,0:0:0:0:
475,308,15546,1,0,0:0:0:0:
394,184,15730,6,0,P|324:133|240:156,2,180,4|0|0,0:0|0:0|0:0,0:0:0:0:
475,308,16645,1,0,0:0:0:0:
306,286,16828,2,0,P|311:330|308:375,1,90,8|2,0:0|0:1,0:0:0:0:
395,185,17194,6,0,P|383:96|401:8,1,180,2|0,0:1|0:0,0:0:0:0:
477,143,17742,2,0,P|482:187|479:232,1,90
306,286,18108,1,0,0:0:0:0:
395,185,18291,1,2,0:0:0:0:
483,336,18474,1,0,0:0:0:0:
269,299,18657,6,0,L|83:268,1,180,2|0,0:1|0:0,0:0:0:0:
241,143,19206,2,0,L|329:127,1,90
127,11,19572,1,0,0:0:0:0:
127,11,19755,2,0,P|125:55|142:96,1,90,8|2,0:0|0:1,0:0:0:0:
340,42,20120,6,0,P|405:98|395:183,1,180,2|0,0:1|0:0,0:0:0:0:
241,275,20669,1,0,0:0:0:0:
329,127,20852,1,0,0:0:0:0:
165,215,21035,1,0,0:0:0:0:
312,330,21218,1,2,0:0:0:0:
248,186,21401,1,0,0:0:0:0:
248,186,21492,1,0,0:0:0:0:
248,186,21584,6,0,L|240:292,1,90,2|0,0:1|0:0,0:0:0:0:
359,167,21950,1,0,0:0:0:0:
201,90,22133,2,0,P|160:108|116:115,1,90
116,115,22499,1,0,0:0:0:0:
296,31,22681,2,0,P|340:36|380:56,1,90,8|2,0:0|0:1,0:0:0:0:
496,227,23047,6,0,P|430:235|376:197,1,135,2|0,0:1|0:0,0:0:0:0:
359,167,23413,2,0,L|375:272,1,90
201,90,23779,2,0,L|185:195,1,90
380,56,24145,1,2,0:0:0:0:
283,153,24328,1,2,0:1:0:0:
150,23,24511,6,0,B|88:8|88:8|26:23|15:97,2,180,2|0|0,0:1|0:0|0:0,0:0:0:0:
283,153,25425,1,0,0:0:0:0:
283,153,25608,2,0,P|325:172|367:182,1,90,8|2,0:0|0:1,0:0:0:0:
295,28,25974,5,2,0:1:0:0:
183,189,26157,1,0,0:0:0:0:
377,218,26340,1,0,0:0:0:0:
283,153,26523,2,0,L|273:242,1,90
260,368,26889,1,2,0:1:0:0:
283,153,27072,1,2,0:0:0:0:
326,305,27255,1,2,0:1:0:0:
326,305,27346,1,0,0:0:0:0:
326,305,27438,6,0,P|261:318|205:284,1,135,2|0,0:1|0:0,0:0:0:0:
133,310,27803,2,0,L|30:301,1,90
273,242,28169,1,0,0:0:0:0:
273,242,28535,1,8,0:0:0:0:
133,159,28718,1,2,0:1:0:0:
184,320,28901,6,0,L|184:222,1,90,2|0,0:1|0:0,0:0:0:0:
61,109,29267,2,0,P|91:141|132:158,1,90
362,79,29633,2,0,P|274:88|213:152,1,180,0|2,0:0|0:0,0:0:0:0:
213,152,30181,1,0,0:0:0:0:
267,339,30364,5,2,0:1:0:0:
342,206,30547,1,0,0:0:0:0:
267,339,30730,1,0,0:0:0:0:
213,152,30913,1,0,0:0:0:0:
421,228,31096,2,0,P|394:263|356:287,1,90
169,370,31462,2,0,P|151:328|150:283,1,90,8|2,0:0|0:1,0:0:0:0:
234,171,31828,6,0,L|245:260,1,90,2|0,0:1|0:0,0:0:0:0:
224,78,32194,1,0,0:0:0:0:
143,187,32377,1,0,0:0:0:0:
210,2,32559,1,0,0:0:0:0:
311,138,32742,1,0,0:0:0:0:
123,96,32925,1,2,0:0:0:0:
245,260,33108,1,2,0:1:0:0:
311,138,33291,5,2,0:1:0:0:
311,138,33657,2,0,L|300:49,1,90
108,198,34023,2,0,P|173:188|229:223,1,135
245,260,34389,2,0,L|256:349,1,90,8|2,0:0|0:1,0:0:0:0:
507,382,34755,5,2,0:1:0:0:
401,268,34938,1,0,0:0:0:0:
509,166,35120,1,0,0:0:0:0:
435,339,35303,1,0,0:0:0:0:
429,345,35395,1,0,0:0:0:0:
423,351,35486,2,0,P|378:347|339:326,1,90
222,183,35852,2,0,P|266:186|305:207,1,90,2|0,0:0|0:0,0:0:0:0:
509,165,36218,6,0,P|443:169|390:129,1,135,4|0,0:0|0:0,0:0:0:0:
353,65,36584,1,8,0:1:0:0:
353,65,36950,1,0,0:0:0:0:
222,183,37133,1,0,0:0:0:0:
201,35,37316,1,8,0:0:0:0:
61,199,37499,1,2,0:1:0:0:
209,362,37681,6,0,L|222:183,1,180,2|0,0:1|0:0,0:0:0:0:
53,21,38230,2,0,L|64:110,1,90
201,35,38596,1,0,0:0:0:0:
105,210,38779,2,0,P|61:198|16:194,1,90,2|2,0:0|0:1,0:0:0:0:
216,272,39145,5,2,0:1:0:0:
337,244,39328,1,0,0:0:0:0:
457,210,39511,1,8,0:1:0:0:
457,210,39877,2,0,P|472:145|439:88,1,135
392,28,40242,2,0,P|369:66|368:110,1,90,8|2,0:0|0:1,0:0:0:0:
216,272,40608,6,0,P|129:276|72:210,1,180,2|0,0:1|0:0,0:0:0:0:
174,172,41157,1,0,0:0:0:0:
316,275,41340,2,0,L|296:362,1,90
280,111,41706,2,0,L|260:198,1,90,2|0,0:0|0:0,0:0:0:0:
107,18,42072,5,2,0:1:0:0:
174,172,42255,1,0,0:0:0:0:
372,85,42438,1,8,0:1:0:0:
372,85,42803,2,0,P|412:104|456:114,1,90
316,275,43169,2,0,P|272:284|231:304,1,90,8|0,0:0|0:0,0:0:0:0:
456,376,43535,6,0,B|520:335|512:270|512:270|456:237,1,180,2|0,0:1|0:0,0:0:0:0:
316,275,44084,1,0,0:0:0:0:
349,123,44267,1,0,0:0:0:0:
198,156,44450,1,0,0:0:0:0:
245,10,44633,1,2,0:0:0:0:
92,34,44816,1,2,0:1:0:0:
349,123,44999,5,2,0:0:0:0:
349,123,45181,2,0,L|362:34,1,90,0|8,0:0|0:0,0:0:0:0:
163,261,45547,2,0,L|177:349,1,90
316,275,45913,5,0,0:0:0:0:
154,171,46096,1,8,0:0:0:0:
384,121,46279,1,2,0:0:0:0:
133,75,46462,5,2,0:0:0:0:
353,199,46645,1,8,0:0:0:0:
245,59,46828,1,0,0:0:0:0:
254,304,47011,1,8,0:0:0:0:
255,324,47102,1,8,0:0:0:0:
256,343,47194,5,10,0:0:0:0:
6,191,47559,1,10,0:0:0:0:
6,191,47925,6,0,B|48:224|48:224|119:232|155:171,1,180,6|8,0:0|0:0,0:0:0:0:
357,57,48474,2,0,L|342:166,1,90,0|2,0:0|0:0,0:0:0:0:
193,259,48840,2,0,L|205:348,1,90,2|8,0:0|0:0,0:0:0:0:
474,317,49206,6,0,P|408:323|355:284,1,135,2|0,0:0|0:0,0:0:0:0:
333,249,49572,1,2,0:0:0:0:
205,348,49755,1,8,0:0:0:0:
258,130,49938,1,0,0:0:0:0:
258,130,50029,1,0,0:0:0:0:
258,130,50120,1,2,0:0:0:0:
333,249,50303,1,2,0:0:0:0:
248,41,50486,1,8,0:0:0:0:
155,171,50669,1,0,0:0:0:0:
377,122,50852,6,0,P|417:140|461:150,1,90,2|0,0:0|0:0,0:0:0:0:
461,150,51218,1,8,0:0:0:0:
248,41,51401,2,0,L|260:140,1,90,0|2,0:0|0:0,0:0:0:0:
367,77,51767,1,2,0:0:0:0:
155,171,51950,1,8,0:0:0:0:
275,2,52133,1,2,0:0:0:0:
339,171,52316,5,0,0:0:0:0:
212,65,52499,1,2,0:0:0:0:
259,289,52681,1,8,0:0:0:0:
241,153,52864,1,0,0:0:0:0:
241,153,52956,1,0,0:0:0:0:
241,153,53047,2,0,P|199:170|155:171,1,90,2|2,0:0|0:0,0:0:0:0:
22,37,53413,2,0,B|50:22|64:4|64:4|113:-6|155:42,1,135,8|0,0:0|0:0,0:0:0:0:
212,65,53779,6,0,L|304:76,1,90,6|0,0:0|0:0,0:0:0:0:
482,173,54145,1,8,0:0:0:0:
405,53,54328,1,0,0:0:0:0:
280,191,54511,2,0,P|293:234|303:278,1,90,2|2,0:0|0:0,0:0:0:0:
428,298,54877,2,0,P|415:341|405:385,1,90,8|0,0:0|0:0,0:0:0:0:
217,264,55242,5,2,0:0:0:0:
375,168,55425,1,2,0:0:0:0:
212,65,55608,1,8,0:0:0:0:
280,191,55791,1,0,0:0:0:0:
280,191,55883,1,0,0:0:0:0:
280,191,55974,1,2,0:0:0:0:
94,99,56157,1,2,0:0:0:0:
270,18,56340,2,0,P|309:39|352:51,1,90,8|0,0:0|0:0,0:0:0:0:
140,191,56706,6,0,L|52:210,1,90,2|2,0:0|0:0,0:0:0:0:
371,281,57072,2,0,L|459:300,1,90,8|0,0:0|0:0,0:0:0:0:
270,18,57438,2,0,L|260:152,1,135,2|0,0:0|0:0,0:0:0:0:
256,192,57803,1,8,0:0:0:0:
384,166,57986,5,2,0:0:0:0:
263,302,58169,1,0,0:0:0:0:
155,116,58352,1,2,0:0:0:0:
366,44,58535,1,8,0:0:0:0:
256,192,58718,1,8,0:0:0:0:
256,192,58809,1,8,0:0:0:0:
256,192,58901,1,2,0:0:0:0:
41,58,59084,5,8,0:0:0:0:
43,95,59175,1,8,0:0:0:0:
34,132,59267,1,8,0:0:0:0:
42,170,59358,1,8,0:0:0:0:
33,202,59450,1,8,0:0:0:0:
40,239,59541,1,8,0:0:0:0:
39,276,59633,6,0,L|48:378,1,90,6|0,0:0|0:0,0:0:0:0:
189,243,59999,1,8,0:0:0:0:
84,55,60181,2,0,L|92:156,1,90,0|2,0:0|0:0,0:0:0:0:
206,337,60547,1,2,0:0:0:0:
206,337,60730,2,0,P|243:361|286:374,1,90,8|2,0:0|0:0,0:0:0:0:
452,261,61096,6,0,P|407:264|368:286,1,90,0|2,0:0|0:0,0:0:0:0:
123,231,61462,2,0,P|189:241|243:204,1,135,8|0,0:0|0:0,0:0:0:0:
261,167,61828,1,2,0:0:0:0:
370,247,62011,1,2,0:0:0:0:
247,322,62194,1,8,0:0:0:0:
171,164,62377,2,0,L|171:119,1,45
256,48,62559,5,2,0:0:0:0:
304,194,62742,1,0,0:0:0:0:
256,48,62925,1,8,0:0:0:0:
189,243,63108,1,0,0:0:0:0:
341,157,63291,1,2,0:0:0:0:
247,322,63474,1,2,0:0:0:0:
90,223,63657,1,8,0:0:0:0:
326,274,63840,6,0,P|411:247|499:226,1,180,2|2,0:0|0:0,0:0:0:0:
341,157,64389,1,8,0:0:0:0:
469,24,64572,1,0,0:0:0:0:
469,24,64663,1,0,0:0:0:0:
469,24,64755,2,0,P|456:67|435:110,1,90,2|2,0:0|0:0,0:0:0:0:
256,48,65121,2,0,P|219:76|179:95,1,90,8|0,0:0|0:0,0:0:0:0:
135,88,65395,5,0,0:0:0:0:
135,88,65486,2,0,P|139:132|155:174,1,90,6|0,0:0|0:0,0:0:0:0:
312,364,65852,2,0,L|332:227,1,135,8|0,0:0|0:0,0:0:0:0:
341,157,66218,1,2,0:0:0:0:
217,246,66401,1,2,0:0:0:0:
256,48,66584,1,8,0:0:0:0:
490,91,66767,6,0,B|441:96|428:145|428:145|380:128|341:157,1,180,6|0,0:0|0:0,0:0:0:0:
341,156,67316,1,8,0:0:0:0:
131,223,67499,2,0,P|87:212|42:207,1,90,6|0,0:0|0:0,0:0:0:0:
176,86,67864,1,2,0:0:0:0:
217,246,68047,1,8,0:0:0:0:
265,125,68230,1,8,0:0:0:0:
265,125,68322,1,8,0:0:0:0:
265,125,68413,5,6,0:0:0:0:
159,323,68596,1,0,0:0:0:0:
295,215,68779,1,8,0:0:0:0:
176,86,68962,2,0,L|190:174,1,90,2|0,0:0|0:0,0:0:0:0:
351,0,69328,2,0,L|336:88,1,90,2|8,0:0|0:0,0:0:0:0:
330,291,69694,6,0,P|264:291|217:246,1,135,6|0,0:0|0:0,0:0:0:0:
190,174,70059,1,2,0:0:0:0:
0,247,70242,1,8,0:0:0:0:
159,323,70425,1,8,0:0:0:0:
159,323,70517,1,8,0:0:0:0:
159,323,70608,1,8,0:0:0:0:
122,115,70791,1,2,0:0:0:0:
38,222,70974,1,2,0:0:0:0:
90,3,71157,1,2,0:0:0:0:
293,140,71340,6,0,B|347:177|347:177|412:186|452:126,2,180,6|8|2,0:0|0:0|0:0,0:0:0:0:
132,53,72255,1,2,0:0:0:0:
228,240,72438,1,8,0:0:0:0:
315,111,72620,6,0,L|328:12,1,90,2|0,0:0|0:0,0:0:0:0:
186,138,72986,1,2,0:0:0:0:
341,230,73169,1,8,0:0:0:0:
177,314,73352,1,0,0:0:0:0:
177,314,73444,1,0,0:0:0:0:
177,314,73535,2,0,P|135:301|91:292,1,90,2|2,0:0|0:0,0:0:0:0:
327,363,73901,2,0,P|372:353|414:339,1,90,8|0,0:0|0:0,0:0:0:0:
426,306,74175,5,0,0:0:0:0:
426,306,74267,2,0,L|437:196,1,90,2|0,0:0|0:0,0:0:0:0:
256,74,74633,1,8,0:0:0:0:
341,230,74816,1,0,0:0:0:0:
341,230,74907,1,0,0:0:0:0:
341,230,74999,1,2,0:0:0:0:
509,111,75181,1,2,0:0:0:0:
482,124,75272,1,0,0:0:0:0:
452,122,75364,1,8,0:0:0:0:
427,137,75455,1,0,0:0:0:0:
397,137,75547,6,0,P|332:149|277:108,1,135,6|0,0:0|0:0,0:0:0:0:
256,74,75913,2,0,L|264:170,1,90,8|0,0:0|0:0,0:0:0:0:
1,211,76279,2,0,L|28:299,1,90,8|0,0:3|0:0,0:0:0:0:
260,380,76645,1,8,0:0:0:0:
260,380,76736,1,8,0:0:0:0:
260,380,76828,1,8,0:0:0:0:
169,187,77011,1,2,0:0:0:0:
145,344,77194,5,2,0:0:0:0:
145,344,77559,2,0,B|185:312|185:312|202:249|169:187,1,180,6|0,0:0|0:0,0:0:0:0:
281,309,78108,1,2,0:0:0:0:
74,238,78291,1,8,0:0:0:0:
166,32,78474,6,0,P|237:84|323:66,1,180,2|2,0:0|0:0,0:0:0:0:
500,145,79023,1,8,0:0:0:0:
436,20,79206,1,0,0:0:0:0:
436,20,79297,1,0,0:0:0:0:
436,20,79389,1,2,0:0:0:0:
333,152,79572,1,2,0:0:0:0:
504,233,79755,1,8,0:0:0:0:
473,227,79846,1,0,0:0:0:0:
442,234,79937,1,0,0:0:0:0:
417,253,80029,1,0,0:0:0:0:
400,279,80120,6,0,L|386:368,1,90,2|0,0:0|0:0,0:0:0:0:
333,152,80486,2,0,L|318:240,1,90,8|0,0:0|0:0,0:0:0:0:
500,145,80852,1,2,0:0:0:0:
400,279,81035,1,2,0:0:0:0:
436,20,81218,1,8,0:0:0:0:
170,141,81401,6,0,B|122:126|84:157|84:157|32:157|11:116,1,180,6|0,0:0|0:0,0:0:0:0:
226,69,81950,2,0,P|249:106|258:150,1,90,8|0,0:0|0:0,0:0:0:0:
241,183,82224,1,8,0:0:0:0:
241,183,82316,2,0,L|212:241,1,45,8|8,0:0|0:0,0:0:0:0:
296,241,82499,2,0,L|325:299,1,45,8|8,0:0|0:0,0:0:0:0:
240,296,82681,5,0,0:0:0:0:
237,309,82772,1,0,0:0:0:0:
234,322,82864,1,0,0:0:0:0:
231,335,82955,1,0,0:0:0:0:
228,348,83047,6,0,P|187:323|141:319,1,94.499997116089,2|0,0:0|0:0,0:0:0:0:
20,219,83413,6,0,P|60:238|105:241,1,90,6|0,0:0|0:0,0:0:0:0:
289,197,83779,1,2,0:0:0:0:
228,348,83962,1,2,0:0:0:0:
442,259,84145,1,8,0:0:0:0:
289,197,84328,6,0,L|316:282,1,90,2|0,0:0|0:0,0:0:0:0:
392,130,84694,1,2,0:0:0:0:
392,130,84877,2,0,P|413:84|415:35,1,90,8|0,0:0|0:0,0:0:0:0:
399,14,85151,1,0,0:0:0:0:
399,14,85242,1,2,0:0:0:0:
511,139,85425,1,2,0:0:0:0:
293,73,85608,1,8,0:0:0:0:
293,73,85974,6,0,B|238:122|170:106|170:106|149:63,1,180,6|0,0:0|0:0,0:0:0:0:
66,207,86566,1,8,3:0:0:0:
66,207,86763,2,0,L|81:302,1,90,2|2,0:0|0:0,0:0:0:0:
192,368,87185,5,4,0:0:0:0:
256,192,87291,12,2,90143,0:0:0:0:
