osu file format v14

[General]
AudioFilename: audio.mp3
AudioLeadIn: 0
PreviewTime: 47834
Countdown: 0
SampleSet: Soft
StackLeniency: 0.7
Mode: 0
LetterboxInBreaks: 0
WidescreenStoryboard: 0

[Editor]
Bookmarks: 86270
DistanceSpacing: 0.2
BeatDivisor: 4
GridSize: 4
TimelineZoom: 2.6

[Metadata]
Title:Platinum
TitleUnicode:プラチナ
Artist:Aoyama Mio starring Yuuki Aoi
ArtistUnicode:青山美生 starring 悠木 碧
Creator:pyrowar56
Version:Hard
Source:カードキャプターさくら
Tags:madoka magica opening madomagi kami nomi zo shiru sekai character cover album cardcaptor sakura
BeatmapID:1791706
BeatmapSetID:832034

[Difficulty]
HPDrainRate:6
CircleSize:4
OverallDifficulty:6
ApproachRate:8
SliderMultiplier:1.5
SliderTickRate:2

[Events]
//Background and Video events
0,0,"madomagibg.jpg",0,0
//Break Periods
//Storyboard Layer 0 (Background)
//Storyboard Layer 1 (Fail)
//Storyboard Layer 2 (Pass)
//Storyboard Layer 3 (Foreground)
//Storyboard Sound Samples

[TimingPoints]
2560,365.853658536585,4,2,2,60,1,0
4023,-142.857142857143,4,2,2,30,0,0
14816,-142.857142857143,4,2,1,30,0,0
15730,-100,4,2,3,40,0,0
36218,-100,4,2,3,50,0,0
44999,-100,4,2,1,50,0,0
47925,-100,4,2,1,60,0,1
55883,-100,4,2,5,50,0,1
56066,-100,4,2,1,60,0,1
57529,-100,4,2,5,50,0,1
57712,-100,4,2,1,60,0,1
59084,-100,4,2,1,40,0,1
59633,-100,4,2,1,60,0,1
77194,-100,4,2,1,40,0,1
77559,-100,4,2,1,60,0,0
83047,-142.857142857143,4,2,1,30,0,0
83413,-100,4,2,1,60,0,0
85974,394.736842105263,4,2,1,50,1,0
86763,422.535211267606,4,2,1,50,1,0
90143,-100,4,2,2,30,0,0

[Colours]
Combo1 : 167,248,179
Combo2 : 254,175,247
Combo3 : 205,200,249

[HitObjects]
86,129,4023,6,0,L|19:118,2,52.4999983978272,4|0|0,0:0|0:0|0:0,0:0:0:0:
186,160,4572,2,0,P|239:134|305:138,1,104.999996795654,2|0,0:0|0:0,0:0:0:0:
372,181,5120,2,0,P|349:206|324:223,1,52.4999983978272
256,272,5486,6,0,L|273:390,2,104.999996795654,2|0|0,0:0|0:0|0:0,0:0:0:0:
340,92,6584,2,0,L|332:40,1,52.4999983978272,0|0,0:0|0:0,0:0:0:0:
236,63,6950,6,0,P|185:68|136:51,1,104.999996795654,2|0,0:0|0:0,0:0:0:0:
23,136,7499,2,0,P|74:130|123:147,1,104.999996795654,2|0,0:0|0:0,0:0:0:0:
168,212,8047,2,0,L|177:263,1,52.4999983978272,0|0,0:0|0:0,0:0:0:0:
258,175,8413,6,0,L|272:60,1,104.999996795654,2|0,0:0|0:0,0:0:0:0:
349,145,8962,1,0,0:0:0:0:
349,145,9145,2,0,P|400:147|447:123,1,104.999996795654,2|0,0:0|0:0,0:0:0:0:
510,314,9877,6,0,P|458:306|405:301,1,104.999996795654,2|0,0:0|0:0,0:0:0:0:
283,350,10425,2,0,P|230:345|178:337,1,104.999996795654,2|0,0:0|0:0,0:0:0:0:
178,337,10974,1,0,0:0:0:0:
254,246,11157,5,2,0:0:0:0:
254,246,11523,1,0,0:0:0:0:
254,246,11706,2,0,P|262:220|266:194,1,52.4999983978272
344,121,12072,2,0,P|390:144|442:142,1,104.999996795654,0|0,0:0|0:0,0:0:0:0:
256,24,12803,6,0,L|216:18,2,34.9999989318848,2|0|0,0:0|0:0|0:0,0:0:0:0:
214,93,13169,2,0,L|174:87,2,34.9999989318848,0|0|0,0:0|0:0|0:0,0:0:0:0:
172,162,13535,2,0,L|132:156,2,34.9999989318848,0|0|0,0:0|0:0|0:0,0:0:0:0:
130,231,13901,2,0,L|90:225,2,34.9999989318848,0|0|0,0:0|0:0|0:0,0:0:0:0:
199,277,14267,6,0,P|246:256|298:254,1,104.999996795654,2|0,0:0|0:0,0:0:0:0:
393,287,14816,1,4,0:3:0:0:
393,287,15181,1,2,0:0:0:0:
393,287,15364,2,0,L|395:356,1,52.4999983978272,2|0,0:0|0:0,0:0:0:0:
485,252,15730,5,4,0:0:0:0:
485,252,16096,2,0,P|457:184|480:114,1,150,0|0,0:0|0:0,0:0:0:0:
395,51,16645,1,0,0:0:0:0:
395,51,16828,2,0,P|358:54|319:40,1,75,8|2,0:0|0:1,0:0:0:0:
202,95,17194,6,0,P|129:82|69:122,1,150,2|0,0:1|0:0,0:0:0:0:
24,240,17742,2,0,L|40:313,1,75,0|0,0:0|0:0,0:0:0:0:
133,285,18108,1,0,0:0:0:0:
133,285,18292,2,0,L|149:358,1,75,2|0,0:0|0:0,0:0:0:0:
242,320,18657,6,0,P|314:324|368:269,1,150,2|0,0:1|0:0,0:0:0:0:
406,188,19206,2,0,P|334:184|280:239,1,150,0|0,0:0|0:0,0:0:0:0:
281,235,19755,2,0,L|275:149,1,75,8|2,0:0|0:1,0:0:0:0:
310,57,20120,6,0,B|354:84|354:84|406:86|446:44,1,150,2|0,0:1|0:0,0:0:0:0:
511,153,20669,2,0,L|496:311,1,150,0|0,0:0|0:0,0:0:0:0:
406,188,21218,2,0,L|417:279,1,75,2|0,0:0|0:0,0:0:0:0:
306,339,21584,6,0,P|231:327|160:304,2,150,2|0|0,0:1|0:0|0:0,0:0:0:0:
353,243,22499,1,0,0:0:0:0:
353,243,22681,2,0,P|388:230|425:225,1,75,8|2,0:0|0:1,0:0:0:0:
510,126,23047,6,0,P|472:121|437:107,1,75,2|0,0:1|0:0,0:0:0:0:
307,48,23413,1,0,0:0:0:0:
307,48,23596,2,0,L|148:26,1,150,0|0,0:0|0:0,0:0:0:0:
71,140,24145,2,0,L|145:129,1,75,2|2,0:0|0:1,0:0:0:0:
242,175,24511,5,2,0:1:0:0:
242,175,24877,2,0,P|248:211|251:249,1,75,0|0,0:0|0:0,0:0:0:0:
170,332,25242,2,0,P|97:330|55:272,2,150,0|8|2,0:0|0:0|0:1,0:0:0:0:
298,379,26157,6,0,L|372:370,1,75,0|0,0:0|0:0,0:0:0:0:
480,328,26523,2,0,P|509:260|477:195,1,150,0|2,0:0|0:1,0:0:0:0:
345,147,27072,1,2,0:0:0:0:
388,242,27255,1,2,0:1:0:0:
432,115,27438,5,2,0:1:0:0:
224,67,27803,1,0,0:0:0:0:
271,273,28169,1,0,0:0:0:0:
271,273,28535,2,0,L|363:264,1,75,8|2,0:0|0:1,0:0:0:0:
248,375,28901,6,0,P|183:341|110:347,1,150,2|0,0:1|0:0,0:0:0:0:
0,271,29450,2,0,P|74:267|129:217,1,150
188,127,29999,2,0,L|197:52,1,75,2|0,0:0|0:0,0:0:0:0:
310,7,30364,5,2,0:1:0:0:
310,7,30730,2,0,L|319:81,1,75,0|0,0:0|0:0,0:0:0:0:
201,201,31096,2,0,L|210:126,1,75,0|0,0:0|0:0,0:0:0:0:
305,179,31462,2,0,P|342:175|377:162,1,75,8|2,0:0|0:1,0:0:0:0:
261,50,31828,6,0,P|187:42|127:83,2,150,2|0|0,0:1|0:0|0:0,0:0:0:0:
209,126,32742,1,0,0:0:0:0:
305,179,32925,1,2,0:0:0:0:
359,70,33108,1,0,0:0:0:0:
187,44,33291,5,2,0:1:0:0:
187,44,33657,2,0,P|151:33|113:31,1,75,0|0,0:0|0:0,0:0:0:0:
54,115,34023,2,0,B|11:134|11:134|-3:186|29:238,1,150,0|8,0:0|0:0,0:0:0:0:
27,233,34572,1,2,0:1:0:0:
126,297,34755,6,0,L|199:281,1,75,2|0,0:1|0:0,0:0:0:0:
300,178,35120,2,0,L|227:163,1,75,0|0,0:0|0:0,0:0:0:0:
194,183,35395,1,0,0:0:0:0:
194,183,35486,2,0,P|203:146|209:109,1,75
305,9,35852,2,0,P|310:46|319:82,1,75,2|0,0:0|0:0,0:0:0:0:
365,225,36218,6,0,P|436:236|487:184,1,150,4|8,0:0|0:1,0:0:0:0:
487,184,36950,2,0,L|480:274,1,75,0|0,0:0|0:0,0:0:0:0:
490,355,37316,1,8,0:0:0:0:
490,355,37499,1,2,0:1:0:0:
356,314,37681,6,0,P|282:310|223:353,1,150,2|0,0:1|0:0,0:0:0:0:
119,305,38230,1,0,0:0:0:0:
119,305,38596,1,0,0:0:0:0:
119,305,38779,2,0,P|82:314|45:316,1,75,2|2,0:0|0:1,0:0:0:0:
200,263,39145,6,0,L|200:187,1,75,2|0,0:1|0:0,0:0:0:0:
313,111,39511,1,8,0:1:0:0:
313,111,39877,2,0,P|349:103|384:90,1,75
348,211,40242,2,0,P|313:197|276:190,1,75,8|2,0:0|0:1,0:0:0:0:
125,227,40608,6,0,P|52:231|6:175,1,150,2|0,0:1|0:0,0:0:0:0:
106,88,41157,2,0,L|83:159,1,75
45,17,41523,1,0,0:0:0:0:
45,17,41706,2,0,L|23:88,1,75,2|0,0:0|0:0,0:0:0:0:
161,11,42072,6,0,P|196:22|233:26,2,75,2|0|8,0:1|0:0|0:1,0:0:0:0:
256,260,42803,1,0,0:0:0:0:
421,48,43169,1,8,0:0:0:0:
241,110,43535,6,0,L|256:260,1,150,2|0,0:1|0:0,0:0:0:0:
352,220,44084,2,0,L|341:297,1,75,0|0,0:0|0:0,0:0:0:0:
446,284,44450,1,0,0:0:0:0:
446,284,44633,2,0,L|415:353,1,75,2|2,0:0|0:1,0:0:0:0:
261,333,44999,6,0,B|220:361|220:361|167:363|131:319,1,150,2|8,0:0|0:0,0:0:0:0:
30,284,45547,2,0,P|36:320|30:357,1,75,0|0,0:0|0:0,0:0:0:0:
103,247,45913,1,0,0:0:0:0:
103,247,46097,2,0,P|96:210|102:173,1,75,8|2,0:0|0:0,0:0:0:0:
15,50,46462,5,2,0:0:0:0:
117,90,46645,2,0,L|221:79,1,75,8|0,0:0|0:0,0:0:0:0:
338,46,47011,1,8,0:0:0:0:
338,46,47102,1,8,0:0:0:0:
338,46,47194,1,10,0:0:0:0:
256,276,47559,1,10,0:0:0:0:
256,276,47925,6,0,P|236:204|258:133,1,150,6|8,0:0|0:0,0:0:0:0:
346,188,48474,2,0,P|383:186|419:177,1,75,0|2,0:0|0:0,0:0:0:0:
500,290,48840,2,0,P|463:281|426:279,1,75,2|8,0:0|0:0,0:0:0:0:
300,346,49206,6,0,P|228:355|175:306,1,150,2|2,0:0|0:0,0:0:0:0:
73,204,49755,2,0,L|67:316,1,112.5,8|0,0:0|0:0,0:0:0:0:
97,348,50120,2,0,L|100:273,1,75,2|2,0:0|0:0,0:0:0:0:
30,132,50486,1,8,0:0:0:0:
30,132,50852,6,0,B|71:114|104:124|104:124|110:88|151:69,1,150,2|8,0:0|0:0,0:0:0:0:
276,106,51401,1,0,0:0:0:0:
276,106,51584,2,0,P|311:117|348:119,1,75,2|2,0:0|0:0,0:0:0:0:
256,25,51950,1,8,0:0:0:0:
185,149,52133,6,0,B|143:201|155:256|155:256|182:282,1,150,2|2,0:0|0:0,0:0:0:0:
310,371,52681,2,0,P|324:336|328:299,1,75,8|0,0:0|0:0,0:0:0:0:
309,266,52956,1,0,0:0:0:0:
309,266,53047,2,0,L|383:257,1,75,2|2,0:0|0:0,0:0:0:0:
442,135,53413,2,0,L|367:126,1,75,8|0,0:0|0:0,0:0:0:0:
229,214,53779,6,0,P|155:219|106:166,2,150,6|8|2,0:0|0:0|0:0,0:0:0:0:
249,104,54694,1,2,0:0:0:0:
321,191,54877,2,0,L|305:288,1,75,8|0,0:0|0:0,0:0:0:0:
186,310,55242,6,0,L|198:384,2,75,2|2|8,0:0|0:0|0:0,0:0:0:0:
317,349,55791,2,0,P|388:325|462:315,1,150,0|2,0:0|0:0,0:0:0:0:
393,204,56340,2,0,P|355:201|320:190,1,75,8|0,0:0|0:0,0:0:0:0:
209,143,56706,6,0,P|195:108|191:70,1,75,2|2,0:0|0:0,0:0:0:0:
302,0,57072,2,0,P|315:34|319:72,1,75,8|0,0:0|0:0,0:0:0:0:
192,71,57438,2,0,L|30:55,1,150,2|8,0:0|0:0,0:0:0:0:
1,184,57986,6,0,P|69:211|102:276,1,150,2|2,0:0|0:0,0:0:0:0:
42,355,58535,1,8,0:0:0:0:
179,320,58718,1,8,0:0:0:0:
179,320,58809,1,8,0:0:0:0:
179,320,58901,2,0,L|237:310,3,37.5,2|0|8|8,0:0|0:0|0:0|0:0,0:0:0:0:
250,333,59267,2,0,L|308:343,3,37.5,8|8|8|8,0:0|0:0|0:0|0:0,0:0:0:0:
347,292,59633,6,0,P|363:257|370:221,1,75,6|0,0:0|0:0,0:0:0:0:
475,270,59999,1,8,0:0:0:0:
474,269,60181,2,0,P|451:199|444:124,1,150,0|2,0:0|0:0,0:0:0:0:
512,65,60730,1,8,0:0:0:0:
512,64,60913,6,0,P|440:75|391:22,1,150,2|2,0:0|0:0,0:0:0:0:
308,81,61462,1,8,0:0:0:0:
366,153,61645,1,0,0:0:0:0:
366,153,61736,1,0,0:0:0:0:
366,153,61828,2,0,P|360:189|344:223,1,75,2|2,0:0|0:0,0:0:0:0:
420,267,62194,2,0,P|387:295|352:306,1,75,8|0,0:0|0:0,0:0:0:0:
210,271,62559,6,0,L|59:255,1,150,2|8,0:0|0:0,0:0:0:0:
99,373,63108,1,0,0:0:0:0:
99,373,63291,2,0,L|172:360,1,75,2|2,0:0|0:0,0:0:0:0:
301,372,63657,1,8,0:0:0:0:
209,270,63840,6,0,P|187:200|215:132,1,150,2|2,0:0|0:0,0:0:0:0:
319,199,64389,2,0,P|353:212|390:211,1,75,8|0,0:0|0:0,0:0:0:0:
509,124,64755,2,0,P|479:147|462:179,1,75,2|2,0:0|0:0,0:0:0:0:
457,259,65120,2,0,L|452:351,1,75,8|0,0:0|0:0,0:0:0:0:
438,362,65395,5,0,0:0:0:0:
438,362,65486,2,0,P|366:372|314:322,1,150,6|8,0:0|0:0,0:0:0:0:
314,321,66035,1,0,0:0:0:0:
187,292,66218,2,0,L|109:285,1,75,2|2,0:0|0:0,0:0:0:0:
196,382,66584,1,8,0:0:0:0:
281,279,66767,6,0,B|321:229|316:178|316:178|281:130,1,150,6|0,0:0|0:0,0:0:0:0:
292,145,67316,1,8,0:0:0:0:
183,18,67499,2,0,L|167:167,1,150,6|2,0:0|0:0,0:0:0:0:
268,99,68047,2,0,P|304:110|341:113,1,75,8|8,0:0|0:0,0:0:0:0:
375,92,68322,5,8,0:0:0:0:
375,92,68413,2,0,P|447:105|485:168,1,150,6|8,0:0|0:0,0:0:0:0:
398,293,68962,2,0,P|326:280|288:217,1,150,2|2,0:0|0:0,0:0:0:0:
386,192,69511,1,8,0:0:0:0:
224,294,69694,6,0,L|62:269,1,150,6|2,0:0|0:0,0:0:0:0:
2,165,70242,2,0,L|76:153,1,75,8|8,0:0|0:0,0:0:0:0:
109,139,70517,1,8,0:0:0:0:
108,139,70608,2,0,P|124:105|129:68,1,75,8|2,0:0|0:0,0:0:0:0:
222,22,70974,1,2,0:0:0:0:
219,123,71157,1,2,0:0:0:0:
122,26,71340,6,0,P|49:22|0:76,2,150,6|8|2,0:0|0:0|0:0,0:0:0:0:
165,109,72255,2,0,L|239:97,1,75,2|8,0:0|0:0,0:0:0:0:
363,191,72620,6,0,L|288:179,1,75,2|0,0:0|0:0,0:0:0:0:
137,256,72986,2,0,L|211:244,1,75,2|8,0:0|0:0,0:0:0:0:
309,298,73352,1,0,0:0:0:0:
309,298,73444,1,0,0:0:0:0:
309,298,73535,2,0,P|310:335|300:371,1,75,2|2,0:0|0:0,0:0:0:0:
211,243,73901,2,0,P|200:207|202:169,1,75,8|0,0:0|0:0,0:0:0:0:
326,70,74267,6,0,P|380:73|420:112,1,112.5,2|0,0:0|0:0,0:0:0:0:
450,183,74633,2,0,L|437:275,1,75,8|0,0:0|0:0,0:0:0:0:
491,364,74999,2,0,P|451:357|412:353,1,75,2|2,0:0|0:0,0:0:0:0:
380,326,75273,1,0,0:0:0:0:
380,326,75364,1,8,0:0:0:0:
256,376,75547,5,6,0:0:0:0:
31,191,75913,1,8,0:0:0:0:
256,8,76279,1,8,0:3:0:0:
256,8,76645,1,8,0:0:0:0:
256,8,76736,1,8,0:0:0:0:
256,8,76828,1,8,0:0:0:0:
192,128,77011,1,2,0:0:0:0:
321,95,77194,5,2,0:0:0:0:
321,95,77559,2,0,P|357:159|330:226,1,150,6|0,0:0|0:0,0:0:0:0:
419,287,78108,2,0,P|422:324|432:360,1,75,2|8,0:0|0:0,0:0:0:0:
297,308,78474,6,0,P|227:285|164:321,1,150,2|2,0:0|0:0,0:0:0:0:
26,260,79023,2,0,P|72:263|126:213,1,112.5,8|0,0:0|0:0,0:0:0:0:
138,188,79389,2,0,L|152:98,1,75,2|2,0:0|0:0,0:0:0:0:
248,34,79755,2,0,L|259:108,1,75,8|0,0:0|0:0,0:0:0:0:
256,152,80029,5,0,0:0:0:0:
256,152,80120,2,0,P|294:138|335:137,1,75,2|0,0:0|0:0,0:0:0:0:
445,196,80486,2,0,B|494:169|490:100|490:100|451:57,1,150,8|2,0:0|0:0,0:0:0:0:
337,97,81035,1,2,0:0:0:0:
384,1,81218,1,8,0:0:0:0:
406,129,81401,6,0,L|364:292,1,150,6|0,0:0|0:0,0:0:0:0:
267,374,81950,2,0,L|249:284,1,75,8|0,0:0|0:0,0:0:0:0:
256,260,82224,1,8,0:0:0:0:
256,260,82316,2,0,L|205:248,3,37.5,8|8|8|8,0:0|0:0|0:0|0:0,0:0:0:0:
168,309,82681,2,0,L|117:297,3,37.5,0|0|0|0,0:0|0:0|0:0|0:0,0:0:0:0:
67,344,83047,5,2,0:0:0:0:
67,344,83413,2,0,P|28:282|53:214,1,150,6|2,0:0|0:0,0:0:0:0:
53,214,83962,2,0,L|53:139,1,75,2|8,0:0|0:0,0:0:0:0:
162,10,84328,6,0,P|169:87|186:170,1,150,2|2,0:0|0:0,0:0:0:0:
286,83,84877,2,0,P|323:84|358:97,1,75,8|0,0:0|0:0,0:0:0:0:
378,123,85151,1,0,0:0:0:0:
378,123,85242,2,0,P|415:121|450:108,1,75,2|2,0:0|0:0,0:0:0:0:
390,12,85608,1,8,0:0:0:0:
182,158,85974,6,0,L|190:232,1,75,4|0,0:0|0:0,0:0:0:0:
318,264,86368,2,0,L|307:356,1,75,0|8,0:0|3:0,0:0:0:0:
179,369,86763,2,0,P|106:361|67:300,1,150,2|4,0:0|0:0,0:0:0:0:
256,192,87291,12,2,90143,0:0:0:0:
