osu file format v14

[General]
AudioFilename: audio.mp3
AudioLeadIn: 0
PreviewTime: 47874
Countdown: 0
SampleSet: Soft
StackLeniency: 0.3
Mode: 0
LetterboxInBreaks: 0
WidescreenStoryboard: 0

[Editor]
Bookmarks: 36218,94791
DistanceSpacing: 1
BeatDivisor: 4
GridSize: 4
TimelineZoom: 1.5

[Metadata]
Title:Platinum (Cut Ver.)
TitleUnicode:プラチナ (Cut Ver.)
Artist:Aoyama Mio (CV: Yuuki Aoi)
ArtistUnicode:青山美生 (CV: 悠木碧)
Creator:muya-
Version:Remembrance
Source:カードキャプターさくら
Tags:anime edit version jpop j-pop pop japanese dkblaze deemu elinor [_eli_] eli Cardcaptor Sakura Sakamoto Maaya 神のみぞ知るセカイ Kami Nomi zo Shiru Sekai Character Album the world god only knows Platina opening op ending ed captor ccs clamp girl skirt wings
BeatmapID:2844052
BeatmapSetID:1375987

[Difficulty]
HPDrainRate:5.2
CircleSize:3.8
OverallDifficulty:8.4
ApproachRate:8.8
SliderMultiplier:1.4
SliderTickRate:1

[Events]
//Background and Video events
0,0,"love you realy0.png",0,0
//Break Periods
//Storyboard Layer 0 (Background)
//Storyboard Layer 1 (Fail)
//Storyboard Layer 2 (Pass)
//Storyboard Layer 3 (Foreground)
//Storyboard Layer 4 (Overlay)
//Storyboard Sound Samples

[TimingPoints]
2615,365.853658536585,4,2,1,60,1,0
4078,-125,4,2,1,60,0,0
13224,-142.857142857143,4,2,1,60,0,0
13590,-166.666666666667,4,2,1,60,0,0
13956,-200,4,2,1,60,0,0
14322,-125,4,2,1,60,0,0
15785,-105.263157894737,4,2,2,70,0,0
15877,-105.263157894737,4,2,4,70,0,0
18346,-105.263157894737,4,2,5,70,0,0
18438,-105.263157894737,4,2,4,70,0,0
21273,-105.263157894737,4,2,6,70,0,0
21364,-105.263157894737,4,2,4,70,0,0
24200,-105.263157894737,4,2,5,70,0,0
24291,-105.263157894737,4,2,4,70,0,0
27127,-105.263157894737,4,2,5,70,0,0
27218,-105.263157894737,4,2,4,70,0,0
30054,-105.263157894737,4,2,5,70,0,0
30145,-105.263157894737,4,2,4,70,0,0
32980,-105.263157894737,4,2,5,70,0,0
33072,-105.263157894737,4,2,4,70,0,0
35907,-105.263157894737,4,2,1,70,0,0
36273,-86.9565217391304,4,2,2,80,0,0
36364,-86.9565217391304,4,2,1,80,0,0
45054,-80,4,2,1,80,0,0
47980,-74.0740740740741,4,2,2,90,0,1
48072,-74.0740740740741,4,2,1,90,0,1
54108,-74.0740740740741,4,2,1,5,0,1
54200,-74.0740740740741,4,2,1,90,0,1
59322,-117.647058823529,4,2,1,90,0,1
59596,-117.647058823529,4,2,1,90,0,0
59688,-74.0740740740741,4,2,2,90,0,1
59779,-74.0740740740741,4,2,1,90,0,1
65816,-74.0740740740741,4,2,1,5,0,1
65907,-74.0740740740741,4,2,1,90,0,1
71029,-74.0740740740741,4,2,2,90,0,1
71212,-74.0740740740741,4,2,3,90,0,1
71304,-74.0740740740741,4,2,3,90,0,0
71395,-74.0740740740741,4,2,2,85,0,1
71486,-74.0740740740741,4,2,1,85,0,1
75602,-105.263157894737,4,2,1,85,0,1
75877,-105.263157894737,4,2,1,5,0,1
75968,-74.0740740740741,4,2,1,85,0,1
76334,-74.0740740740741,4,2,2,85,0,1
76425,-74.0740740740741,4,2,1,85,0,1
77066,-74.0740740740741,4,2,3,85,0,1
77157,-74.0740740740741,4,2,1,85,0,1
77249,-133.333333333333,4,2,1,85,0,0
77523,-133.333333333333,4,2,1,5,0,0
77614,-74.0740740740741,4,2,2,85,0,1
77706,-74.0740740740741,4,2,1,85,0,1
78072,-74.0740740740741,4,2,1,5,0,1
78163,-74.0740740740741,4,2,1,85,0,1
80450,-74.0740740740741,4,2,1,5,0,1
80541,-74.0740740740741,4,2,1,85,0,1
83102,-133.333333333333,4,2,1,85,0,0
83377,-133.333333333333,4,2,1,5,0,0
83468,-74.0740740740741,4,2,2,85,0,1
83560,-74.0740740740741,4,2,1,85,0,1
86029,379.746835443038,4,2,2,70,1,0
86029,-100,4,2,1,70,0,0
86768,384.615384615385,4,2,2,70,1,0
86768,-142.857142857143,4,2,2,70,0,0
86960,-142.857142857143,4,2,3,70,0,0
87152,394.736842105263,4,2,3,70,1,0
87152,-238.095238095238,4,2,1,70,0,0
87941,-238.095238095238,4,2,1,60,0,0
88730,-238.095238095238,4,2,1,50,0,0
89520,-238.095238095238,4,2,1,40,0,0
90309,-238.095238095238,4,2,1,30,0,0
91099,-238.095238095238,4,2,1,20,0,0
91888,-238.095238095238,4,2,1,10,0,0
92678,-238.095238095238,4,2,1,5,0,0
93467,-238.095238095238,4,2,1,5,0,0

[Colours]
Combo1 : 253,115,156
Combo2 : 253,168,215
Combo3 : 255,164,173
Combo4 : 250,116,230
Combo5 : 134,104,253
SliderBorder : 255,164,164
SliderTrackOverride : 58,25,13

[HitObjects]
375,111,4078,6,0,P|370:75|363:51,2,56,2|2|2,0:0|0:0|0:0,0:0:0:0:
458,181,4627,2,0,P|451:208|447:235,1,56,2|0,0:0|0:0,0:0:0:0:
512,324,4993,2,0,P|465:283|403:285,1,112,2|0,0:0|0:0,0:0:0:0:
298,355,5541,6,0,P|331:360|359:349,1,56,2|0,0:0|0:0,0:0:0:0:
230,288,5907,2,0,P|209:314|204:343,1,56,2|0,0:0|0:0,0:0:0:0:
322,262,6273,2,0,P|309:230|221:193,1,112,2|0,0:0|0:0,0:0:0:0:
49,241,7005,6,0,L|42:304,1,56,2|2,0:0|0:0,0:0:0:0:
43,297,7371,1,2,0:0:0:0:
141,254,7554,2,0,L|134:191,1,56,2|0,0:0|0:0,0:0:0:0:
31,118,7919,2,0,P|73:148|144:143,1,112,2|0,0:0|0:0,0:0:0:0:
228,65,8468,5,2,0:0:0:0:
228,65,8651,1,2,0:0:0:0:
302,127,8834,1,2,0:0:0:0:
378,53,9017,2,0,B|431:57|431:57|440:60|440:60|500:65,1,112,2|2,0:0|0:0,0:0:0:0:
489,64,9566,1,2,0:0:0:0:
494,284,9932,6,0,L|371:275,1,112,2|0,0:0|0:0,0:0:0:0:
300,227,10480,2,0,P|271:222|234:237,1,56
172,303,10846,1,2,0:0:0:0:
172,303,11029,1,2,0:0:0:0:
34,243,11212,6,0,B|12:185|61:140|61:140|138:146|155:221,1,224,2|0,0:0|0:0,0:0:0:0:
147,75,12127,2,0,P|107:59|73:57,1,56,2|0,0:0|0:0,0:0:0:0:
221,123,12493,2,0,P|248:117|273:105,1,56,2|0,0:0|0:0,0:0:0:0:
380,55,12858,6,0,L|373:14,2,37.3333333333333,2|2|2,0:0|0:0|0:0,0:0:0:0:
456,102,13224,2,0,L|451:142,2,32.6666656697591,2|2|2,0:0|0:0|0:0,0:0:0:0:
401,194,13590,2,0,L|405:223,2,27.9999991455078,2|2|2,0:0|0:0|0:0,0:0:0:0:
463,267,13956,2,0,L|459:292,2,23.3333333333333,2|2|2,0:0|0:0|0:0,0:0:0:0:
384,358,14322,6,0,B|333:364|333:364|326:370|326:370|265:377,1,112,2|0,0:0|0:0,0:0:0:0:
182,311,14871,2,0,P|146:306|110:319,1,56,0|0,3:0|0:0,0:0:0:0:
17,378,15236,1,0,1:0:0:0:
17,378,15419,1,0,1:0:0:0:
75,146,15785,5,4,0:0:0:0:
75,146,16151,2,0,B|147:156|123:200|193:206,1,132.999996448517,2|0,0:0|0:0,0:0:0:0:
312,181,16700,2,0,P|300:143|274:118,1,66.4999982242585,2|8,0:0|0:0,0:0:0:0:
198,120,17066,1,2,0:0:0:0:
267,271,17249,6,0,L|412:259,1,132.999996448517,0|2,1:0|0:0,0:0:0:0:
469,128,17797,2,0,L|476:202,1,66.4999982242585,2|0,0:0|0:0,0:0:0:0:
467,27,18163,2,0,P|422:32|385:64,1,66.4999982242585,2|2,0:0|0:0,0:0:0:0:
379,75,18438,1,2,0:0:0:0:
379,75,18529,1,2,0:0:0:0:
251,10,18712,6,0,P|212:5|174:20,1,66.4999982242585,2|0,1:2|0:0,0:0:0:0:
101,70,19078,1,2,0:0:0:0:
5,18,19261,2,0,P|11:102|16:173,1,132.999996448517,2|2,0:0|0:0,0:0:0:0:
23,183,19718,1,2,0:0:0:0:
23,183,19810,1,10,0:0:0:0:
6,330,19993,6,0,B|78:310|71:372|158:347,1,132.999996448517,2|0,0:0|0:0,0:0:0:0:
238,289,20541,1,2,0:0:0:0:
339,350,20724,2,0,P|370:356|409:343,1,66.4999982242585,2|0,0:0|0:0,0:0:0:0:
463,225,21090,1,2,0:0:0:0:
339,247,21273,1,2,0:0:0:0:
453,238,21456,1,2,0:0:0:0:
367,101,21639,6,0,B|308:108|308:108|293:118|293:118|229:125,1,132.999996448517,0|2,1:0|0:0,0:0:0:0:
116,133,22188,2,0,P|145:150|164:180,1,66.4999982242585,2|0,0:0|0:0,0:0:0:0:
10,146,22554,2,0,P|10:112|26:80,1,66.4999982242585,2|8,0:0|0:0,0:0:0:0:
105,47,22919,1,2,0:0:0:0:
71,220,23102,6,0,L|76:297,1,66.4999982242585,2|0,1:2|0:0,0:0:0:0:
141,384,23468,1,2,0:0:0:0:
205,283,23651,2,0,P|242:276|278:284,1,66.4999982242585,2|0,0:0|0:0,0:0:0:0:
353,223,24017,2,0,P|377:251|388:286,1,66.4999982242585,2|2,0:0|0:0,0:0:0:0:
449,356,24383,1,2,0:0:0:0:
507,240,24566,6,0,B|496:195|496:195|513:160|513:160|499:110,1,132.999996448517,0|0,1:0|0:0,0:0:0:0:
464,31,25114,1,2,0:0:0:0:
370,95,25297,1,2,0:0:0:0:
370,95,25480,1,2,0:0:0:0:
266,37,25663,1,10,0:0:0:0:
193,113,25846,6,0,P|162:115|114:100,1,66.4999982242585,2|0,0:0|0:0,0:0:0:0:
11,88,26212,2,0,P|28:113|39:162,1,66.4999982242585,2|0,0:0|0:0,0:0:0:0:
80,258,26578,2,0,P|93:230|130:196,1,66.4999982242585,2|0,0:0|0:0,0:0:0:0:
104,352,26944,2,0,P|72:358|24:339,1,66.4999982242585,2|2,0:0|0:0,0:0:0:0:
172,283,27310,1,2,0:0:0:0:
282,361,27493,6,0,B|354:349|341:394|423:376,1,132.999996448517,2|0,1:2|0:0,0:0:0:0:
411,378,28041,1,0,0:0:0:0:
510,298,28224,2,0,P|517:261|505:225,1,66.4999982242585,2|0,0:0|0:0,0:0:0:0:
404,160,28590,1,10,0:0:0:0:
512,107,28773,1,2,1:2:0:0:
392,154,28956,6,0,B|322:142|333:202|258:186,1,132.999996448517,0|2,1:2|0:0,0:0:0:0:
198,59,29505,2,0,P|245:71|264:93,1,66.4999982242585,2|0,0:0|0:0,0:0:0:0:
94,62,29871,2,0,P|80:15|90:-12,1,66.4999982242585,2|2,0:0|0:0,0:0:0:0:
148,150,30236,1,0,0:0:0:0:
148,150,30328,1,0,0:0:0:0:
148,150,30419,6,0,B|157:195|157:195|139:237|139:237|149:289,1,132.999996448517,0|0,1:2|0:0,0:0:0:0:
196,382,30968,1,2,0:0:0:0:
291,307,31151,1,2,0:0:0:0:
387,380,31334,1,2,0:0:0:0:
286,301,31517,1,10,0:0:0:0:
380,376,31700,1,2,1:2:0:0:
472,267,31883,6,0,B|458:234|418:222|418:222|387:249|386:284,1,132.999996448517,0|0,1:0|0:0,0:0:0:0:
503,159,32432,2,0,P|511:117|492:73,1,66.4999982242585,0|0,1:2|0:0,0:0:0:0:
405,60,32797,1,0,0:0:0:0:
318,133,32980,1,2,0:0:0:0:
247,56,33163,1,0,1:2:0:0:
247,56,33255,1,0,0:0:0:0:
247,56,33346,6,0,B|171:46|195:106|113:96,1,132.999996448517,0|0,1:2|0:0,0:0:0:0:
125,97,33895,1,0,0:0:0:0:
1,169,34078,2,0,P|-11:143|-10:98,1,66.4999982242585,2|0,0:0|0:0,0:0:0:0:
105,198,34444,1,10,0:0:0:0:
31,326,34627,6,0,L|36:240,1,66.4999982242585,2|0,0:0|1:2,0:0:0:0:
177,266,34993,2,0,L|173:332,1,66.4999982242585,2|0,0:0|0:0,0:0:0:0:
35,337,35358,2,0,L|40:251,1,66.4999982242585,2|0,0:0|0:0,0:0:0:0:
194,179,35724,1,2,0:0:0:0:
287,274,35907,1,8,0:0:0:0:
188,182,36090,1,2,0:0:0:0:
418,135,36273,6,0,P|424:189|394:243,1,80.5000015354157,4|0,1:2|0:0,0:0:0:0:
328,57,36639,2,0,P|371:23|433:23,1,80.5000015354157,8|2,0:0|0:0,0:0:0:0:
300,165,37005,1,2,0:0:0:0:
300,165,37188,1,2,0:0:0:0:
163,71,37371,1,10,0:0:0:0:
328,57,37554,1,2,0:0:0:0:
150,69,37736,6,0,B|59:61|86:129|-19:114,1,161.000003070831,2|8,1:2|0:0,0:0:0:0:
134,244,38285,2,0,P|161:209|164:156,1,80.5000015354157,2|0,0:0|0:0,0:0:0:0:
25,285,38651,2,0,P|41:325|86:354,1,80.5000015354157,2|8,0:0|0:0,0:0:0:0:
57,191,39017,1,2,0:0:0:0:
155,325,39200,5,2,1:2:0:0:
250,248,39383,1,2,0:0:0:0:
374,351,39566,2,0,P|413:361|464:335,1,80.5000015354157,10|2,0:0|0:0,0:0:0:0:
350,180,39932,2,0,L|342:277,1,80.5000015354157,2|0,0:0|0:0,0:0:0:0:
512,156,40297,2,0,L|504:59,1,80.5000015354157,10|0,0:0|0:0,0:0:0:0:
297,0,40663,6,0,B|239:10|239:10|221:45|221:45|153:60,1,161.000003070831,2|10,1:2|0:0,0:0:0:0:
0,76,41212,2,0,P|-4:34|16:-7,1,80.5000015354157,2|0,0:0|0:0,0:0:0:0:
67,166,41578,2,0,P|36:187|-10:191,1,80.5000015354157,2|8,0:0|0:0,0:0:0:0:
110,67,41944,1,2,0:0:0:0:
237,220,42127,5,2,1:2:0:0:
170,151,42310,1,2,0:0:0:0:
387,84,42493,2,0,P|383:136|379:183,1,80.5000015354157,10|2,0:0|0:0,0:0:0:0:
431,355,42858,2,0,P|492:368|531:349,1,80.5000015354157,2|0,0:0|0:0,0:0:0:0:
316,265,43224,2,0,P|276:259|239:273,1,80.5000015354157,10|0,0:0|0:0,0:0:0:0:
65,384,43590,6,0,B|115:363|115:363|121:240,1,161.000003070831,2|10,1:2|0:0,0:0:0:0:
5,145,44139,2,0,P|-4:188|14:235,1,80.5000015354157,2|0,0:0|0:0,0:0:0:0:
90,57,44505,2,0,B|179:48|153:112|242:100,1,161.000003070831,2|0,0:0|1:2,0:0:0:0:
428,35,45054,5,2,1:2:0:0:
494,210,45236,2,0,P|503:164|486:128,1,87.5,2|8,0:0|0:0,0:0:0:0:
421,287,45602,2,0,P|454:318|494:320,1,87.5,2|0,0:0|0:0,0:0:0:0:
390,185,45968,2,0,P|345:198|323:231,1,87.5,2|10,0:0|0:0,0:0:0:0:
182,366,46334,6,0,L|271:356,1,87.5,2|0,0:0|1:0,0:0:0:0:
102,264,46700,2,0,L|191:254,1,87.5,10|0,0:0|0:0,0:0:0:0:
435,250,47066,1,10,0:0:0:0:
420,223,47157,1,8,0:0:0:0:
405,195,47249,1,10,1:2:0:0:
405,195,47614,1,10,1:2:0:0:
405,195,47980,5,6,1:2:0:0:
507,356,48163,1,2,0:0:0:0:
327,284,48346,1,10,0:0:0:0:
512,238,48529,1,2,0:0:0:0:
391,384,48712,1,2,1:2:0:0:
512,222,48895,1,2,1:2:0:0:
292,181,49078,6,0,B|187:163|210:264|95:226,1,189.000000720978,8|0,0:0|0:0,0:0:0:0:
0,129,49627,1,2,1:2:0:0:
55,307,49810,1,10,0:0:0:0:
133,132,49993,1,2,0:0:0:0:
133,132,50084,1,8,0:0:0:0:
133,132,50175,2,0,P|174:97|229:86,1,94.5000003604889,2|0,1:2|1:0,0:0:0:0:
389,55,50541,2,0,P|344:40|309:9,1,94.5000003604889,10|2,0:0|0:0,0:0:0:0:
290,207,50907,5,2,1:2:0:0:
402,49,51090,1,2,0:0:0:0:
410,246,51273,1,10,0:0:0:0:
291,96,51456,1,2,0:0:0:0:
480,152,51639,1,2,1:2:0:0:
279,91,51822,1,2,1:2:0:0:
196,306,52005,6,0,B|210:328|231:334|253:334|280:317|305:271|254:204,1,189.000000720978,8|0,0:0|0:0,0:0:0:0:
83,141,52554,1,2,1:2:0:0:
24,339,52736,1,10,0:0:0:0:
132,231,52919,1,2,0:0:0:0:
132,231,53011,1,8,0:0:0:0:
132,231,53102,2,0,P|156:216|179:210,1,47.2500001802444,2|0,1:2|0:0,0:0:0:0:
262,216,53285,2,0,P|286:229|303:246,1,47.2500001802444,2|0,1:2|0:0,0:0:0:0:
394,384,53468,1,10,0:0:0:0:
482,164,53651,1,2,0:0:0:0:
482,164,53743,1,8,0:0:0:0:
482,164,53834,6,0,B|407:137|415:199|334:169,1,141.750000540733,6|0,1:2|0:0,0:0:0:0:
269,139,54200,1,10,0:0:0:0:
128,6,54383,2,0,B|177:37|177:37|148:186,1,189.000000720978,2|0,0:0|1:0,0:0:0:0:
1,296,54932,2,0,P|32:252|90:236,1,94.5000003604889,8|2,0:0|1:2,0:0:0:0:
223,345,55297,5,2,0:0:0:0:
223,345,55480,1,2,1:2:0:0:
355,177,55663,1,10,0:0:0:0:
477,321,55846,1,2,0:0:0:0:
477,321,55938,1,8,0:0:0:0:
477,321,56029,2,0,P|430:297|405:247,1,94.5000003604889,0|0,1:2|1:2,0:0:0:0:
482,80,56395,2,0,P|484:132|453:179,1,94.5000003604889,8|2,0:0|0:0,0:0:0:0:
270,196,56761,5,2,1:2:0:0:
405,106,56944,1,2,0:0:0:0:
257,203,57127,1,10,0:0:0:0:
142,24,57310,1,2,0:0:0:0:
142,24,57401,1,8,0:0:0:0:
142,24,57493,2,0,P|157:41|168:75,1,47.2500001802444,2|0,1:2|0:0,0:0:0:0:
185,143,57675,2,0,P|177:164|153:191,1,47.2500001802444,0|0,1:2|0:0,0:0:0:0:
268,40,57858,1,10,0:0:0:0:
8,15,58041,6,0,P|21:120|34:222,1,189.000000720978,2|2,1:2|1:2,0:0:0:0:
76,384,58590,1,10,0:0:0:0:
213,229,58773,1,2,0:0:0:0:
185,222,58864,1,8,0:0:0:0:
158,232,58956,1,0,1:2:0:0:
306,207,59139,1,10,0:0:0:0:
326,186,59230,1,10,0:0:0:0:
330,157,59322,2,0,P|324:139|315:122,1,29.7500005674362,10|2,0:0|0:0,0:0:0:0:
325,20,59505,2,0,P|306:15|287:15,1,29.7500005674362,2|2,0:0|0:0,0:0:0:0:
462,132,59688,5,6,1:2:0:0:
259,82,59871,1,2,0:0:0:0:
470,133,60054,1,10,0:0:0:0:
341,11,60236,1,2,0:0:0:0:
297,196,60419,1,0,1:0:0:0:
345,1,60602,1,2,1:2:0:0:
489,133,60785,6,0,B|530:180|530:180|500:334,1,189.000000720978,8|0,0:0|0:0,0:0:0:0:
326,380,61334,1,2,1:2:0:0:
496,314,61517,1,10,0:0:0:0:
288,216,61700,1,2,0:0:0:0:
288,216,61791,1,8,0:0:0:0:
288,216,61883,2,0,B|265:205|253:182|253:182|251:208|235:229,1,94.5000003604889,2|0,1:2|1:0,0:0:0:0:
112,346,62249,2,0,B|124:361|126:387|126:387|138:364|161:353,1,94.5000003604889,10|2,0:0|0:0,0:0:0:0:
119,177,62614,5,2,1:2:0:0:
229,307,62797,1,2,0:0:0:0:
119,169,62980,1,10,0:0:0:0:
112,346,63163,1,2,0:0:0:0:
285,217,63346,1,0,1:0:0:0:
106,352,63529,1,2,1:2:0:0:
115,154,63712,6,0,B|77:116|23:126|23:126|-10:170|6:225,1,189.000000720978,8|0,0:0|0:0,0:0:0:0:
153,45,64261,1,2,1:2:0:0:
270,196,64444,1,10,0:0:0:0:
389,82,64627,1,2,0:0:0:0:
389,82,64718,1,8,0:0:0:0:
389,82,64810,2,0,P|412:84|436:94,1,47.2500001802444,2|0,1:2|0:0,0:0:0:0:
496,164,64993,1,0,1:0:0:0:
287,94,65175,1,10,0:0:0:0:
270,309,65358,1,2,0:0:0:0:
270,309,65450,1,8,0:0:0:0:
270,309,65541,6,0,B|344:293|331:354|422:329,1,141.750000540733,6|0,1:2|0:0,0:0:0:0:
477,285,65907,1,10,0:0:0:0:
269,193,66090,1,0,0:0:0:0:
269,193,66182,1,8,0:0:0:0:
269,193,66273,2,0,P|213:203|179:237,1,94.5000003604889,0|0,1:0|1:0,0:0:0:0:
45,379,66639,1,10,0:0:0:0:
0,195,66822,6,0,B|-5:146|35:113|35:113|102:121|117:181,1,189.000000720978,6|0,1:2|1:0,0:0:0:0:
215,21,67371,1,10,0:0:0:0:
371,71,67554,2,0,B|268:51|294:148|171:112,1,189.000000720978,6|0,1:2|1:0,0:0:0:0:
348,165,68102,1,10,0:0:0:0:
454,9,68285,1,2,0:0:0:0:
482,10,68377,1,8,0:0:0:0:
504,27,68468,6,0,L|509:133,1,94.5000003604889,6|0,1:2|0:0,0:0:0:0:
449,320,68834,1,10,0:0:0:0:
348,165,69017,2,0,P|286:169|250:208,1,94.5000003604889,2|0,1:2|0:0,0:0:0:0:
312,363,69383,2,0,P|339:307|323:256,1,94.5000003604889,2|8,1:2|0:0,0:0:0:0:
92,146,69749,6,0,L|110:342,1,189.000000720978,6|0,1:2|1:0,0:0:0:0:
177,384,70206,1,0,0:0:0:0:
191,365,70297,1,8,0:0:0:0:
11,203,70480,1,8,0:0:0:0:
14,247,70571,1,8,0:0:0:0:
17,293,70663,1,10,0:0:0:0:
178,174,70846,1,2,3:2:0:0:
266,195,71029,1,2,3:2:0:0:
342,216,71212,1,0,3:2:0:0:
198,0,71395,6,0,B|120:15|120:15|94:40|94:40|7:55,1,189.000000720978,4|8,1:2|0:0,0:0:0:0:
175,92,71944,1,0,0:0:0:0:
175,92,72035,1,8,0:0:0:0:
175,92,72127,2,0,L|222:82,1,47.2500001802444,2|0,1:2|0:0,0:0:0:0:
283,24,72310,2,0,L|330:34,1,47.2500001802444,2|0,1:2|0:0,0:0:0:0:
482,159,72493,1,10,0:0:0:0:
475,47,72675,6,0,P|467:103|459:158,1,94.5000003604889,2|0,1:2|0:0,0:0:0:0:
512,313,73041,2,0,P|477:281|411:278,1,94.5000003604889,2|8,1:2|0:0,0:0:0:0:
298,384,73407,1,2,0:0:0:0:
326,381,73499,1,0,0:0:0:0:
348,363,73590,1,2,1:2:0:0:
230,261,73773,1,2,1:2:0:0:
58,384,73956,1,10,0:0:0:0:
2,183,74139,1,2,0:0:0:0:
2,183,74230,1,8,0:0:0:0:
2,183,74322,6,0,B|9:150|51:131|51:131|118:181|70:263,1,189.000000720978,0|8,1:2|0:0,0:0:0:0:
124,64,74871,1,0,0:0:0:0:
102,45,74962,1,8,0:0:0:0:
74,37,75054,1,0,1:0:0:0:
210,124,75236,1,2,1:2:0:0:
249,124,75327,1,2,0:0:0:0:
286,109,75418,1,10,0:0:0:0:
314,80,75510,1,2,0:0:0:0:
327,42,75602,6,0,B|383:49|383:49|390:54|390:54|440:59,1,99.7499973363877,6|0,1:2|0:0,0:0:0:0:
510,100,75968,2,0,P|517:151|493:201,1,94.5000003604889,10|0,0:0|0:0,0:0:0:0:
419,281,76243,1,0,0:0:0:0:
430,265,76334,2,0,P|477:272|523:318,1,94.5000003604889,2|0,3:2|1:0,0:0:0:0:
319,380,76700,1,10,0:0:0:0:
308,322,76791,1,8,0:0:0:0:
297,265,76882,1,8,0:0:0:0:
195,361,77066,1,2,3:2:0:0:
108,350,77249,6,0,P|146:338|189:355,1,78.7500030040742,0|0,1:0|0:0,0:0:0:0:
0,339,77614,6,0,B|-14:290|17:248|17:248|1:216|1:216|45:160|8:77,1,236.250000901222,6|0,1:2|0:0,0:0:0:0:
31,28,78163,1,2,1:2:0:0:
146,124,78346,1,10,0:0:0:0:
311,54,78529,6,0,B|205:45|243:124|136:115,1,189.000000720978,6|0,1:2|1:0,0:0:0:0:
343,146,79078,2,0,P|389:121|406:78,1,94.5000003604889,8|0,0:0|0:0,0:0:0:0:
487,31,79352,1,8,0:0:0:0:
501,43,79444,2,0,L|508:148,1,94.5000003604889,0|0,1:0|1:0,0:0:0:0:
505,284,79810,1,10,0:0:0:0:
461,265,79901,1,2,0:0:0:0:
415,271,79992,1,2,0:0:0:0:
376,298,80084,1,2,0:0:0:0:
357,340,80175,6,0,B|304:345|304:345|279:368|279:368|207:377,1,141.750000540733,6|0,1:2|0:0,0:0:0:0:
138,328,80541,2,0,P|92:312|36:340,1,94.5000003604889,8|0,0:0|0:0,0:0:0:0:
235,267,80907,1,0,1:0:0:0:
235,267,81090,1,2,0:0:0:0:
56,196,81273,1,10,0:0:0:0:
184,23,81456,6,0,B|292:20|246:101|369:85,1,189.000000720978,6|0,1:2|1:0,0:0:0:0:
512,0,82005,1,8,0:0:0:0:
485,166,82188,1,0,0:0:0:0:
474,139,82279,1,8,0:0:0:0:
477,110,82371,2,0,P|499:103|525:105,1,47.2500001802444,0|8,1:0|0:0,0:0:0:0:
473,299,82554,1,10,0:0:0:0:
424,303,82645,1,10,0:0:0:0:
385,307,82736,1,10,0:0:0:0:
351,308,82828,1,2,0:0:0:0:
323,311,82919,1,2,0:0:0:0:
302,313,83011,1,2,0:0:0:0:
282,315,83102,6,0,B|245:319|245:319|241:323|241:323|203:326,1,78.7500030040742,0|0,1:2|0:0,0:0:0:0:
126,384,83468,6,0,B|152:328|152:328|127:272|127:272|158:204,1,189.000000720978,6|0,1:2|1:0,0:0:0:0:
336,99,84017,1,2,1:2:0:0:
277,220,84200,1,10,0:0:0:0:
140,34,84383,6,0,P|70:27|11:142,1,189.000000720978,6|0,1:2|1:0,0:0:0:0:
161,133,84932,2,0,P|212:114|235:70,1,94.5000003604889,8|2,0:0|0:0,0:0:0:0:
296,14,85206,1,2,0:0:0:0:
307,37,85297,2,0,P|348:71|399:71,1,94.5000003604889,2|0,1:2|1:2,0:0:0:0:
512,0,85663,1,8,0:0:0:0:
511,199,85846,1,0,0:0:0:0:
511,199,85938,1,0,0:0:0:0:
511,199,86029,6,0,P|523:169|530:121,2,70,6|2|2,0:0|0:0|0:0,0:0:0:0:
448,266,86598,1,2,3:2:0:0:
363,237,86768,2,0,P|335:230|293:232,1,48.9999985046387,2|2,3:2|3:2,0:0:0:0:
205,315,87152,6,0,B|229:189|289:297|392:130|322:3|194:19|158:57|161:103|170:140|170:140|162:104|106:4|-64:130|27:330|176:167|186:340|148:382,1,881.999973083497,6|0,1:2|0:0,0:0:0:0:
