osu file format v14

[General]
AudioFilename: audio.mp3
AudioLeadIn: 0
PreviewTime: 47874
Countdown: 0
SampleSet: Soft
StackLeniency: 0.3
Mode: 0
LetterboxInBreaks: 0
WidescreenStoryboard: 1

[Editor]
Bookmarks: 36218,94791
DistanceSpacing: 1
BeatDivisor: 4
GridSize: 32
TimelineZoom: 1.399999

[Metadata]
Title:Platinum (Cut Ver.)
TitleUnicode:プラチナ (Cut Ver.)
Artist:Aoyama Mio (CV: Yuuki Aoi)
ArtistUnicode:青山美生 (CV: 悠木碧)
Creator:muya-
Version:Deemu's Light Insane
Source:カードキャプターさくら
Tags:anime edit version jpop j-pop pop japanese dkblaze deemu elinor [_eli_] eli Cardcaptor Sakura Sakamoto Maaya 神のみぞ知るセカイ Kami Nomi zo Shiru Sekai Character Album the world god only knows Platina opening op ending ed captor ccs clamp girl skirt wings
BeatmapID:2925978
BeatmapSetID:1375987

[Difficulty]
HPDrainRate:5
CircleSize:3.5
OverallDifficulty:8
ApproachRate:8.4
SliderMultiplier:1.4
SliderTickRate:1

[Events]
//Background and Video events
0,0,"love you realy0.png",0,0
//Break Periods
//Storyboard Layer 0 (Background)
//Storyboard Layer 1 (Fail)
//Storyboard Layer 2 (Pass)
//Storyboard Layer 3 (Foreground)
//Storyboard Layer 4 (Overlay)
//Storyboard Sound Samples

[TimingPoints]
2615,365.853658536585,4,2,1,60,1,0
4078,-142.857142857143,4,2,1,60,0,0
4901,-142.857142857143,4,2,1,5,0,0
4993,-142.857142857143,4,2,1,60,0,0
7919,-117.647058823529,4,2,1,60,0,0
8377,-117.647058823529,4,2,1,5,0,0
8468,-125,4,2,1,60,0,0
9932,-111.111111111111,4,2,1,60,0,0
11212,-133.333333333333,4,2,1,60,0,0
12858,-125,4,2,1,60,0,0
13224,-142.857142857143,4,2,1,60,0,0
13590,-166.666666666667,4,2,1,60,0,0
13956,-200,4,2,1,60,0,0
14322,-166.666666666667,4,2,1,60,0,0
15785,-111.111111111111,4,2,2,70,0,0
15877,-111.111111111111,4,2,4,70,0,0
18346,-111.111111111111,4,2,5,70,0,0
18438,-111.111111111111,4,2,4,70,0,0
21273,-111.111111111111,4,2,6,70,0,0
21364,-111.111111111111,4,2,4,70,0,0
24200,-111.111111111111,4,2,5,70,0,0
24291,-111.111111111111,4,2,4,70,0,0
27127,-111.111111111111,4,2,5,70,0,0
27218,-111.111111111111,4,2,4,70,0,0
30054,-111.111111111111,4,2,5,70,0,0
30145,-111.111111111111,4,2,4,70,0,0
31883,-105.263157894737,4,2,4,70,0,0
32980,-105.263157894737,4,2,5,70,0,0
33072,-105.263157894737,4,2,4,70,0,0
33346,-111.111111111111,4,2,4,70,0,0
35907,-111.111111111111,4,2,1,70,0,0
36273,-100,4,2,2,80,0,0
36364,-100,4,2,1,80,0,0
39932,-95.2380952380952,4,2,1,80,0,0
40206,-95.2380952380952,4,2,1,5,0,0
40297,-86.9565217391304,4,2,1,80,0,0
40572,-86.9565217391304,4,2,1,5,0,0
40663,-90.9090909090909,4,2,1,80,0,0
42858,-86.9565217391304,4,2,1,80,0,0
43133,-86.9565217391304,4,2,1,5,0,0
43224,-83.3333333333333,4,2,1,80,0,0
43499,-83.3333333333333,4,2,1,5,0,0
43590,-80,4,2,1,80,0,0
45054,-83.3333333333333,4,2,1,80,0,0
47980,-78.125,4,2,2,90,0,1
48072,-78.125,4,2,1,90,0,1
49352,-78.125,4,2,1,90,0,1
49444,-78.125,4,2,1,90,0,1
54200,-78.125,4,2,1,90,0,1
59322,-78.125,4,2,1,90,0,1
59596,-78.125,4,2,1,90,0,0
59688,-78.125,4,2,2,90,0,1
59779,-78.125,4,2,1,90,0,1
61060,-78.125,4,2,1,90,0,1
61151,-78.125,4,2,1,90,0,1
65816,-78.125,4,2,1,90,0,1
65907,-78.125,4,2,1,90,0,1
71029,-78.125,4,2,2,90,0,1
71212,-78.125,4,2,3,90,0,1
71304,-78.125,4,2,3,90,0,0
71395,-78.125,4,2,2,85,0,1
71486,-78.125,4,2,1,85,0,1
75602,-76.9230769230769,4,2,1,85,0,1
75877,-100,4,2,1,5,0,1
75968,-90.9090909090909,4,2,1,85,0,1
76243,-90.9090909090909,4,2,1,5,0,1
76334,-100,4,2,2,85,0,1
76425,-100,4,2,1,85,0,1
77066,-100,4,2,3,85,0,1
77157,-100,4,2,1,85,0,1
77249,-133.333333333333,4,2,1,85,0,0
77523,-100,4,2,1,5,0,0
77614,-78.125,4,2,2,85,0,1
77706,-78.125,4,2,1,85,0,1
78072,-78.125,4,2,1,85,0,1
78163,-78.125,4,2,1,85,0,1
80450,-100,4,2,1,5,0,1
80541,-78.125,4,2,1,85,0,1
83102,-133.333333333333,4,2,1,85,0,0
83377,-100,4,2,1,5,0,0
83468,-78.125,4,2,2,85,0,1
83560,-78.125,4,2,1,85,0,1
86029,379.746835443038,4,2,2,70,1,0
86029,-100,4,2,1,70,0,0
86768,384.615384615385,4,2,2,70,1,0
86768,-125,4,2,2,70,0,0
86960,-125,4,2,3,70,0,0
87152,394.736842105263,4,2,3,70,1,0
87152,-434.782608695652,4,2,1,70,0,0
87941,-434.782608695652,4,2,1,60,0,0
88730,-434.782608695652,4,2,1,50,0,0
89520,-434.782608695652,4,2,1,40,0,0
90309,-434.782608695652,4,2,1,30,0,0
91099,-434.782608695652,4,2,1,20,0,0
91888,-434.782608695652,4,2,1,10,0,0
92678,-434.782608695652,4,2,1,5,0,0

[Colours]
Combo1 : 253,115,156
Combo2 : 253,168,215
Combo3 : 255,164,173
Combo4 : 250,116,230
Combo5 : 134,104,253
SliderBorder : 255,164,164
SliderTrackOverride : 58,25,13

[HitObjects]
300,67,4078,6,0,P|306:44|315:21,2,48.9999985046387,2|2|2,0:0|0:0|0:0,0:0:0:0:
216,123,4627,2,0,P|230:158|235:194,1,73.4999977569581,2|0,0:0|0:0,0:0:0:0:
229,198,4993,1,2,0:0:0:0:
223,202,5358,5,0,0:0:0:0:
310,258,5541,2,0,L|363:255,1,48.9999985046387,2|0,0:0|0:0,0:0:0:0:
446,211,5907,2,0,L|417:167,1,48.9999985046387,2|0,0:0|0:0,0:0:0:0:
337,117,6273,1,2,0:0:0:0:
334,114,6639,2,0,L|311:162,1,48.9999985046387
218,227,7005,6,0,P|213:251|214:275,2,48.9999985046387,2|2|2,0:0|0:0|0:0,0:0:0:0:
118,178,7554,2,0,P|119:202|114:226,1,48.9999985046387,2|0,0:0|0:0,0:0:0:0:
85,335,7919,2,0,B|162:307|153:383|236:354,1,148.750002837181,2|0,0:0|0:0,0:0:0:0:
232,362,8468,6,0,P|268:359|302:357,1,56,2|2,0:0|0:0,0:0:0:0:
363,265,8834,1,2,0:0:0:0:
363,265,9017,2,0,P|326:262|293:260,1,56,2|0,0:0|0:0,0:0:0:0:
232,168,9383,1,2,0:0:0:0:
232,168,9566,1,2,0:0:0:0:
315,32,9932,6,0,P|370:57|380:117,1,125.999996154785,2|0,0:0|0:0,0:0:0:0:
469,130,10480,2,0,P|465:160|446:185,1,62.9999980773926
350,222,10846,1,2,0:0:0:0:
350,222,11029,1,2,0:0:0:0:
289,141,11212,6,0,B|237:143|201:94|201:94|182:153|121:165,1,210.000008010865,2|0,0:0|0:0,0:0:0:0:
20,97,12127,2,0,L|13:44,1,52.5000020027161,2|0,0:0|0:0,0:0:0:0:
100,24,12493,2,0,L|106:76,1,52.5000020027161,2|0,0:0|0:0,0:0:0:0:
40,192,12858,6,0,L|35:229,2,37.3333333333333,2|2|2,0:0|0:0|0:0,0:0:0:0:
115,242,13224,2,0,L|110:279,2,32.6666656697591,2|2|2,0:0|0:0|0:0,0:0:0:0:
200,211,13590,2,0,L|195:174,2,27.9999991455078,2|2|2,0:0|0:0|0:0,0:0:0:0:
276,183,13956,2,0,L|271:146,2,23.3333333333333,2|2|2,0:0|0:0|0:0,0:0:0:0:
353,227,14322,6,0,P|389:246|431:244,1,83.9999974365235,2|0,0:0|0:0,0:0:0:0:
462,102,14871,2,0,P|426:124|408:161,1,83.9999974365235,0|0,3:0|1:0,0:0:0:0:
512,216,15419,2,0,P|504:196|490:180,1,41.9999987182618,0|0,1:0|0:0,0:0:0:0:
472,324,15786,5,4,0:0:0:0:
469,328,16151,2,0,P|406:330|343:336,1,125.999996154785,2|0,0:0|0:0,0:0:0:0:
431,243,16700,2,0,P|399:243|368:246,1,62.9999980773926,2|8,0:0|0:0,0:0:0:0:
303,179,17066,1,2,0:0:0:0:
159,256,17249,6,0,B|180:274|180:274|288:267,1,125.999996154785,0|2,1:0|0:0,0:0:0:0:
298,116,17797,2,0,L|303:200,1,62.9999980773926,2|0,0:0|0:0,0:0:0:0:
431,243,18163,2,0,L|436:158,1,62.9999980773926,2|2,0:0|0:0,0:0:0:0:
440,174,18438,1,2,0:0:0:0:
445,168,18529,1,2,0:0:0:0:
404,40,18712,6,0,B|337:63|349:-5|261:32,1,125.999996154785,2|2,1:2|0:0,0:0:0:0:
217,132,19261,2,0,B|223:158|251:175|251:175|291:161|296:125,1,125.999996154785,2|2,0:0|0:0,0:0:0:0:
298,116,19718,1,2,0:0:0:0:
298,107,19810,1,10,0:0:0:0:
170,18,19993,6,0,B|111:22|111:22|100:29|100:29|33:34,1,125.999996154785,2|0,0:0|0:0,0:0:0:0:
215,112,20541,1,2,0:0:0:0:
215,112,20724,2,0,B|156:116|156:116|145:123|145:123|78:128,1,125.999996154785,2|2,0:0|0:0,0:0:0:0:
260,206,21273,1,2,0:0:0:0:
260,206,21456,1,2,0:0:0:0:
372,129,21639,6,0,B|404:133|433:111|433:111|448:144|499:154,1,125.999996154785,0|2,1:0|0:0,0:0:0:0:
404,274,22188,2,0,L|414:212,1,62.9999980773926,2|0,0:0|0:0,0:0:0:0:
444,358,22554,2,0,B|412:354|382:375|382:375|367:342|316:332,1,125.999996154785,2|2,0:0|0:0,0:0:0:0:
204,227,23102,6,0,L|215:297,1,62.9999980773926,2|0,1:2|0:0,0:0:0:0:
137,355,23468,1,2,0:0:0:0:
137,355,23651,2,0,L|71:329,1,62.9999980773926,2|0,0:0|0:0,0:0:0:0:
59,232,24017,2,0,L|113:187,1,62.9999980773926,2|2,0:0|0:0,0:0:0:0:
210,223,24383,1,2,0:0:0:0:
299,140,24566,6,0,B|376:119|362:186|442:169,1,125.999996154785,0|0,1:0|0:0,0:0:0:0:
512,68,25114,1,2,0:0:0:0:
405,36,25297,2,0,P|412:76|442:93,1,62.9999980773926,2|2,0:0|0:0,0:0:0:0:
438,224,25663,2,0,P|431:184|401:167,1,62.9999980773926,10|2,0:0|0:0,0:0:0:0:
292,258,26029,5,0,0:0:0:0:
198,157,26212,2,0,L|204:248,1,62.9999980773926,2|0,0:0|0:0,0:0:0:0:
314,355,26578,2,0,P|351:343|375:309,1,62.9999980773926,2|0,0:0|0:0,0:0:0:0:
296,195,26944,2,0,L|290:286,1,62.9999980773926,2|2,0:0|0:0,0:0:0:0:
205,382,27310,1,2,0:0:0:0:
137,296,27493,6,0,B|78:292|78:292|67:285|67:285|0:280,1,125.999996154785,2|0,1:2|0:0,0:0:0:0:
128,152,28041,1,0,0:0:0:0:
128,152,28224,2,0,L|219:158,1,62.9999980773926,2|0,0:0|0:0,0:0:0:0:
143,291,28590,1,10,0:0:0:0:
47,195,28773,6,0,P|42:120|97:70,1,125.999996154785,2|0,1:2|0:0,0:0:0:0:
253,160,29322,1,2,0:0:0:0:
253,160,29505,2,0,L|183:155,1,62.9999980773926,2|0,0:0|0:0,0:0:0:0:
186,50,29871,2,0,L|255:54,1,62.9999980773926,2|2,0:0|0:0,0:0:0:0:
382,165,30236,1,0,0:0:0:0:
456,42,30419,5,0,1:2:0:0:
502,130,30602,2,0,B|494:230|494:230|465:197,1,125.999996154785,0|2,0:0|0:0,0:0:0:0:
316,251,31151,1,2,0:0:0:0:
316,251,31334,1,2,0:0:0:0:
418,305,31517,1,10,0:0:0:0:
418,305,31700,1,2,1:2:0:0:
320,370,31883,6,0,B|241:385|260:319|179:331,1,132.999996448517,0|0,1:0|0:0,0:0:0:0:
185,188,32432,2,0,B|175:267|118:229|104:309,1,132.999996448517,0|0,1:2|0:0,0:0:0:0:
116,384,32980,1,2,0:0:0:0:
198,329,33163,1,0,1:2:0:0:
326,373,33346,6,0,B|425:365|425:365|397:333,1,125.999996154785,0|0,1:2|0:0,0:0:0:0:
302,213,33895,1,0,0:0:0:0:
302,213,34078,2,0,L|306:282,1,62.9999980773926,2|0,0:0|0:0,0:0:0:0:
415,173,34444,1,10,0:0:0:0:
415,173,34627,2,0,L|410:242,1,62.9999980773926,2|0,0:0|1:2,0:0:0:0:
264,130,34993,6,0,P|296:118|338:128,1,62.9999980773926,2|0,0:0|0:0,0:0:0:0:
181,109,35358,2,0,P|193:76|227:51,1,62.9999980773926,2|0,0:0|0:0,0:0:0:0:
111,159,35724,2,0,P|94:128|97:86,1,62.9999980773926,2|8,0:0|0:0,0:0:0:0:
203,208,36090,1,2,0:0:0:0:
106,325,36273,6,0,L|110:255,1,70,4|0,1:2|0:0,0:0:0:0:
206,384,36639,2,0,L|210:314,1,70,8|2,0:0|0:0,0:0:0:0:
306,251,37005,1,2,0:0:0:0:
306,251,37188,1,2,0:0:0:0:
402,384,37371,2,0,L|398:314,1,70,10|2,0:0|0:0,0:0:0:0:
432,174,37736,6,0,B|354:200|366:129|276:169,1,140,2|8,1:2|0:0,0:0:0:0:
261,55,38285,2,0,P|229:69|208:97,1,70,2|0,0:0|0:0,0:0:0:0:
195,188,38651,2,0,P|199:222|219:250,1,70,2|8,0:0|0:0,0:0:0:0:
297,161,39017,1,2,0:0:0:0:
106,127,39200,5,2,1:2:0:0:
106,127,39383,1,2,0:0:0:0:
35,199,39566,2,0,L|31:269,1,70,10|2,0:0|0:0,0:0:0:0:
115,340,39932,2,0,B|144:342|165:361|165:361|184:339|231:326,1,110.249996635437,2|0,0:0|0:0,0:0:0:0:
220,337,40297,2,0,B|278:341|278:341|283:338|283:338|356:343,1,120.750002303124,10|0,0:0|0:0,0:0:0:0:
350,347,40663,6,0,B|369:377|369:377|380:223,1,154.000004699707,2|10,1:2|0:0,0:0:0:0:
254,167,41212,2,0,L|259:243,1,77.0000023498536,2|0,0:0|0:0,0:0:0:0:
360,157,41578,2,0,L|365:80,1,77.0000023498536,2|8,0:0|0:0,0:0:0:0:
249,161,41944,1,2,0:0:0:0:
121,25,42127,5,2,1:2:0:0:
121,25,42310,1,2,0:0:0:0:
117,117,42493,2,0,P|159:112|189:91,1,77.0000023498536,10|2,0:0|0:0,0:0:0:0:
9,59,42858,2,0,P|13:119|7:179,1,120.750002303124,2|0,0:0|0:0,0:0:0:0:
1,195,43224,2,0,B|75:174|55:231|130:215,1,125.999996154785,10|0,0:0|0:0,0:0:0:0:
129,224,43590,6,0,B|210:214|210:214|221:221|221:221|303:212,1,175,2|10,1:2|0:0,0:0:0:0:
357,51,44139,2,0,L|369:171,1,87.5,2|0,0:0|0:0,0:0:0:0:
505,169,44505,2,0,P|425:155|396:230,1,175,2|0,0:0|1:2,0:0:0:0:
484,352,45054,5,2,1:2:0:0:
484,352,45236,2,0,L|492:264,1,83.9999974365235,2|8,0:0|0:0,0:0:0:0:
396,230,45602,2,0,L|388:313,1,83.9999974365235,2|0,0:0|0:0,0:0:0:0:
298,208,45968,2,0,L|291:125,1,83.9999974365235,2|10,0:0|0:0,0:0:0:0:
194,163,46334,2,0,L|201:246,1,83.9999974365235,2|0,0:0|1:0,0:0:0:0:
113,368,46700,2,0,L|97:201,1,167.999994873047,10|10,0:0|0:0,0:0:0:0:
89,192,47157,5,8,0:0:0:0:
82,184,47249,1,10,1:2:0:0:
291,125,47614,1,10,1:2:0:0:
441,384,47980,5,6,1:2:0:0:
344,361,48163,1,2,0:0:0:0:
512,314,48346,1,10,0:0:0:0:
331,270,48529,2,0,L|339:360,1,89.6,2|2,0:0|1:2,0:0:0:0:
439,384,48895,1,2,1:2:0:0:
512,305,49078,6,0,L|495:119,1,179.2,8|0,0:0|0:0,0:0:0:0:
417,4,49627,1,2,1:2:0:0:
306,16,49810,1,10,0:0:0:0:
259,117,49993,1,2,0:0:0:0:
264,126,50084,1,8,0:0:0:0:
267,134,50175,2,0,L|275:236,1,89.6,2|0,1:2|1:0,0:0:0:0:
164,77,50541,2,0,L|156:167,1,89.6,10|2,0:0|0:0,0:0:0:0:
152,174,50816,1,0,0:0:0:0:
148,182,50907,5,2,1:2:0:0:
55,44,51090,1,2,0:0:0:0:
0,139,51273,1,10,0:0:0:0:
88,260,51456,2,0,P|131:284|176:276,1,89.6,2|2,0:0|1:2,0:0:0:0:
276,216,51822,1,2,1:2:0:0:
397,289,52005,6,0,P|307:270|245:334,1,179.2,8|0,0:0|0:0,0:0:0:0:
340,373,52554,1,2,1:2:0:0:
492,330,52736,1,10,0:0:0:0:
405,182,52919,1,2,0:0:0:0:
399,188,53011,1,8,0:0:0:0:
393,194,53102,2,0,L|401:284,1,89.6,2|2,1:2|1:2,0:0:0:0:
467,110,53468,2,0,P|428:89|384:91,1,89.6,10|2,0:0|0:0,0:0:0:0:
377,103,53743,1,8,0:0:0:0:
374,112,53834,6,0,P|286:130|199:154,1,179.2,6|10,1:2|0:0,0:0:0:0:
271,12,54383,2,0,P|184:36|99:66,1,179.2,2|0,0:0|1:0,0:0:0:0:
171,232,54932,2,0,P|198:197|199:153,1,89.6,8|2,0:0|1:2,0:0:0:0:
0,77,55297,5,2,0:0:0:0:
114,164,55480,1,2,1:2:0:0:
14,264,55663,2,0,P|25:307|39:349,1,89.6,10|2,0:0|0:0,0:0:0:0:
47,351,55938,1,8,0:0:0:0:
55,353,56030,1,0,1:2:0:0:
139,249,56212,1,0,1:2:0:0:
237,349,56395,2,0,P|251:307|264:264,1,89.6,8|2,0:0|0:0,0:0:0:0:
308,125,56761,5,2,1:2:0:0:
512,186,56944,1,2,0:0:0:0:
422,281,57127,2,0,P|395:246|394:202,1,89.6,10|2,0:0|0:0,0:0:0:0:
401,190,57401,1,8,0:0:0:0:
409,178,57493,2,0,L|505:177,1,89.6,2|0,1:2|1:2,0:0:0:0:
441,40,57858,1,10,0:0:0:0:
268,147,58041,6,0,B|178:112|193:200|84:158,1,179.2,2|2,1:2|1:2,0:0:0:0:
11,0,58590,2,0,P|12:44|11:89,1,89.6,10|2,0:0|0:0,0:0:0:0:
6,116,58864,1,8,0:0:0:0:
2,143,58956,1,0,1:2:0:0:
128,65,59139,1,10,0:0:0:0:
131,72,59230,1,10,0:0:0:0:
134,79,59322,1,10,0:0:0:0:
252,39,59505,1,2,0:0:0:0:
336,176,59688,5,6,1:2:0:0:
378,45,59871,1,2,0:0:0:0:
225,133,60054,1,10,0:0:0:0:
329,266,60236,2,0,B|347:243|347:243|339:155,1,89.6,2|0,0:0|1:0,0:0:0:0:
378,45,60602,1,2,1:2:0:0:
485,108,60785,6,0,B|480:140|454:157|454:157|468:299,1,179.2,8|0,0:0|0:0,0:0:0:0:
364,384,61334,1,2,1:2:0:0:
248,348,61517,1,10,0:0:0:0:
221,227,61700,1,2,0:0:0:0:
220,218,61791,1,8,0:0:0:0:
219,208,61883,2,0,B|240:188|240:188|323:195,1,89.6,2|0,1:2|1:0,0:0:0:0:
253,355,62249,2,0,B|230:373|230:373|142:365,1,89.6,10|2,0:0|0:0,0:0:0:0:
151,375,62523,1,0,0:0:0:0:
133,383,62614,5,2,1:2:0:0:
39,274,62797,1,2,0:0:0:0:
170,180,62980,1,10,0:0:0:0:
63,54,63163,2,0,L|56:144,1,89.6,2|0,0:0|1:0,0:0:0:0:
39,274,63529,1,2,1:2:0:0:
170,180,63712,6,0,B|229:151|244:73|244:73|245:152|324:189,1,268.8,8|2,0:0|1:2,0:0:0:0:
484,88,64444,1,10,0:0:0:0:
354,38,64627,1,2,0:0:0:0:
348,42,64718,1,8,0:0:0:0:
342,46,64810,2,0,P|344:98|395:119,1,89.6,2|0,1:2|1:0,0:0:0:0:
507,215,65175,2,0,P|460:190|417:224,1,89.6,10|2,0:0|0:0,0:0:0:0:
421,218,65450,1,8,0:0:0:0:
413,232,65541,6,0,B|323:197|338:285|229:243,1,179.2,6|10,1:2|0:0,0:0:0:0:
180,91,66090,1,0,0:0:0:0:
171,85,66182,1,8,0:0:0:0:
162,79,66273,2,0,L|157:192,1,89.6,0|0,1:0|1:0,0:0:0:0:
225,350,66639,5,10,0:0:0:0:
53,336,66822,2,0,B|37:284|84:242|84:242|108:273|148:274,1,179.2,6|0,1:2|1:0,0:0:0:0:
291,155,67371,1,10,0:0:0:0:
392,302,67554,2,0,P|304:320|217:344,1,179.2,6|0,1:2|1:0,0:0:0:0:
285,163,68102,2,0,P|328:175|371:185,1,89.6,10|2,0:0|0:0,0:0:0:0:
421,212,68377,1,8,0:0:0:0:
427,218,68468,6,0,B|451:226|465:244|465:244|465:177|472:104,1,179.2,6|10,1:2|0:0,0:0:0:0:
326,2,69017,2,0,P|322:46|343:84,1,89.6,2|0,1:2|0:0,0:0:0:0:
511,20,69383,2,0,P|467:10|426:24,1,89.6,2|8,1:2|0:0,0:0:0:0:
285,163,69749,6,0,B|211:157|211:157|196:161|196:161|95:154,1,179.2,6|0,1:2|1:0,0:0:0:0:
55,175,70206,1,0,0:0:0:0:
44,180,70297,2,0,L|51:74,1,89.6,8|8,0:0|0:0,0:0:0:0:
54,64,70572,1,8,0:0:0:0:
57,37,70663,1,10,0:0:0:0:
203,132,70846,1,2,3:2:0:0:
320,33,71029,2,0,B|363:35|363:35|368:33|368:33|418:36,1,89.6,2|0,3:2|3:2,0:0:0:0:
481,209,71395,6,0,B|472:245|431:258|390:225|382:181|424:126,1,179.2,4|8,1:2|0:0,0:0:0:0:
502,12,71944,1,0,0:0:0:0:
507,6,72035,1,8,0:0:0:0:
512,0,72127,2,0,L|506:91,1,89.6,2|2,1:2|1:2,0:0:0:0:
410,144,72493,1,10,0:0:0:0:
308,0,72675,6,0,P|314:47|314:91,1,89.6,2|0,1:2|0:0,0:0:0:0:
132,109,73041,2,0,P|171:79|206:59,1,89.6,2|8,1:2|0:0,0:0:0:0:
325,197,73407,1,2,0:0:0:0:
320,202,73499,1,0,0:0:0:0:
315,207,73590,2,0,P|268:189|234:167,1,89.6,2|2,1:2|1:2,0:0:0:0:
416,116,73956,1,10,0:0:0:0:
496,294,74139,1,2,0:0:0:0:
501,303,74230,1,8,0:0:0:0:
506,312,74322,6,0,L|512:222,1,89.6,0|0,1:2|0:0,0:0:0:0:
319,222,74688,2,0,L|326:312,1,89.6,8|0,0:0|0:0,0:0:0:0:
328,338,74962,1,8,0:0:0:0:
331,365,75054,1,0,1:0:0:0:
179,245,75236,1,2,1:2:0:0:
180,252,75328,1,2,0:0:0:0:
181,259,75419,1,10,0:0:0:0:
28,185,75602,6,0,P|-4:242|21:304,1,136.499993751526,6|0,1:2|0:0,0:0:0:0:
54,337,75968,2,0,B|123:319|101:382|191:358,1,115.50000352478,10|0,0:0|0:0,0:0:0:0:
211,359,76334,2,0,P|243:369|276:357,1,70,2|0,3:2|1:0,0:0:0:0:
341,204,76700,1,10,0:0:0:0:
319,222,76791,1,8,0:0:0:0:
309,248,76883,1,8,0:0:0:0:
378,375,77066,1,2,3:2:0:0:
512,233,77249,6,0,B|508:194|508:194|505:187|505:187|502:154,1,78.7500030040742,0|0,1:0|0:0,0:0:0:0:
502,147,77614,6,0,B|409:130|437:223|321:200,1,179.2,6|0,1:2|0:0,0:0:0:0:
252,91,78163,1,2,1:2:0:0:
349,113,78346,1,10,0:0:0:0:
138,260,78529,6,0,P|148:171|158:82,1,179.2,6|0,1:2|1:0,0:0:0:0:
251,194,79078,2,0,P|295:198|340:202,1,89.6,8|0,0:0|0:0,0:0:0:0:
357,199,79352,1,8,0:0:0:0:
371,194,79444,1,0,1:0:0:0:
431,64,79627,1,0,1:0:0:0:
289,65,79809,1,10,0:0:0:0:
282,70,79901,1,2,0:0:0:0:
275,75,79993,1,2,0:0:0:0:
268,80,80084,1,2,0:0:0:0:
261,85,80175,6,0,B|241:97|232:120|232:120|196:68|131:85,1,134.4,6|0,1:2|0:0,0:0:0:0:
112,100,80541,2,0,P|84:134|78:178,1,89.6,8|0,0:0|0:0,0:0:0:0:
232,288,80907,2,0,P|215:246|179:218,1,89.6,0|2,1:0|0:0,0:0:0:0:
54,301,81273,1,10,0:0:0:0:
201,383,81456,6,0,B|283:377|283:377|291:371|291:371|383:365,1,179.2,6|0,1:2|1:0,0:0:0:0:
495,349,82005,2,0,L|490:259,1,89.6,8|0,0:0|0:0,0:0:0:0:
488,224,82279,1,8,0:0:0:0:
486,189,82370,1,0,1:0:0:0:
322,273,82554,1,10,0:0:0:0:
311,277,82646,1,10,0:0:0:0:
300,281,82736,2,0,L|241:284,3,44.8,10|2|2|2,0:0|0:0|0:0|0:0,0:0:0:0:
198,269,83102,6,0,B|194:230|194:230|191:223|191:223|188:190,1,78.7500030040742,0|0,1:2|0:0,0:0:0:0:
179,183,83468,6,0,B|143:174|130:133|163:92|207:84|262:126,1,179.2,6|0,1:2|1:0,0:0:0:0:
360,186,84017,1,2,1:2:0:0:
512,98,84200,1,10,0:0:0:0:
492,263,84383,6,0,B|407:221|408:318|303:264,1,179.2,6|0,1:2|1:0,0:0:0:0:
245,118,84932,2,0,B|241:153|241:153|238:161|238:161|233:206,1,89.6,8|2,0:0|0:0,0:0:0:0:
226,240,85206,1,2,0:0:0:0:
218,273,85298,1,2,1:2:0:0:
92,161,85480,1,0,1:2:0:0:
17,288,85663,2,0,P|5:329|30:365,1,89.6,8|0,0:0|0:0,0:0:0:0:
80,378,85938,1,0,0:0:0:0:
87,383,86029,6,0,L|166:376,2,70,6|2|2,0:0|0:0|0:0,0:0:0:0:
14,275,86598,1,2,3:2:0:0:
95,168,86768,2,0,L|158:174,1,56,2|2,3:2|3:2,0:0:0:0:
246,283,87152,6,0,B|315:322|372:264|372:264|423:211|521:246|517:379|403:364|403:364|420:329|465:335,1,482.999983786011,6|0,1:2|0:0,0:0:0:0:
